  0
SECTION
  2
HEADER
  9
$ACADVER
  1
AC1015
  9
$ACADMAINTVER
 70
    13
  9
$DWGCODEPAGE
  3
ANSI_1252
  9
$INSBASE
 10
0.0
 20
0.0
 30
0.0
  9
$EXTMIN
 10
-428.2382888122149
 20
-98.98024602267426
 30
0.0
  9
$EXTMAX
 10
506.761711187785
 20
306.8527128130598
 30
0.0
  9
$LIMMIN
 10
0.0
 20
0.0
  9
$LIMMAX
 10
420.0
 20
297.0
  9
$ORTHOMODE
 70
     0
  9
$REGENMODE
 70
     1
  9
$FILLMODE
 70
     1
  9
$QTEXTMODE
 70
     0
  9
$MIRRTEXT
 70
     1
  9
$LTSCALE
 40
1.0
  9
$ATTMODE
 70
     1
  9
$TEXTSIZE
 40
15.0
  9
$TRACEWID
 40
1.0
  9
$TEXTSTYLE
  7
Standard
  9
$CLAYER
  8
popis
  9
$CELTYPE
  6
ByLayer
  9
$CECOLOR
 62
   256
  9
$CELTSCALE
 40
1.0
  9
$DISPSILH
 70
     0
  9
$DIMSCALE
 40
10.0
  9
$DIMASZ
 40
2.0
  9
$DIMEXO
 40
0.625
  9
$DIMDLI
 40
3.75
  9
$DIMRND
 40
0.0
  9
$DIMDLE
 40
0.0
  9
$DIMEXE
 40
1.25
  9
$DIMTP
 40
0.0
  9
$DIMTM
 40
0.0
  9
$DIMTXT
 40
2.0
  9
$DIMCEN
 40
2.5
  9
$DIMTSZ
 40
0.0
  9
$DIMTOL
 70
     0
  9
$DIMLIM
 70
     0
  9
$DIMTIH
 70
     0
  9
$DIMTOH
 70
     0
  9
$DIMSE1
 70
     0
  9
$DIMSE2
 70
     0
  9
$DIMTAD
 70
     1
  9
$DIMZIN
 70
     8
  9
$DIMBLK
  1

  9
$DIMASO
 70
     1
  9
$DIMSHO
 70
     1
  9
$DIMPOST
  1

  9
$DIMAPOST
  1

  9
$DIMALT
 70
     0
  9
$DIMALTD
 70
     3
  9
$DIMALTF
 40
0.03937007874016
  9
$DIMLFAC
 40
1.0
  9
$DIMTOFL
 70
     1
  9
$DIMTVP
 40
0.0
  9
$DIMTIX
 70
     0
  9
$DIMSOXD
 70
     0
  9
$DIMSAH
 70
     0
  9
$DIMBLK1
  1

  9
$DIMBLK2
  1

  9
$DIMSTYLE
  2
ISO-25
  9
$DIMCLRD
 70
     0
  9
$DIMCLRE
 70
     0
  9
$DIMCLRT
 70
     0
  9
$DIMTFAC
 40
1.0
  9
$DIMGAP
 40
0.625
  9
$DIMJUST
 70
     0
  9
$DIMSD1
 70
     0
  9
$DIMSD2
 70
     0
  9
$DIMTOLJ
 70
     0
  9
$DIMTZIN
 70
     8
  9
$DIMALTZ
 70
     0
  9
$DIMALTTZ
 70
     0
  9
$DIMUPT
 70
     0
  9
$DIMDEC
 70
     2
  9
$DIMTDEC
 70
     2
  9
$DIMALTU
 70
     2
  9
$DIMALTTD
 70
     3
  9
$DIMTXSTY
  7
Standard
  9
$DIMAUNIT
 70
     0
  9
$DIMADEC
 70
     0
  9
$DIMALTRND
 40
0.0
  9
$DIMAZIN
 70
     0
  9
$DIMDSEP
 70
    44
  9
$DIMATFIT
 70
     3
  9
$DIMFRAC
 70
     0
  9
$DIMLDRBLK
  1

  9
$DIMLUNIT
 70
     2
  9
$DIMLWD
 70
    -2
  9
$DIMLWE
 70
    -2
  9
$DIMTMOVE
 70
     0
  9
$LUNITS
 70
     2
  9
$LUPREC
 70
     4
  9
$SKETCHINC
 40
1.0
  9
$FILLETRAD
 40
10.0
  9
$AUNITS
 70
     0
  9
$AUPREC
 70
     0
  9
$MENU
  1
.
  9
$ELEVATION
 40
0.0
  9
$PELEVATION
 40
0.0
  9
$THICKNESS
 40
0.0
  9
$LIMCHECK
 70
     0
  9
$CHAMFERA
 40
10.0
  9
$CHAMFERB
 40
10.0
  9
$CHAMFERC
 40
20.0
  9
$CHAMFERD
 40
0.0
  9
$SKPOLY
 70
     0
  9
$TDCREATE
 40
2453639.692351574
  9
$TDUCREATE
 40
2453639.650684907
  9
$TDUPDATE
 40
2453685.492384432
  9
$TDUUPDATE
 40
2453685.450717766
  9
$TDINDWG
 40
0.1120978935
  9
$TDUSRTIMER
 40
0.1120973148
  9
$USRTIMER
 70
     1
  9
$ANGBASE
 50
0.0
  9
$ANGDIR
 70
     0
  9
$PDMODE
 70
     0
  9
$PDSIZE
 40
0.0
  9
$PLINEWID
 40
0.0
  9
$SPLFRAME
 70
     0
  9
$SPLINETYPE
 70
     6
  9
$SPLINESEGS
 70
     8
  9
$HANDSEED
  5
28E
  9
$SURFTAB1
 70
     6
  9
$SURFTAB2
 70
     6
  9
$SURFTYPE
 70
     6
  9
$SURFU
 70
     6
  9
$SURFV
 70
     6
  9
$UCSBASE
  2

  9
$UCSNAME
  2

  9
$UCSORG
 10
0.0
 20
0.0
 30
0.0
  9
$UCSXDIR
 10
1.0
 20
0.0
 30
0.0
  9
$UCSYDIR
 10
0.0
 20
1.0
 30
0.0
  9
$UCSORTHOREF
  2

  9
$UCSORTHOVIEW
 70
     1
  9
$UCSORGTOP
 10
0.0
 20
0.0
 30
0.0
  9
$UCSORGBOTTOM
 10
0.0
 20
0.0
 30
0.0
  9
$UCSORGLEFT
 10
0.0
 20
0.0
 30
0.0
  9
$UCSORGRIGHT
 10
0.0
 20
0.0
 30
0.0
  9
$UCSORGFRONT
 10
0.0
 20
0.0
 30
0.0
  9
$UCSORGBACK
 10
0.0
 20
0.0
 30
0.0
  9
$PUCSBASE
  2

  9
$PUCSNAME
  2

  9
$PUCSORG
 10
0.0
 20
0.0
 30
0.0
  9
$PUCSXDIR
 10
1.0
 20
0.0
 30
0.0
  9
$PUCSYDIR
 10
0.0
 20
1.0
 30
0.0
  9
$PUCSORTHOREF
  2

  9
$PUCSORTHOVIEW
 70
     0
  9
$PUCSORGTOP
 10
0.0
 20
0.0
 30
0.0
  9
$PUCSORGBOTTOM
 10
0.0
 20
0.0
 30
0.0
  9
$PUCSORGLEFT
 10
0.0
 20
0.0
 30
0.0
  9
$PUCSORGRIGHT
 10
0.0
 20
0.0
 30
0.0
  9
$PUCSORGFRONT
 10
0.0
 20
0.0
 30
0.0
  9
$PUCSORGBACK
 10
0.0
 20
0.0
 30
0.0
  9
$USERI1
 70
     0
  9
$USERI2
 70
     0
  9
$USERI3
 70
     0
  9
$USERI4
 70
     0
  9
$USERI5
 70
     0
  9
$USERR1
 40
0.0
  9
$USERR2
 40
0.0
  9
$USERR3
 40
0.0
  9
$USERR4
 40
0.0
  9
$USERR5
 40
0.0
  9
$WORLDVIEW
 70
     1
  9
$SHADEDGE
 70
     3
  9
$SHADEDIF
 70
    70
  9
$TILEMODE
 70
     1
  9
$MAXACTVP
 70
    64
  9
$PINSBASE
 10
0.0
 20
0.0
 30
0.0
  9
$PLIMCHECK
 70
     0
  9
$PEXTMIN
 10
1.000000000000000E+20
 20
1.000000000000000E+20
 30
1.000000000000000E+20
  9
$PEXTMAX
 10
-1.000000000000000E+20
 20
-1.000000000000000E+20
 30
-1.000000000000000E+20
  9
$PLIMMIN
 10
0.0
 20
0.0
  9
$PLIMMAX
 10
420.0
 20
297.0
  9
$UNITMODE
 70
     0
  9
$VISRETAIN
 70
     1
  9
$PLINEGEN
 70
     0
  9
$PSLTSCALE
 70
     1
  9
$TREEDEPTH
 70
  3020
  9
$CMLSTYLE
  2
Standard
  9
$CMLJUST
 70
     0
  9
$CMLSCALE
 40
20.0
  9
$PROXYGRAPHICS
 70
     1
  9
$MEASUREMENT
 70
     1
  9
$CELWEIGHT
370
    -1
  9
$ENDCAPS
280
     0
  9
$JOINSTYLE
280
     0
  9
$LWDISPLAY
290
     0
  9
$INSUNITS
 70
     4
  9
$HYPERLINKBASE
  1

  9
$STYLESHEET
  1

  9
$XEDIT
290
     1
  9
$CEPSNTYPE
380
     0
  9
$PSTYLEMODE
290
     1
  9
$FINGERPRINTGUID
  2
{9B47308E-04D6-42FB-BD32-F27AC533D1CD}
  9
$VERSIONGUID
  2
{03C6E562-C71C-4224-8AAC-6DF99414964D}
  9
$EXTNAMES
290
     1
  9
$PSVPSCALE
 40
0.0
  9
$OLESTARTUP
290
     0
  0
ENDSEC
  0
SECTION
  2
CLASSES
  0
CLASS
  1
ACDBDICTIONARYWDFLT
  2
AcDbDictionaryWithDefault
  3
AutoCAD 2000
 90
        0
280
     0
281
     0
  0
CLASS
  1
ACDBPLACEHOLDER
  2
AcDbPlaceHolder
  3
AutoCAD 2000
 90
        0
280
     0
281
     0
  0
CLASS
  1
LAYOUT
  2
AcDbLayout
  3
AutoCAD 2000
 90
        0
280
     0
281
     0
  0
CLASS
  1
DICTIONARYVAR
  2
AcDbDictionaryVar
  3
AutoCAD 2000
 90
        0
280
     0
281
     0
  0
CLASS
  1
DIMASSOC
  2
AcDbDimAssoc
  3
"AcDbDimAssoc|Product Desc:     AcDim ARX App For Dimension|Company:          Autodesk, Inc.|WEB Address:      www.autodesk.com"
 90
        0
280
     0
281
     0
  0
ENDSEC
  0
SECTION
  2
TABLES
  0
TABLE
  2
VPORT
  5
8
330
0
100
AcDbSymbolTable
 70
     3
  0
VPORT
  5
28D
330
8
100
AcDbSymbolTableRecord
100
AcDbViewportTableRecord
  2
*Active
 70
     0
 10
0.0
 20
0.0
 11
1.0
 21
1.0
 12
39.26171118778507
 22
103.9362333951927
 13
0.0
 23
0.0
 14
10.0
 24
10.0
 15
10.0
 25
10.0
 16
0.0
 26
0.0
 36
1.0
 17
0.0
 27
0.0
 37
0.0
 40
505.194036138418
 41
1.862475442043221
 42
50.0
 43
0.0
 44
0.0
 50
0.0
 51
0.0
 71
     0
 72
   100
 73
     1
 74
     3
 75
     0
 76
     0
 77
     0
 78
     0
281
     0
 65
     1
110
0.0
120
0.0
130
0.0
111
1.0
121
0.0
131
0.0
112
0.0
122
1.0
132
0.0
 79
     1
146
0.0
  0
ENDTAB
  0
TABLE
  2
LTYPE
  5
5
330
0
100
AcDbSymbolTable
 70
     3
  0
LTYPE
  5
14
330
5
100
AcDbSymbolTableRecord
100
AcDbLinetypeTableRecord
  2
ByBlock
 70
     0
  3

 72
    65
 73
     0
 40
0.0
  0
LTYPE
  5
15
330
5
100
AcDbSymbolTableRecord
100
AcDbLinetypeTableRecord
  2
ByLayer
 70
     0
  3

 72
    65
 73
     0
 40
0.0
  0
LTYPE
  5
16
330
5
100
AcDbSymbolTableRecord
100
AcDbLinetypeTableRecord
  2
Continuous
 70
     0
  3
Solid line
 72
    65
 73
     0
 40
0.0
  0
LTYPE
  5
121
330
5
100
AcDbSymbolTableRecord
100
AcDbLinetypeTableRecord
  2
ACAD_ISO02W100
 70
     0
  3
ISO èárkovaná __ __ __ __ __ __ __ __ __ __ __ 
 72
    65
 73
     2
 40
15.0
 49
12.0
 74
     0
 49
-3.0
 74
     0
  0
LTYPE
  5
122
330
5
100
AcDbSymbolTableRecord
100
AcDbLinetypeTableRecord
  2
ACAD_ISO03W100
 70
     0
  3
ISO pøerušovaná __    __    __    __    __    _
 72
    65
 73
     2
 40
30.0
 49
12.0
 74
     0
 49
-18.0
 74
     0
  0
ENDTAB
  0
TABLE
  2
LAYER
  5
2
330
0
100
AcDbSymbolTable
 70
     5
  0
LAYER
  5
10
330
2
100
AcDbSymbolTableRecord
100
AcDbLayerTableRecord
  2
0
 70
     0
 62
    90
  6
Continuous
370
    -3
390
F
  0
LAYER
  5
2B
330
2
100
AcDbSymbolTableRecord
100
AcDbLayerTableRecord
  2
koty
 70
     0
 62
    41
  6
Continuous
370
    -3
390
F
  0
LAYER
  5
2C
330
2
100
AcDbSymbolTableRecord
100
AcDbLayerTableRecord
  2
popis
 70
     0
 62
   210
  6
Continuous
370
    -3
390
F
  0
LAYER
  5
4E
330
2
100
AcDbSymbolTableRecord
100
AcDbLayerTableRecord
  2
Defpoints
 70
     0
 62
     7
  6
Continuous
290
     0
370
    -3
390
F
  0
LAYER
  5
C4
330
2
100
AcDbSymbolTableRecord
100
AcDbLayerTableRecord
  2
srafy
 70
     0
 62
     7
  6
Continuous
370
    -3
390
F
  0
ENDTAB
  0
TABLE
  2
STYLE
  5
3
330
0
100
AcDbSymbolTable
 70
     2
  0
STYLE
  5
11
330
3
100
AcDbSymbolTableRecord
100
AcDbTextStyleTableRecord
  2
Standard
 70
     0
 40
0.0
 41
1.0
 50
0.0
 71
     0
 42
15.0
  3
txt
  4

  0
STYLE
  5
120
330
3
100
AcDbSymbolTableRecord
100
AcDbTextStyleTableRecord
  2

 70
     1
 40
0.0
 41
1.0
 50
0.0
 71
     0
 42
2.5
  3
ltypeshp.shx
  4

  0
ENDTAB
  0
TABLE
  2
VIEW
  5
6
330
0
100
AcDbSymbolTable
 70
     0
  0
ENDTAB
  0
TABLE
  2
UCS
  5
7
330
0
100
AcDbSymbolTable
 70
     0
  0
ENDTAB
  0
TABLE
  2
APPID
  5
9
330
0
100
AcDbSymbolTable
 70
     1
  0
APPID
  5
12
330
9
100
AcDbSymbolTableRecord
100
AcDbRegAppTableRecord
  2
ACAD
 70
     0
  0
ENDTAB
  0
TABLE
  2
DIMSTYLE
  5
A
330
0
100
AcDbSymbolTable
 70
     1
100
AcDbDimStyleTable
 71
     1
340
27
  0
DIMSTYLE
105
27
102
{ACAD_REACTORS
330
22B
330
243
330
25B
330
273
102
}
330
A
100
AcDbSymbolTableRecord
100
AcDbDimStyleTableRecord
  2
ISO-25
 70
     0
 40
10.0
 41
2.0
 42
0.625
 43
3.75
 44
1.25
 73
     0
 74
     0
 77
     1
 78
     8
140
2.0
141
2.5
143
0.03937007874016
147
0.625
171
     3
172
     1
271
     2
272
     2
274
     3
278
    44
283
     0
284
     8
340
11
  0
ENDTAB
  0
TABLE
  2
BLOCK_RECORD
  5
1
330
0
100
AcDbSymbolTable
 70
     5
  0
BLOCK_RECORD
  5
1F
330
1
100
AcDbSymbolTableRecord
100
AcDbBlockTableRecord
  2
*Model_Space
340
22
  0
BLOCK_RECORD
  5
1B
330
1
100
AcDbSymbolTableRecord
100
AcDbBlockTableRecord
  2
*Paper_Space
340
1E
  0
BLOCK_RECORD
  5
23
330
1
100
AcDbSymbolTableRecord
100
AcDbBlockTableRecord
  2
*Paper_Space0
340
26
  0
BLOCK_RECORD
  5
22C
330
1
100
AcDbSymbolTableRecord
100
AcDbBlockTableRecord
  2
*D1
340
0
  0
BLOCK_RECORD
  5
244
330
1
100
AcDbSymbolTableRecord
100
AcDbBlockTableRecord
  2
*D2
340
0
  0
BLOCK_RECORD
  5
25C
330
1
100
AcDbSymbolTableRecord
100
AcDbBlockTableRecord
  2
*D3
340
0
  0
BLOCK_RECORD
  5
274
330
1
100
AcDbSymbolTableRecord
100
AcDbBlockTableRecord
  2
*D4
340
0
  0
ENDTAB
  0
ENDSEC
  0
SECTION
  2
BLOCKS
  0
BLOCK
  5
20
330
1F
100
AcDbEntity
  8
0
100
AcDbBlockBegin
  2
*Model_Space
 70
     0
 10
0.0
 20
0.0
 30
0.0
  3
*Model_Space
  1

  0
ENDBLK
  5
21
330
1F
100
AcDbEntity
  8
0
100
AcDbBlockEnd
  0
BLOCK
  5
1C
330
1B
100
AcDbEntity
 67
     1
  8
0
100
AcDbBlockBegin
  2
*Paper_Space
 70
     0
 10
0.0
 20
0.0
 30
0.0
  3
*Paper_Space
  1

  0
ENDBLK
  5
1D
330
1B
100
AcDbEntity
 67
     1
  8
0
100
AcDbBlockEnd
  0
BLOCK
  5
24
330
23
100
AcDbEntity
  8
0
100
AcDbBlockBegin
  2
*Paper_Space0
 70
     0
 10
0.0
 20
0.0
 30
0.0
  3
*Paper_Space0
  1

  0
ENDBLK
  5
25
330
23
100
AcDbEntity
  8
0
100
AcDbBlockEnd
  0
BLOCK
  5
236
330
22C
100
AcDbEntity
  8
0
100
AcDbBlockBegin
  2
*D1
 70
     1
 10
0.0
 20
0.0
 30
0.0
  3
*D1
  1

  0
LINE
  5
239
330
22C
100
AcDbEntity
  8
koty
 62
     0
370
    -2
100
AcDbLine
 10
152.924049809887
 20
152.1452247340569
 30
0.0
 11
152.924049809887
 21
-32.40176387792018
 31
0.0
  0
LINE
  5
23A
330
22C
100
AcDbEntity
  8
koty
 62
     0
370
    -2
100
AcDbLine
 10
242.924049809887
 20
173.6452247340568
 30
0.0
 11
242.924049809887
 21
-32.40176387792018
 31
0.0
  0
LINE
  5
23B
330
22C
100
AcDbEntity
  8
koty
 62
     0
370
    -2
100
AcDbLine
 10
172.924049809887
 20
-19.90176387792018
 30
0.0
 11
222.924049809887
 21
-19.90176387792018
 31
0.0
  0
SOLID
  5
23C
330
22C
100
AcDbEntity
  8
koty
 62
     0
100
AcDbTrace
 10
172.924049809887
 20
-16.56843054458685
 30
0.0
 11
172.924049809887
 21
-23.23509721125352
 31
0.0
 12
152.924049809887
 22
-19.90176387792018
 32
0.0
 13
152.924049809887
 23
-19.90176387792018
 33
0.0
  0
SOLID
  5
23D
330
22C
100
AcDbEntity
  8
koty
 62
     0
100
AcDbTrace
 10
222.924049809887
 20
-16.56843054458685
 30
0.0
 11
222.924049809887
 21
-23.23509721125352
 31
0.0
 12
242.924049809887
 22
-19.90176387792018
 32
0.0
 13
242.924049809887
 23
-19.90176387792018
 33
0.0
  0
MTEXT
  5
23E
330
22C
100
AcDbEntity
  8
koty
 62
     0
100
AcDbMText
 10
197.924049809887
 20
-3.651763877920188
 30
0.0
 40
20.0
 41
0.0
 71
     5
 72
     1
  1
90
 73
     1
 44
1.0
  0
POINT
  5
23F
330
22C
100
AcDbEntity
  8
Defpoints
 62
     0
100
AcDbPoint
 10
152.924049809887
 20
158.3952247340569
 30
0.0
  0
POINT
  5
240
330
22C
100
AcDbEntity
  8
Defpoints
 62
     0
100
AcDbPoint
 10
242.924049809887
 20
179.8952247340568
 30
0.0
  0
POINT
  5
241
330
22C
100
AcDbEntity
  8
Defpoints
 62
     0
100
AcDbPoint
 10
242.924049809887
 20
-19.90176387792018
 30
0.0
  0
ENDBLK
  5
237
330
22C
100
AcDbEntity
  8
0
100
AcDbBlockEnd
  0
BLOCK
  5
24E
330
244
100
AcDbEntity
  8
0
100
AcDbBlockBegin
  2
*D2
 70
     1
 10
0.0
 20
0.0
 30
0.0
  3
*D2
  1

  0
LINE
  5
251
330
244
100
AcDbEntity
  8
koty
 62
     0
370
    -2
100
AcDbLine
 10
242.924049809887
 20
173.6452247340568
 30
0.0
 11
242.924049809887
 21
-98.98024602267426
 31
0.0
  0
LINE
  5
252
330
244
100
AcDbEntity
  8
koty
 62
     0
370
    -2
100
AcDbLine
 10
64.92404980988704
 20
152.1452247340569
 30
0.0
 11
64.92404980988702
 21
-98.98024602267424
 31
0.0
  0
LINE
  5
253
330
244
100
AcDbEntity
  8
koty
 62
     0
370
    -2
100
AcDbLine
 10
222.924049809887
 20
-86.48024602267424
 30
0.0
 11
84.92404980988702
 21
-86.48024602267424
 31
0.0
  0
SOLID
  5
254
330
244
100
AcDbEntity
  8
koty
 62
     0
100
AcDbTrace
 10
222.924049809887
 20
-83.1469126893409
 30
0.0
 11
222.924049809887
 21
-89.81357935600756
 31
0.0
 12
242.924049809887
 22
-86.48024602267424
 32
0.0
 13
242.924049809887
 23
-86.48024602267424
 33
0.0
  0
SOLID
  5
255
330
244
100
AcDbEntity
  8
koty
 62
     0
100
AcDbTrace
 10
84.92404980988702
 20
-83.1469126893409
 30
0.0
 11
84.92404980988702
 21
-89.81357935600756
 31
0.0
 12
64.92404980988702
 22
-86.48024602267424
 32
0.0
 13
64.92404980988702
 23
-86.48024602267424
 33
0.0
  0
MTEXT
  5
256
330
244
100
AcDbEntity
  8
koty
 62
     0
100
AcDbMText
 10
153.924049809887
 20
-70.23024602267423
 30
0.0
 40
20.0
 41
0.0
 71
     5
 72
     1
  1
178
 73
     1
 44
1.0
  0
POINT
  5
257
330
244
100
AcDbEntity
  8
Defpoints
 62
     0
100
AcDbPoint
 10
242.924049809887
 20
179.8952247340568
 30
0.0
  0
POINT
  5
258
330
244
100
AcDbEntity
  8
Defpoints
 62
     0
100
AcDbPoint
 10
64.92404980988704
 20
158.3952247340569
 30
0.0
  0
POINT
  5
259
330
244
100
AcDbEntity
  8
Defpoints
 62
     0
100
AcDbPoint
 10
64.92404980988702
 20
-86.48024602267424
 30
0.0
  0
ENDBLK
  5
24F
330
244
100
AcDbEntity
  8
0
100
AcDbBlockEnd
  0
BLOCK
  5
266
330
25C
100
AcDbEntity
  8
0
100
AcDbBlockBegin
  2
*D3
 70
     1
 10
0.0
 20
0.0
 30
0.0
  3
*D3
  1

  0
LINE
  5
269
330
25C
100
AcDbEntity
  8
koty
 62
     0
370
    -2
100
AcDbLine
 10
160.174049809887
 20
66.89522473405688
 30
0.0
 11
321.535237063098
 21
66.89522473405684
 31
0.0
  0
LINE
  5
26A
330
25C
100
AcDbEntity
  8
koty
 62
     0
370
    -2
100
AcDbLine
 10
249.174049809887
 20
249.8952247340568
 30
0.0
 11
321.535237063098
 21
249.8952247340568
 31
0.0
  0
LINE
  5
26B
330
25C
100
AcDbEntity
  8
koty
 62
     0
370
    -2
100
AcDbLine
 10
309.035237063098
 20
86.89522473405684
 30
0.0
 11
309.035237063098
 21
229.8952247340569
 31
0.0
  0
SOLID
  5
26C
330
25C
100
AcDbEntity
  8
koty
 62
     0
100
AcDbTrace
 10
305.7019037297647
 20
86.89522473405684
 30
0.0
 11
312.3685703964313
 21
86.89522473405684
 31
0.0
 12
309.035237063098
 22
66.89522473405684
 32
0.0
 13
309.035237063098
 23
66.89522473405684
 33
0.0
  0
SOLID
  5
26D
330
25C
100
AcDbEntity
  8
koty
 62
     0
100
AcDbTrace
 10
305.7019037297647
 20
229.8952247340569
 30
0.0
 11
312.3685703964313
 21
229.8952247340569
 31
0.0
 12
309.035237063098
 22
249.8952247340568
 32
0.0
 13
309.035237063098
 23
249.8952247340568
 33
0.0
  0
MTEXT
  5
26E
330
25C
100
AcDbEntity
  8
koty
 62
     0
100
AcDbMText
 10
292.785237063098
 20
158.3952247340569
 30
0.0
 40
20.0
 41
0.0
 71
     5
 72
     1
  1
183
 11
0.0000000000000001
 21
1.0
 31
0.0
 73
     1
 44
1.0
  0
POINT
  5
26F
330
25C
100
AcDbEntity
  8
Defpoints
 62
     0
100
AcDbPoint
 10
153.924049809887
 20
66.89522473405689
 30
0.0
  0
POINT
  5
270
330
25C
100
AcDbEntity
  8
Defpoints
 62
     0
100
AcDbPoint
 10
242.924049809887
 20
249.8952247340568
 30
0.0
  0
POINT
  5
271
330
25C
100
AcDbEntity
  8
Defpoints
 62
     0
100
AcDbPoint
 10
309.035237063098
 20
249.8952247340568
 30
0.0
  0
ENDBLK
  5
267
330
25C
100
AcDbEntity
  8
0
100
AcDbBlockEnd
  0
BLOCK
  5
27E
330
274
100
AcDbEntity
  8
0
100
AcDbBlockBegin
  2
*D4
 70
     1
 10
0.0
 20
0.0
 30
0.0
  3
*D4
  1

  0
LINE
  5
281
330
274
100
AcDbEntity
  8
koty
 62
     0
370
    -2
100
AcDbLine
 10
-271.9843212340883
 20
60.55042574285136
 30
0.0
 11
-271.9843212340883
 21
-34.57102516850023
 31
0.0
  0
LINE
  5
282
330
274
100
AcDbEntity
  8
koty
 62
     0
370
    -2
100
AcDbLine
 10
-56.98432123408839
 20
60.55042574285136
 30
0.0
 11
-56.98432123408839
 21
-34.57102516850023
 31
0.0
  0
LINE
  5
283
330
274
100
AcDbEntity
  8
koty
 62
     0
370
    -2
100
AcDbLine
 10
-251.9843212340883
 20
-22.07102516850022
 30
0.0
 11
-76.98432123408839
 21
-22.07102516850022
 31
0.0
  0
SOLID
  5
284
330
274
100
AcDbEntity
  8
koty
 62
     0
100
AcDbTrace
 10
-251.9843212340883
 20
-18.73769183516689
 30
0.0
 11
-251.9843212340883
 21
-25.40435850183356
 31
0.0
 12
-271.9843212340883
 22
-22.07102516850022
 32
0.0
 13
-271.9843212340883
 23
-22.07102516850022
 33
0.0
  0
SOLID
  5
285
330
274
100
AcDbEntity
  8
koty
 62
     0
100
AcDbTrace
 10
-76.98432123408839
 20
-18.73769183516689
 30
0.0
 11
-76.98432123408839
 21
-25.40435850183356
 31
0.0
 12
-56.98432123408839
 22
-22.07102516850022
 32
0.0
 13
-56.98432123408839
 23
-22.07102516850022
 33
0.0
  0
MTEXT
  5
286
330
274
100
AcDbEntity
  8
koty
 62
     0
100
AcDbMText
 10
-164.4843212340883
 20
-5.821025168500227
 30
0.0
 40
20.0
 41
0.0
 71
     5
 72
     1
  1
215
 73
     1
 44
1.0
  0
POINT
  5
287
330
274
100
AcDbEntity
  8
Defpoints
 62
     0
100
AcDbPoint
 10
-271.9843212340883
 20
66.80042574285136
 30
0.0
  0
POINT
  5
288
330
274
100
AcDbEntity
  8
Defpoints
 62
     0
100
AcDbPoint
 10
-56.98432123408839
 20
66.80042574285136
 30
0.0
  0
POINT
  5
289
330
274
100
AcDbEntity
  8
Defpoints
 62
     0
100
AcDbPoint
 10
-56.98432123408839
 20
-22.07102516850022
 30
0.0
  0
ENDBLK
  5
27F
330
274
100
AcDbEntity
  8
0
100
AcDbBlockEnd
  0
ENDSEC
  0
SECTION
  2
ENTITIES
  0
LINE
  5
172
330
1F
100
AcDbEntity
  8
0
100
AcDbLine
 10
-56.98432123408839
 20
158.3952247340569
 30
0.0
 11
-271.9843212340883
 21
158.3952247340569
 31
0.0
  0
LINE
  5
173
330
1F
100
AcDbEntity
  8
0
100
AcDbLine
 10
242.924049809887
 20
249.8952247340568
 30
0.0
 11
242.924049809887
 21
179.8952247340569
 31
0.0
  0
LINE
  5
174
330
1F
100
AcDbEntity
  8
0
100
AcDbLine
 10
242.924049809887
 20
179.8952247340569
 30
0.0
 11
227.6921890157925
 21
179.8952247340569
 31
0.0
  0
LINE
  5
177
102
{ACAD_REACTORS
330
242
330
25A
330
272
102
}
330
1F
100
AcDbEntity
  8
0
100
AcDbLine
 10
242.924049809887
 20
179.8952247340568
 30
0.0
 11
242.924049809887
 21
249.8952247340568
 31
0.0
  0
LINE
  5
178
330
1F
100
AcDbEntity
  8
0
100
AcDbLine
 10
242.924049809887
 20
249.8952247340568
 30
0.0
 11
153.9240498098877
 21
249.8952247340568
 31
0.0
  0
ARC
  5
17D
102
{ACAD_REACTORS
330
25A
102
}
330
1F
100
AcDbEntity
  8
0
100
AcDbCircle
 10
156.4591621694376
 20
158.3952247340569
 30
0.0
 40
91.53511235955056
100
AcDbArc
 50
91.58703922922475
 51
268.4129607707752
  0
ARC
  5
17E
102
{ACAD_REACTORS
330
272
102
}
330
1F
100
AcDbEntity
  8
0
100
AcDbCircle
 10
157.7724494371724
 20
144.9614185528656
 30
0.0
 40
78.16099281001424
100
AcDbArc
 50
267.1777962831045
 51
26.54796235601571
  0
ARC
  5
183
330
1F
100
AcDbEntity
  8
0
100
AcDbCircle
 10
156.4591621694376
 20
158.3952247340569
 30
0.0
 40
86.53511235955056
100
AcDbArc
 50
91.58703922922475
 51
268.4129607707752
  0
ARC
  5
184
330
1F
100
AcDbEntity
  8
0
100
AcDbCircle
 10
157.7724494371724
 20
144.9614185528655
 30
0.0
 40
73.1609928100142
100
AcDbArc
 50
267.1777962831045
 51
28.14902727717484
  0
LINE
  5
185
330
1F
100
AcDbEntity
  8
0
100
AcDbLine
 10
242.924049809887
 20
184.8952247340569
 30
0.0
 11
227.5749009587653
 21
184.8952247340568
 31
0.0
  0
LINE
  5
186
330
1F
100
AcDbEntity
  8
0
100
AcDbLine
 10
242.924049809887
 20
244.8952247340569
 30
0.0
 11
153.9240498098877
 21
244.8952247340569
 31
0.0
  0
CIRCLE
  5
187
330
1F
100
AcDbEntity
  8
0
100
AcDbCircle
 10
152.924049809887
 20
158.3952247340569
 30
0.0
 40
66.58200038518782
  0
CIRCLE
  5
188
330
1F
100
AcDbEntity
  8
0
100
AcDbCircle
 10
152.924049809887
 20
158.3952247340569
 30
0.0
 40
62.25089074302966
  0
CIRCLE
  5
189
102
{ACAD_REACTORS
330
242
102
}
330
1F
100
AcDbEntity
  8
0
100
AcDbCircle
 10
152.924049809887
 20
158.3952247340569
 30
0.0
 40
45.10671949880236
  0
CIRCLE
  5
18A
330
1F
100
AcDbEntity
  8
0
100
AcDbCircle
 10
152.924049809887
 20
158.3952247340569
 30
0.0
 40
26.48618606467561
  0
CIRCLE
  5
18B
330
1F
100
AcDbEntity
  8
0
100
AcDbCircle
 10
152.924049809887
 20
158.3952247340569
 30
0.0
 40
13.52720427959372
  0
LINE
  5
18F
330
1F
100
AcDbEntity
  8
0
100
AcDbLine
 10
152.924049809887
 20
220.6461154770865
 30
0.0
 11
152.924049809887
 21
215.6461154770865
 31
0.0
  0
LINE
  5
190
330
1F
100
AcDbEntity
  8
0
100
AcDbLine
 10
144.2604003076533
 20
220.0402940875993
 30
0.0
 11
144.9562658124536
 21
215.0889537438915
 31
0.0
  0
LINE
  5
191
330
1F
100
AcDbEntity
  8
0
100
AcDbLine
 10
135.7653788882254
 20
218.2346215433725
 30
0.0
 11
137.1435656673104
 21
213.428313063681
 31
0.0
  0
LINE
  5
192
330
1F
100
AcDbEntity
  8
0
100
AcDbLine
 10
127.6043314805887
 20
215.2642432065575
 30
0.0
 11
129.6380146959677
 21
210.6965159183444
 31
0.0
  0
LINE
  5
193
330
1F
100
AcDbEntity
  8
0
100
AcDbLine
 10
119.9361035894791
 20
211.1869741127248
 30
0.0
 11
122.5856999106451
 21
206.9467336319427
 31
0.0
  0
LINE
  5
194
330
1F
100
AcDbEntity
  8
0
100
AcDbLine
 10
112.9099485483171
 20
206.0821736669613
 30
0.0
 11
116.1238865967497
 21
202.2519514513665
 31
0.0
  0
LINE
  5
195
330
1F
100
AcDbEntity
  8
0
100
AcDbLine
 10
106.6626224728459
 20
200.0492010033193
 30
0.0
 11
110.3783466002329
 21
196.703547971525
 31
0.0
  0
LINE
  5
196
330
1F
100
AcDbEntity
  8
0
100
AcDbLine
 10
101.3157224588966
 20
193.2054810722919
 30
0.0
 11
105.4609103216718
 21
190.4095165549381
 31
0.0
  0
LINE
  5
197
330
1F
100
AcDbEntity
  8
0
100
AcDbLine
 10
96.97331983323204
 20
185.6842190977204
 30
0.0
 11
101.4672900647278
 21
183.492363363775
 31
0.0
  0
LINE
  5
198
330
1F
100
AcDbEntity
  8
0
100
AcDbLine
 10
93.71993452355104
 20
177.6318078886311
 30
0.0
 11
98.47521710502682
 21
176.0867229167564
 31
0.0
  0
LINE
  5
199
330
1F
100
AcDbEntity
  8
0
100
AcDbLine
 10
91.61888997423551
 20
169.2049784697272
 30
0.0
 11
96.54292873929657
 21
168.3367375813925
 31
0.0
  0
LINE
  5
19A
330
1F
100
AcDbEntity
  8
0
100
AcDbLine
 10
90.71108062753523
 20
160.567749490271
 30
0.0
 11
95.70803476263071
 21
160.3932520067585
 31
0.0
  0
LINE
  5
19B
330
1F
100
AcDbEntity
  8
0
100
AcDbLine
 10
91.01417595976588
 20
151.8882347876454
 30
0.0
 11
95.98678543660723
 21
152.4108771039837
 31
0.0
  0
LINE
  5
19C
330
1F
100
AcDbEntity
  8
0
100
AcDbLine
 10
92.52227656505136
 20
143.3353712427353
 30
0.0
 11
97.37375519643135
 21
144.5449807207337
 31
0.0
  0
LINE
  5
19D
330
1F
100
AcDbEntity
  8
0
100
AcDbLine
 10
95.20602898054887
 20
135.0756306157044
 30
0.0
 11
99.84194825338278
 21
136.948663582784
 31
0.0
  0
LINE
  5
19E
330
1F
100
AcDbEntity
  8
0
100
AcDbLine
 10
99.01319701821382
 20
127.2697793625421
 30
0.0
 11
103.3433240371359
 21
129.7697793625421
 31
0.0
  0
LINE
  5
19F
330
1F
100
AcDbEntity
  8
0
100
AcDbLine
 10
103.8696784827825
 20
120.0697494988669
 30
0.0
 11
107.8097322508161
 21
123.1480568754952
 31
0.0
  0
LINE
  5
1A0
330
1F
100
AcDbEntity
  8
0
100
AcDbLine
 10
109.6809474867129
 20
113.6156814160627
 30
0.0
 11
113.1542393390079
 21
117.212380417756
 31
0.0
  0
LINE
  5
1A1
330
1F
100
AcDbEntity
  8
0
100
AcDbLine
 10
116.3338942890641
 20
108.0331962079678
 30
0.0
 11
119.2728205505265
 21
112.0782811798425
 31
0.0
  0
LINE
  5
1A2
330
1F
100
AcDbEntity
  8
0
100
AcDbLine
 10
123.6990268479431
 20
103.4309505991747
 30
0.0
 11
126.0463846618726
 21
107.8456885634694
 31
0.0
  0
LINE
  5
1A3
330
1F
100
AcDbEntity
  8
0
100
AcDbLine
 10
131.6329912358054
 20
99.89852206548214
 30
0.0
 11
133.3430919524338
 21
104.5969851694116
 31
0.0
  0
LINE
  5
1A4
330
1F
100
AcDbEntity
  8
0
100
AcDbLine
 10
139.9813618605921
 20
97.5046653102202
 30
0.0
 11
141.0209203146809
 21
102.3954033138892
 31
0.0
  0
LINE
  5
1A5
330
1F
100
AcDbEntity
  8
0
100
AcDbLine
 10
148.5816471842225
 20
96.29597403215839
 30
0.0
 11
148.9304295529431
 21
101.2837942834575
 31
0.0
  0
LINE
  5
1A6
330
1F
100
AcDbEntity
  8
0
100
AcDbLine
 10
157.2664524355516
 20
96.29597403215846
 30
0.0
 11
156.917670066831
 21
101.2837942834575
 31
0.0
  0
LINE
  5
1A7
330
1F
100
AcDbEntity
  8
0
100
AcDbLine
 10
165.866737759182
 20
97.5046653102202
 30
0.0
 11
164.8271793050931
 21
102.3954033138892
 31
0.0
  0
LINE
  5
1A8
330
1F
100
AcDbEntity
  8
0
100
AcDbLine
 10
174.2151083839686
 20
99.89852206548215
 30
0.0
 11
172.5050076673402
 21
104.5969851694117
 31
0.0
  0
LINE
  5
1A9
330
1F
100
AcDbEntity
  8
0
100
AcDbLine
 10
182.149072771831
 20
103.4309505991749
 30
0.0
 11
179.8017149579015
 21
107.8456885634695
 31
0.0
  0
LINE
  5
1AA
330
1F
100
AcDbEntity
  8
0
100
AcDbLine
 10
189.5142053307099
 20
108.0331962079678
 30
0.0
 11
186.5752790692476
 21
112.0782811798426
 31
0.0
  0
LINE
  5
1AB
330
1F
100
AcDbEntity
  8
0
100
AcDbLine
 10
196.1671521330611
 20
113.6156814160628
 30
0.0
 11
192.6938602807662
 21
117.2123804177561
 31
0.0
  0
LINE
  5
1AC
330
1F
100
AcDbEntity
  8
0
100
AcDbLine
 10
201.9784211369916
 20
120.0697494988669
 30
0.0
 11
198.038367368958
 21
123.1480568754952
 31
0.0
  0
LINE
  5
1AD
330
1F
100
AcDbEntity
  8
0
100
AcDbLine
 10
206.8349026015603
 20
127.2697793625422
 30
0.0
 11
202.5047755826381
 21
129.7697793625422
 31
0.0
  0
LINE
  5
1AE
330
1F
100
AcDbEntity
  8
0
100
AcDbLine
 10
210.6420706392253
 20
135.0756306157045
 30
0.0
 11
206.0061513663913
 21
136.9486635827841
 31
0.0
  0
LINE
  5
1AF
330
1F
100
AcDbEntity
  8
0
100
AcDbLine
 10
213.3258230547227
 20
143.3353712427354
 30
0.0
 11
208.4743444233427
 21
144.5449807207338
 31
0.0
  0
LINE
  5
1B0
330
1F
100
AcDbEntity
  8
0
100
AcDbLine
 10
214.8339236600082
 20
151.8882347876456
 30
0.0
 11
209.8613141831668
 21
152.4108771039838
 31
0.0
  0
LINE
  5
1B1
330
1F
100
AcDbEntity
  8
0
100
AcDbLine
 10
215.1370189922388
 20
160.5677494902712
 30
0.0
 11
210.1400648571433
 21
160.3932520067587
 31
0.0
  0
LINE
  5
1B2
330
1F
100
AcDbEntity
  8
0
100
AcDbLine
 10
214.2292096455384
 20
169.2049784697273
 30
0.0
 11
209.3051708804774
 21
168.3367375813926
 31
0.0
  0
LINE
  5
1B3
330
1F
100
AcDbEntity
  8
0
100
AcDbLine
 10
212.1281650962229
 20
177.6318078886314
 30
0.0
 11
207.3728825147472
 21
176.0867229167566
 31
0.0
  0
LINE
  5
1B4
330
1F
100
AcDbEntity
  8
0
100
AcDbLine
 10
208.8747797865419
 20
185.6842190977205
 30
0.0
 11
204.3808095550461
 21
183.4923633637752
 31
0.0
  0
LINE
  5
1B5
330
1F
100
AcDbEntity
  8
0
100
AcDbLine
 10
204.5323771608773
 20
193.205481072292
 30
0.0
 11
200.387189298102
 21
190.4095165549383
 31
0.0
  0
LINE
  5
1B6
330
1F
100
AcDbEntity
  8
0
100
AcDbLine
 10
199.1854771469279
 20
200.0492010033195
 30
0.0
 11
195.469753019541
 21
196.7035479715252
 31
0.0
  0
LINE
  5
1B7
330
1F
100
AcDbEntity
  8
0
100
AcDbLine
 10
192.9381510714567
 20
206.0821736669615
 30
0.0
 11
189.7242130230241
 21
202.2519514513667
 31
0.0
  0
LINE
  5
1B8
330
1F
100
AcDbEntity
  8
0
100
AcDbLine
 10
185.9119960302946
 20
211.186974112725
 30
0.0
 11
183.2623997091287
 21
206.9467336319429
 31
0.0
  0
LINE
  5
1B9
330
1F
100
AcDbEntity
  8
0
100
AcDbLine
 10
178.243768139185
 20
215.2642432065575
 30
0.0
 11
176.2100849238061
 21
210.6965159183446
 31
0.0
  0
LINE
  5
1BA
330
1F
100
AcDbEntity
  8
0
100
AcDbLine
 10
170.0827207315483
 20
218.2346215433726
 30
0.0
 11
168.7045339524633
 21
213.428313063681
 31
0.0
  0
LINE
  5
1BB
330
1F
100
AcDbEntity
  8
0
100
AcDbLine
 10
161.5876993121204
 20
220.0402940875994
 30
0.0
 11
160.8918338073201
 21
215.0889537438915
 31
0.0
  0
CIRCLE
  5
1BC
330
1F
100
AcDbEntity
  8
0
100
AcDbCircle
 10
152.924049809887
 20
120.9957798617764
 30
0.0
 40
2.5
  0
CIRCLE
  5
1BD
330
1F
100
AcDbEntity
  8
0
100
AcDbCircle
 10
179.369450891689
 20
131.9498236522549
 30
0.0
 40
2.5
  0
CIRCLE
  5
1BE
330
1F
100
AcDbEntity
  8
0
100
AcDbCircle
 10
190.3234946821675
 20
158.3952247340568
 30
0.0
 40
2.5
  0
CIRCLE
  5
1BF
330
1F
100
AcDbEntity
  8
0
100
AcDbCircle
 10
179.3694508916889
 20
184.8406258158588
 30
0.0
 40
2.5
  0
CIRCLE
  5
1C0
330
1F
100
AcDbEntity
  8
0
100
AcDbCircle
 10
152.9240498098871
 20
195.7946696063373
 30
0.0
 40
2.5
  0
CIRCLE
  5
1C1
330
1F
100
AcDbEntity
  8
0
100
AcDbCircle
 10
126.478648728085
 20
184.8406258158588
 30
0.0
 40
2.5
  0
CIRCLE
  5
1C2
330
1F
100
AcDbEntity
  8
0
100
AcDbCircle
 10
115.5246049376065
 20
158.3952247340569
 30
0.0
 40
2.5
  0
CIRCLE
  5
1C3
330
1F
100
AcDbEntity
  8
0
100
AcDbCircle
 10
126.478648728085
 20
131.949823652255
 30
0.0
 40
2.5
  0
CIRCLE
  5
1C4
330
1F
100
AcDbEntity
  8
0
100
AcDbCircle
 10
152.924049809887
 20
146.7876848384606
 30
0.0
 40
1.0
  0
CIRCLE
  5
1C5
330
1F
100
AcDbEntity
  8
0
100
AcDbCircle
 10
164.5315897054832
 20
158.3952247340568
 30
0.0
 40
1.0
  0
CIRCLE
  5
1C6
330
1F
100
AcDbEntity
  8
0
100
AcDbCircle
 10
152.924049809887
 20
170.0027646296531
 30
0.0
 40
1.0
  0
CIRCLE
  5
1C7
330
1F
100
AcDbEntity
  8
0
100
AcDbCircle
 10
141.3165099142907
 20
158.3952247340569
 30
0.0
 40
1.0
  0
LINE
  5
1C8
330
1F
100
AcDbEntity
  8
0
100
AcDbLine
 10
134.5774941407823
 20
199.6022634413467
 30
0.0
 11
142.1511474020595
 21
182.5915597037179
 31
0.0
  0
LINE
  5
1C9
330
1F
100
AcDbEntity
  8
0
100
AcDbLine
 10
136.4226283433045
 20
200.3752108408417
 30
0.0
 11
144.0089953388309
 21
183.3359515885557
 31
0.0
  0
LINE
  5
1CA
330
1F
100
AcDbEntity
  8
0
100
AcDbLine
 10
110.8132993823054
 20
174.5600273115576
 30
0.0
 11
128.1970649273428
 21
167.8870249253297
 31
0.0
  0
LINE
  5
1CB
330
1F
100
AcDbEntity
  8
0
100
AcDbLine
 10
111.5714499414246
 20
176.4112905660437
 30
0.0
 11
128.9843972522182
 21
169.7270863494632
 31
0.0
  0
LINE
  5
1CC
330
1F
100
AcDbEntity
  8
0
100
AcDbLine
 10
111.7170111025972
 20
140.0486690649522
 30
0.0
 11
128.7277148402259
 21
147.6223223262294
 31
0.0
  0
LINE
  5
1CD
330
1F
100
AcDbEntity
  8
0
100
AcDbLine
 10
110.9440637031021
 20
141.8938032674744
 30
0.0
 11
127.9833229553881
 21
149.4801702630008
 31
0.0
  0
LINE
  5
1CE
330
1F
100
AcDbEntity
  8
0
100
AcDbLine
 10
136.7592472323862
 20
116.2844743064753
 30
0.0
 11
143.4322496186141
 21
133.6682398515126
 31
0.0
  0
LINE
  5
1CF
330
1F
100
AcDbEntity
  8
0
100
AcDbLine
 10
134.9079839779001
 20
117.0426248655945
 30
0.0
 11
141.5921881944806
 21
134.4555721763881
 31
0.0
  0
LINE
  5
1D0
330
1F
100
AcDbEntity
  8
0
100
AcDbLine
 10
171.2706054789917
 20
117.188186026767
 30
0.0
 11
163.6969522177144
 21
134.1988897643958
 31
0.0
  0
LINE
  5
1D1
330
1F
100
AcDbEntity
  8
0
100
AcDbLine
 10
169.4254712764695
 20
116.415238627272
 30
0.0
 11
161.8391042809431
 21
133.454497879558
 31
0.0
  0
LINE
  5
1D2
330
1F
100
AcDbEntity
  8
0
100
AcDbLine
 10
195.0348002374686
 20
142.2304221565561
 30
0.0
 11
177.6510346924312
 21
148.903424542784
 31
0.0
  0
LINE
  5
1D3
330
1F
100
AcDbEntity
  8
0
100
AcDbLine
 10
194.2766496783494
 20
140.3791589020699
 30
0.0
 11
176.8637023675557
 21
147.0633631186504
 31
0.0
  0
LINE
  5
1D4
330
1F
100
AcDbEntity
  8
0
100
AcDbLine
 10
194.1310885171768
 20
176.7417804031615
 30
0.0
 11
177.1203847795481
 21
169.1681271418843
 31
0.0
  0
LINE
  5
1D5
330
1F
100
AcDbEntity
  8
0
100
AcDbLine
 10
194.9040359166719
 20
174.8966462006393
 30
0.0
 11
177.8647766643859
 21
167.3102792051129
 31
0.0
  0
LINE
  5
1D6
330
1F
100
AcDbEntity
  8
0
100
AcDbLine
 10
169.0888523873878
 20
200.5059751616384
 30
0.0
 11
162.4158500011599
 21
183.122209616601
 31
0.0
  0
LINE
  5
1D7
330
1F
100
AcDbEntity
  8
0
100
AcDbLine
 10
170.9401156418739
 20
199.7478246025192
 30
0.0
 11
164.2559114252934
 21
182.3348772917256
 31
0.0
  0
LINE
  5
1D8
330
1F
100
AcDbEntity
  8
0
100
AcDbLine
 10
227.5749009587652
 20
184.8952247340568
 30
0.0
 11
222.2802163871324
 21
179.4763265214029
 31
0.0
  0
LINE
  5
1D9
330
1F
100
AcDbEntity
  8
0
100
AcDbLine
 10
-56.98432123408839
 20
249.8952247340568
 30
0.0
 11
-271.9843212340883
 21
249.8952247340568
 31
0.0
  0
LINE
  5
1DA
102
{ACAD_REACTORS
330
28A
102
}
330
1F
100
AcDbEntity
  8
0
100
AcDbLine
 10
-56.98432123408839
 20
66.80042574285137
 30
0.0
 11
-271.9843212340883
 21
66.80042574285137
 31
0.0
  0
LINE
  5
1DB
102
{ACAD_REACTORS
330
28A
102
}
330
1F
100
AcDbEntity
  8
0
100
AcDbLine
 10
-56.98432123408839
 20
249.8952247340569
 30
0.0
 11
-56.98432123408839
 21
66.80042574285137
 31
0.0
  0
LINE
  5
1DC
330
1F
100
AcDbEntity
  8
0
100
AcDbLine
 10
-56.98432123408839
 20
66.80042574285136
 30
0.0
 11
-271.9843212340883
 21
66.80042574285136
 31
0.0
  0
LINE
  5
1DD
102
{ACAD_REACTORS
330
28A
102
}
330
1F
100
AcDbEntity
  8
0
100
AcDbLine
 10
-271.9843212340883
 20
66.80042574285136
 30
0.0
 11
-271.9843212340883
 21
249.8952247340568
 31
0.0
  0
LINE
  5
1E7
330
1F
100
AcDbEntity
  8
0
100
AcDbLine
 10
-58.98432123408838
 20
248.8952247340569
 30
0.0
 11
-58.98432123408838
 21
172.0027646296531
 31
0.0
  0
LINE
  5
1E9
330
1F
100
AcDbEntity
  8
0
100
AcDbLine
 10
-269.9843212340883
 20
172.0027646296531
 30
0.0
 11
-269.9843212340883
 21
248.8952247340568
 31
0.0
  0
LINE
  5
1EA
330
1F
100
AcDbEntity
  8
0
100
AcDbLine
 10
-58.98432123408838
 20
172.0027646296531
 30
0.0
 11
-269.9843212340883
 21
172.0027646296531
 31
0.0
  0
LINE
  5
1EB
330
1F
100
AcDbEntity
  8
0
100
AcDbLine
 10
-56.98432123408839
 20
170.0027646296532
 30
0.0
 11
-271.9843212340883
 21
170.0027646296531
 31
0.0
  0
LINE
  5
1EC
330
1F
100
AcDbEntity
  8
0
100
AcDbLine
 10
-58.98432123408838
 20
248.8952247340568
 30
0.0
 11
-269.9843212340883
 21
248.8952247340568
 31
0.0
  0
LINE
  5
1F1
330
1F
100
AcDbEntity
  8
0
100
AcDbLine
 10
-269.9843212340883
 20
220.6461154770865
 30
0.0
 11
-261.5510764803498
 21
210.5934239830872
 31
0.0
  0
LINE
  5
1F2
330
1F
100
AcDbEntity
  8
0
100
AcDbLine
 10
-261.5510764803498
 20
210.5934239830872
 30
0.0
 11
-261.5510764803498
 21
172.0027646296531
 31
0.0
  0
LINE
  5
1F3
330
1F
100
AcDbEntity
  8
0
100
AcDbLine
 10
-58.98432123408844
 20
220.6461154770865
 30
0.0
 11
-67.41756598782695
 21
210.5934239830872
 31
0.0
  0
LINE
  5
1F4
330
1F
100
AcDbEntity
  8
0
100
AcDbLine
 10
-67.41756598782695
 20
210.5934239830872
 30
0.0
 11
-67.41756598782695
 21
172.0027646296531
 31
0.0
  0
LINE
  5
1F7
330
1F
100
AcDbEntity
  8
0
100
AcDbLine
 10
-164.4843212340883
 20
172.0027646296531
 30
0.0
 11
-251.1642322430573
 21
172.0027646296531
 31
0.0
  0
LINE
  5
1F8
330
1F
100
AcDbEntity
  8
0
100
AcDbLine
 10
-251.1642322430573
 20
172.0027646296531
 30
0.0
 11
-251.1642322430573
 21
234.9744654012171
 31
0.0
  0
LINE
  5
1FB
330
1F
100
AcDbEntity
  8
0
100
AcDbLine
 10
-164.4843212340883
 20
172.0027646296531
 30
0.0
 11
-77.80441022511945
 21
172.0027646296531
 31
0.0
  0
LINE
  5
1FC
330
1F
100
AcDbEntity
  8
0
100
AcDbLine
 10
-77.80441022511945
 20
172.0027646296531
 30
0.0
 11
-77.80441022511945
 21
234.9744654012171
 31
0.0
  0
LINE
  5
1FD
330
1F
100
AcDbEntity
  8
0
100
AcDbLine
 10
-249.1642322430573
 20
172.0027646296531
 30
0.0
 11
-249.1642322430573
 21
234.9744654012171
 31
0.0
  0
LINE
  5
1FE
330
1F
100
AcDbEntity
  8
0
100
AcDbLine
 10
-79.80441022511945
 20
172.0027646296531
 30
0.0
 11
-79.80441022511945
 21
234.9744654012171
 31
0.0
  0
LINE
  5
1FF
330
1F
100
AcDbEntity
  8
0
100
AcDbLine
 10
-249.1642322430573
 20
230.2859833443136
 30
0.0
 11
-79.80441022511945
 21
230.2859833443136
 31
0.0
  0
LINE
  5
200
330
1F
100
AcDbEntity
  8
0
100
AcDbLine
 10
-251.1642322430573
 20
234.9744654012171
 30
0.0
 11
-249.1642322430573
 21
234.9744654012171
 31
0.0
  0
LINE
  5
201
330
1F
100
AcDbEntity
  8
0
100
AcDbLine
 10
-79.80441022511945
 20
234.9744654012171
 30
0.0
 11
-77.80441022511945
 21
234.9744654012171
 31
0.0
  0
LINE
  5
20B
330
1F
100
AcDbEntity
  8
0
100
AcDbLine
 10
-79.80441022511951
 20
187.2926199188006
 30
0.0
 11
-164.4843212340884
 21
187.2926199188006
 31
0.0
  0
LINE
  5
20D
330
1F
100
AcDbEntity
  8
0
100
AcDbLine
 10
-164.4843212340884
 20
176.5442790624223
 30
0.0
 11
-79.80441022511951
 21
176.5442790624223
 31
0.0
  0
LINE
  5
20E
330
1F
100
AcDbEntity
  8
0
100
AcDbLine
 10
-79.80441022511951
 20
176.5442790624223
 30
0.0
 11
-79.80441022511951
 21
187.2926199188006
 31
0.0
  0
LINE
  5
20F
330
1F
100
AcDbEntity
  8
0
100
AcDbLine
 10
-79.80441022511951
 20
198.0409607751788
 30
0.0
 11
-164.4843212340884
 21
198.0409607751788
 31
0.0
  0
LINE
  5
211
330
1F
100
AcDbEntity
  8
0
100
AcDbLine
 10
-164.4843212340884
 20
187.2926199188006
 30
0.0
 11
-79.80441022511951
 21
187.2926199188006
 31
0.0
  0
LINE
  5
212
330
1F
100
AcDbEntity
  8
0
100
AcDbLine
 10
-79.80441022511951
 20
187.2926199188006
 30
0.0
 11
-79.80441022511951
 21
198.0409607751788
 31
0.0
  0
LINE
  5
213
330
1F
100
AcDbEntity
  8
0
100
AcDbLine
 10
-249.1642322430572
 20
198.0409607751788
 30
0.0
 11
-164.4843212340883
 21
198.0409607751788
 31
0.0
  0
LINE
  5
215
330
1F
100
AcDbEntity
  8
0
100
AcDbLine
 10
-164.4843212340883
 20
187.2926199188006
 30
0.0
 11
-249.1642322430572
 21
187.2926199188006
 31
0.0
  0
LINE
  5
216
330
1F
100
AcDbEntity
  8
0
100
AcDbLine
 10
-249.1642322430572
 20
187.2926199188006
 30
0.0
 11
-249.1642322430572
 21
198.0409607751788
 31
0.0
  0
LINE
  5
217
330
1F
100
AcDbEntity
  8
0
100
AcDbLine
 10
-249.1642322430573
 20
208.7893016315571
 30
0.0
 11
-164.4843212340883
 21
208.7893016315571
 31
0.0
  0
LINE
  5
219
330
1F
100
AcDbEntity
  8
0
100
AcDbLine
 10
-164.4843212340883
 20
198.0409607751788
 30
0.0
 11
-249.1642322430573
 21
198.0409607751788
 31
0.0
  0
LINE
  5
21A
330
1F
100
AcDbEntity
  8
0
100
AcDbLine
 10
-249.1642322430573
 20
198.0409607751788
 30
0.0
 11
-249.1642322430573
 21
208.7893016315571
 31
0.0
  0
LINE
  5
21B
330
1F
100
AcDbEntity
  8
0
100
AcDbLine
 10
-249.1642322430573
 20
219.5376424879353
 30
0.0
 11
-164.4843212340883
 21
219.5376424879353
 31
0.0
  0
LINE
  5
21D
330
1F
100
AcDbEntity
  8
0
100
AcDbLine
 10
-164.4843212340883
 20
208.7893016315571
 30
0.0
 11
-249.1642322430573
 21
208.7893016315571
 31
0.0
  0
LINE
  5
21E
330
1F
100
AcDbEntity
  8
0
100
AcDbLine
 10
-249.1642322430573
 20
208.7893016315571
 30
0.0
 11
-249.1642322430573
 21
219.5376424879353
 31
0.0
  0
LINE
  5
21F
330
1F
100
AcDbEntity
  8
0
100
AcDbLine
 10
-249.1642322430573
 20
230.2859833443136
 30
0.0
 11
-164.4843212340883
 21
230.2859833443136
 31
0.0
  0
LINE
  5
221
330
1F
100
AcDbEntity
  8
0
100
AcDbLine
 10
-164.4843212340883
 20
219.5376424879353
 30
0.0
 11
-249.1642322430573
 21
219.5376424879353
 31
0.0
  0
LINE
  5
222
330
1F
100
AcDbEntity
  8
0
100
AcDbLine
 10
-249.1642322430573
 20
219.5376424879353
 30
0.0
 11
-249.1642322430573
 21
230.2859833443136
 31
0.0
  0
LINE
  5
223
330
1F
100
AcDbEntity
  8
0
100
AcDbLine
 10
-79.80441022511948
 20
219.5376424879353
 30
0.0
 11
-164.4843212340883
 21
219.5376424879353
 31
0.0
  0
LINE
  5
225
330
1F
100
AcDbEntity
  8
0
100
AcDbLine
 10
-164.4843212340883
 20
208.7893016315571
 30
0.0
 11
-79.80441022511948
 21
208.7893016315571
 31
0.0
  0
LINE
  5
226
330
1F
100
AcDbEntity
  8
0
100
AcDbLine
 10
-79.80441022511948
 20
208.7893016315571
 30
0.0
 11
-79.80441022511948
 21
219.5376424879353
 31
0.0
  0
LINE
  5
227
330
1F
100
AcDbEntity
  8
0
100
AcDbLine
 10
-249.1642322430572
 20
187.2926199188006
 30
0.0
 11
-164.4843212340883
 21
187.2926199188006
 31
0.0
  0
LINE
  5
229
330
1F
100
AcDbEntity
  8
0
100
AcDbLine
 10
-164.4843212340883
 20
176.5442790624223
 30
0.0
 11
-249.1642322430572
 21
176.5442790624223
 31
0.0
  0
LINE
  5
22A
330
1F
100
AcDbEntity
  8
0
100
AcDbLine
 10
-249.1642322430572
 20
176.5442790624223
 30
0.0
 11
-249.1642322430572
 21
187.2926199188006
 31
0.0
  0
DIMENSION
  5
22B
102
{ACAD_XDICTIONARY
360
238
102
}
102
{ACAD_REACTORS
330
242
102
}
330
1F
100
AcDbEntity
  8
koty
100
AcDbDimension
  2
*D1
 10
242.924049809887
 20
-19.90176387792018
 30
0.0
 11
197.924049809887
 21
-3.651763877920188
 31
0.0
 70
    32
 71
     5
 42
90.0
  3
ISO-25
100
AcDbAlignedDimension
 13
152.924049809887
 23
158.3952247340569
 33
0.0
 14
242.924049809887
 24
179.8952247340568
 34
0.0
100
AcDbRotatedDimension
  0
DIMENSION
  5
243
102
{ACAD_XDICTIONARY
360
250
102
}
102
{ACAD_REACTORS
330
25A
102
}
330
1F
100
AcDbEntity
  8
koty
100
AcDbDimension
  2
*D2
 10
64.92404980988702
 20
-86.48024602267424
 30
0.0
 11
153.924049809887
 21
-70.23024602267423
 31
0.0
 70
    32
 71
     5
 42
178.0
  3
ISO-25
100
AcDbAlignedDimension
 13
242.924049809887
 23
179.8952247340568
 33
0.0
 14
64.92404980988704
 24
158.3952247340569
 34
0.0
100
AcDbRotatedDimension
  0
DIMENSION
  5
25B
102
{ACAD_XDICTIONARY
360
268
102
}
102
{ACAD_REACTORS
330
272
102
}
330
1F
100
AcDbEntity
  8
koty
100
AcDbDimension
  2
*D3
 10
309.035237063098
 20
249.8952247340568
 30
0.0
 11
292.785237063098
 21
158.3952247340569
 31
0.0
 70
    32
 71
     5
 42
183.0
  3
ISO-25
100
AcDbAlignedDimension
 13
153.924049809887
 23
66.89522473405689
 33
0.0
 14
242.924049809887
 24
249.8952247340568
 34
0.0
 50
90.0
100
AcDbRotatedDimension
  0
DIMENSION
  5
273
102
{ACAD_XDICTIONARY
360
280
102
}
102
{ACAD_REACTORS
330
28A
102
}
330
1F
100
AcDbEntity
  8
koty
100
AcDbDimension
  2
*D4
 10
-56.98432123408839
 20
-22.07102516850022
 30
0.0
 11
-164.4843212340883
 21
-5.821025168500227
 31
0.0
 70
    32
 71
     5
 42
215.0
  3
ISO-25
100
AcDbAlignedDimension
 13
-271.9843212340883
 23
66.80042574285136
 33
0.0
 14
-56.98432123408839
 24
66.80042574285136
 34
0.0
100
AcDbRotatedDimension
  0
TEXT
  5
28B
330
1F
100
AcDbEntity
  8
popis
100
AcDbText
 10
-428.2382888122149
 20
291.8527128130598
 30
0.0
 40
15.0
  1
CBM/2 133/190 - speciální radiální ventilátor s asynchronním motorem
100
AcDbText
  0
ENDSEC
  0
SECTION
  2
OBJECTS
  0
DICTIONARY
  5
C
330
0
100
AcDbDictionary
281
     1
  3
ACAD_GROUP
350
D
  3
ACAD_LAYOUT
350
1A
  3
ACAD_MLINESTYLE
350
17
  3
ACAD_PLOTSETTINGS
350
19
  3
ACAD_PLOTSTYLENAME
350
E
  3
AcDbVariableDictionary
350
2E
  0
DICTIONARY
  5
238
330
22B
100
AcDbDictionary
280
     1
281
     1
  3
ACAD_DIMASSOC
360
242
  0
DICTIONARY
  5
250
330
243
100
AcDbDictionary
280
     1
281
     1
  3
ACAD_DIMASSOC
360
25A
  0
DICTIONARY
  5
268
330
25B
100
AcDbDictionary
280
     1
281
     1
  3
ACAD_DIMASSOC
360
272
  0
DICTIONARY
  5
280
330
273
100
AcDbDictionary
280
     1
281
     1
  3
ACAD_DIMASSOC
360
28A
  0
DICTIONARY
  5
D
102
{ACAD_REACTORS
330
C
102
}
330
C
100
AcDbDictionary
281
     1
  0
DICTIONARY
  5
1A
102
{ACAD_REACTORS
330
C
102
}
330
C
100
AcDbDictionary
281
     1
  3
Model
350
22
  3
Rozvržení1
350
1E
  3
Rozvržení2
350
26
  0
DICTIONARY
  5
17
102
{ACAD_REACTORS
330
C
102
}
330
C
100
AcDbDictionary
281
     1
  3
Standard
350
18
  0
DICTIONARY
  5
19
102
{ACAD_REACTORS
330
C
102
}
330
C
100
AcDbDictionary
281
     1
  0
ACDBDICTIONARYWDFLT
  5
E
102
{ACAD_REACTORS
330
C
102
}
330
C
100
AcDbDictionary
281
     1
  3
Normal
350
F
100
AcDbDictionaryWithDefault
340
F
  0
DICTIONARY
  5
2E
102
{ACAD_REACTORS
330
C
102
}
330
C
100
AcDbDictionary
281
     1
  3
DIMASSOC
350
30
  3
HIDETEXT
350
2F
  0
DIMASSOC
  5
242
102
{ACAD_REACTORS
330
238
102
}
330
238
100
AcDbDimAssoc
330
22B
 90
        3
 70
     0
 71
     0
  1
AcDbOsnapPointRef
 72
     3
331
189
 73
     2
 91
        0
 40
0.0
 10
152.924049809887
 20
158.3952247340569
 30
0.0
 75
     0
  1
AcDbOsnapPointRef
 72
    13
331
177
 73
     2
 91
        0
 40
0.0
 10
242.924049809887
 20
179.8952247340568
 30
0.0
 75
     0
  0
DIMASSOC
  5
25A
102
{ACAD_REACTORS
330
250
102
}
330
250
100
AcDbDimAssoc
330
243
 90
        3
 70
     0
 71
     0
  1
AcDbOsnapPointRef
 72
    13
331
177
 73
     2
 91
        0
 40
0.0
 10
242.924049809887
 20
179.8952247340568
 30
0.0
 75
     0
  1
AcDbOsnapPointRef
 72
     5
331
17D
 73
     2
 91
        0
 40
3.141592653589793
 10
64.92404980988704
 20
158.3952247340569
 30
0.0
 75
     0
  0
DIMASSOC
  5
272
102
{ACAD_REACTORS
330
268
102
}
330
268
100
AcDbDimAssoc
330
25B
 90
        3
 70
     0
 71
     0
  1
AcDbOsnapPointRef
 72
    13
331
17E
 73
     2
 91
        0
 40
4.663132233362841
 10
153.924049809887
 20
66.89522473405689
 30
0.0
 75
     0
  1
AcDbOsnapPointRef
 72
     1
331
177
 73
     2
 91
        0
 40
1.0
 10
242.924049809887
 20
249.8952247340568
 30
0.0
 75
     0
  0
DIMASSOC
  5
28A
102
{ACAD_REACTORS
330
280
102
}
330
280
100
AcDbDimAssoc
330
273
 90
        3
 70
     0
 71
     0
  1
AcDbOsnapPointRef
 72
    13
331
1DD
 73
     2
 91
        0
 40
0.0
 10
-271.9843212340883
 20
66.80042574285136
 30
0.0
 75
     0
  1
AcDbOsnapPointRef
 72
     6
331
1DB
 73
     2
 91
        0
 40
1.0
 10
-56.98432123408839
 20
66.80042574285136
 30
0.0
332
1DA
 74
     2
 92
        0
 75
     0
  0
LAYOUT
  5
22
102
{ACAD_REACTORS
330
1A
102
}
330
1A
100
AcDbPlotSettings
  1

  2
D:\AutoCAD 2002Cz\plotters\PublishToWeb DWF.pc3
  4

  6

 40
0.0
 41
0.0
 42
0.0
 43
0.0
 44
0.0
 45
0.0
 46
0.0
 47
0.0
 48
0.0
 49
0.0
140
0.0
141
0.0
142
1.0
143
1.0
 70
  1712
 72
     0
 73
     0
 74
     0
  7

 75
     0
147
1.0
148
0.0
149
0.0
100
AcDbLayout
  1
Model
 70
     1
 71
     0
 10
0.0
 20
0.0
 11
12.0
 21
9.0
 12
0.0
 22
0.0
 32
0.0
 14
0.0
 24
0.0
 34
0.0
 15
0.0
 25
0.0
 35
0.0
146
0.0
 13
0.0
 23
0.0
 33
0.0
 16
1.0
 26
0.0
 36
0.0
 17
0.0
 27
1.0
 37
0.0
 76
     0
330
1F
  0
LAYOUT
  5
1E
102
{ACAD_REACTORS
330
1A
102
}
330
1A
100
AcDbPlotSettings
  1

  2
D:\AutoCAD 2002Cz\plotters\PublishToWeb DWF.pc3
  4

  6

 40
0.0
 41
0.0
 42
0.0
 43
0.0
 44
0.0
 45
0.0
 46
0.0
 47
0.0
 48
0.0
 49
0.0
140
0.0
141
0.0
142
1.0
143
1.0
 70
   688
 72
     0
 73
     0
 74
     5
  7

 75
    16
147
1.0
148
0.0
149
0.0
100
AcDbLayout
  1
Rozvržení1
 70
     1
 71
     1
 10
0.0
 20
0.0
 11
420.0
 21
297.0
 12
0.0
 22
0.0
 32
0.0
 14
1.000000000000000E+20
 24
1.000000000000000E+20
 34
1.000000000000000E+20
 15
-1.000000000000000E+20
 25
-1.000000000000000E+20
 35
-1.000000000000000E+20
146
0.0
 13
0.0
 23
0.0
 33
0.0
 16
1.0
 26
0.0
 36
0.0
 17
0.0
 27
1.0
 37
0.0
 76
     0
330
1B
  0
LAYOUT
  5
26
102
{ACAD_REACTORS
330
1A
102
}
330
1A
100
AcDbPlotSettings
  1

  2
D:\AutoCAD 2002Cz\plotters\PublishToWeb DWF.pc3
  4

  6

 40
0.0
 41
0.0
 42
0.0
 43
0.0
 44
0.0
 45
0.0
 46
0.0
 47
0.0
 48
0.0
 49
0.0
140
0.0
141
0.0
142
1.0
143
1.0
 70
   688
 72
     0
 73
     0
 74
     5
  7

 75
    16
147
1.0
148
0.0
149
0.0
100
AcDbLayout
  1
Rozvržení2
 70
     1
 71
     2
 10
0.0
 20
0.0
 11
12.0
 21
9.0
 12
0.0
 22
0.0
 32
0.0
 14
0.0
 24
0.0
 34
0.0
 15
0.0
 25
0.0
 35
0.0
146
0.0
 13
0.0
 23
0.0
 33
0.0
 16
1.0
 26
0.0
 36
0.0
 17
0.0
 27
1.0
 37
0.0
 76
     0
330
23
  0
MLINESTYLE
  5
18
102
{ACAD_REACTORS
330
17
102
}
330
17
100
AcDbMlineStyle
  2
STANDARD
 70
     0
  3

 62
   256
 51
90.0
 52
90.0
 71
     2
 49
0.5
 62
   256
  6
BYLAYER
 49
-0.5
 62
   256
  6
BYLAYER
  0
ACDBPLACEHOLDER
  5
F
102
{ACAD_REACTORS
330
E
102
}
330
E
  0
DICTIONARYVAR
  5
30
102
{ACAD_REACTORS
330
2E
102
}
330
2E
100
DictionaryVariables
280
     0
  1
2
  0
DICTIONARYVAR
  5
2F
102
{ACAD_REACTORS
330
2E
102
}
330
2E
100
DictionaryVariables
280
     0
  1
1
  0
ENDSEC
  0
EOF
