  0
SECTION
  2
HEADER
  9
$ACADVER
  1
AC1015
  9
$ACADMAINTVER
 70
     6
  9
$DWGCODEPAGE
  3
ANSI_1250
  9
$INSBASE
 10
0.0
 20
0.0
 30
0.0
  9
$EXTMIN
 10
-177.4983002929073
 20
-30.00833501165482
 30
0.0
  9
$EXTMAX
 10
427.5913597341278
 20
319.4456239164875
 30
0.0
  9
$LIMMIN
 10
0.0
 20
0.0
  9
$LIMMAX
 10
12.0
 20
9.0
  9
$ORTHOMODE
 70
     0
  9
$REGENMODE
 70
     1
  9
$FILLMODE
 70
     1
  9
$QTEXTMODE
 70
     0
  9
$MIRRTEXT
 70
     1
  9
$LTSCALE
 40
1.0
  9
$ATTMODE
 70
     1
  9
$TEXTSIZE
 40
0.2
  9
$TRACEWID
 40
0.05
  9
$TEXTSTYLE
  7
Standard
  9
$CLAYER
  8
popis
  9
$CELTYPE
  6
ByLayer
  9
$CECOLOR
 62
   256
  9
$CELTSCALE
 40
1.0
  9
$DISPSILH
 70
     0
  9
$DIMSCALE
 40
10.0
  9
$DIMASZ
 40
2.0
  9
$DIMEXO
 40
0.625
  9
$DIMDLI
 40
0.38
  9
$DIMRND
 40
0.0
  9
$DIMDLE
 40
0.0
  9
$DIMEXE
 40
1.25
  9
$DIMTP
 40
0.0
  9
$DIMTM
 40
0.0
  9
$DIMTXT
 40
2.0
  9
$DIMCEN
 40
0.09
  9
$DIMTSZ
 40
0.0
  9
$DIMTOL
 70
     0
  9
$DIMLIM
 70
     0
  9
$DIMTIH
 70
     0
  9
$DIMTOH
 70
     0
  9
$DIMSE1
 70
     0
  9
$DIMSE2
 70
     0
  9
$DIMTAD
 70
     1
  9
$DIMZIN
 70
     0
  9
$DIMBLK
  1
VDDIM_DEFAULT
  9
$DIMASO
 70
     1
  9
$DIMSHO
 70
     1
  9
$DIMPOST
  1

  9
$DIMAPOST
  1

  9
$DIMALT
 70
     0
  9
$DIMALTD
 70
     2
  9
$DIMALTF
 40
25.4
  9
$DIMLFAC
 40
1.0
  9
$DIMTOFL
 70
     1
  9
$DIMTVP
 40
0.0
  9
$DIMTIX
 70
     1
  9
$DIMSOXD
 70
     0
  9
$DIMSAH
 70
     0
  9
$DIMBLK1
  1

  9
$DIMBLK2
  1

  9
$DIMSTYLE
  2
ISO-25
  9
$DIMCLRD
 70
     0
  9
$DIMCLRE
 70
     0
  9
$DIMCLRT
 70
   256
  9
$DIMTFAC
 40
1.0
  9
$DIMGAP
 40
0.625
  9
$DIMJUST
 70
     0
  9
$DIMSD1
 70
     0
  9
$DIMSD2
 70
     0
  9
$DIMTOLJ
 70
     1
  9
$DIMTZIN
 70
     0
  9
$DIMALTZ
 70
     0
  9
$DIMALTTZ
 70
     0
  9
$DIMUPT
 70
     1
  9
$DIMDEC
 70
     0
  9
$DIMTDEC
 70
     4
  9
$DIMALTU
 70
     2
  9
$DIMALTTD
 70
     2
  9
$DIMTXSTY
  7
Standard
  9
$DIMAUNIT
 70
     0
  9
$DIMADEC
 70
     0
  9
$DIMALTRND
 40
0.0
  9
$DIMAZIN
 70
     0
  9
$DIMDSEP
 70
    46
  9
$DIMATFIT
 70
     3
  9
$DIMFRAC
 70
     0
  9
$DIMLDRBLK
  1

  9
$DIMLUNIT
 70
     2
  9
$DIMLWD
 70
    -2
  9
$DIMLWE
 70
    -2
  9
$DIMTMOVE
 70
     0
  9
$LUNITS
 70
     2
  9
$LUPREC
 70
     4
  9
$SKETCHINC
 40
0.1
  9
$FILLETRAD
 40
0.5
  9
$AUNITS
 70
     0
  9
$AUPREC
 70
     0
  9
$MENU
  1
.
  9
$ELEVATION
 40
0.0
  9
$PELEVATION
 40
0.0
  9
$THICKNESS
 40
0.0
  9
$LIMCHECK
 70
     0
  9
$CHAMFERA
 40
0.5
  9
$CHAMFERB
 40
0.5
  9
$CHAMFERC
 40
1.0
  9
$CHAMFERD
 40
0.0
  9
$SKPOLY
 70
     0
  9
$TDCREATE
 40
2455649.564781713
  9
$TDUCREATE
 40
2455649.523115046
  9
$TDUPDATE
 40
2455649.606448391
  9
$TDUUPDATE
 40
2455649.523115058
  9
$TDINDWG
 40
0.0000000116
  9
$TDUSRTIMER
 40
0.0000000116
  9
$USRTIMER
 70
     1
  9
$ANGBASE
 50
0.0
  9
$ANGDIR
 70
     0
  9
$PDMODE
 70
     0
  9
$PDSIZE
 40
0.0
  9
$PLINEWID
 40
0.0
  9
$SPLFRAME
 70
     0
  9
$SPLINETYPE
 70
     6
  9
$SPLINESEGS
 70
     8
  9
$HANDSEED
  5
284
  9
$SURFTAB1
 70
     6
  9
$SURFTAB2
 70
     6
  9
$SURFTYPE
 70
     6
  9
$SURFU
 70
     6
  9
$SURFV
 70
     6
  9
$UCSBASE
  2

  9
$UCSNAME
  2

  9
$UCSORG
 10
0.0
 20
0.0
 30
0.0
  9
$UCSXDIR
 10
1.0
 20
0.0
 30
0.0
  9
$UCSYDIR
 10
0.0
 20
1.0
 30
0.0
  9
$UCSORTHOREF
  2

  9
$UCSORTHOVIEW
 70
     0
  9
$UCSORGTOP
 10
0.0
 20
0.0
 30
0.0
  9
$UCSORGBOTTOM
 10
0.0
 20
0.0
 30
0.0
  9
$UCSORGLEFT
 10
0.0
 20
0.0
 30
0.0
  9
$UCSORGRIGHT
 10
0.0
 20
0.0
 30
0.0
  9
$UCSORGFRONT
 10
0.0
 20
0.0
 30
0.0
  9
$UCSORGBACK
 10
0.0
 20
0.0
 30
0.0
  9
$PUCSBASE
  2

  9
$PUCSNAME
  2

  9
$PUCSORG
 10
0.0
 20
0.0
 30
0.0
  9
$PUCSXDIR
 10
1.0
 20
0.0
 30
0.0
  9
$PUCSYDIR
 10
0.0
 20
1.0
 30
0.0
  9
$PUCSORTHOREF
  2

  9
$PUCSORTHOVIEW
 70
     0
  9
$PUCSORGTOP
 10
0.0
 20
0.0
 30
0.0
  9
$PUCSORGBOTTOM
 10
0.0
 20
0.0
 30
0.0
  9
$PUCSORGLEFT
 10
0.0
 20
0.0
 30
0.0
  9
$PUCSORGRIGHT
 10
0.0
 20
0.0
 30
0.0
  9
$PUCSORGFRONT
 10
0.0
 20
0.0
 30
0.0
  9
$PUCSORGBACK
 10
0.0
 20
0.0
 30
0.0
  9
$USERI1
 70
     0
  9
$USERI2
 70
     0
  9
$USERI3
 70
     0
  9
$USERI4
 70
     0
  9
$USERI5
 70
     0
  9
$USERR1
 40
0.0
  9
$USERR2
 40
0.0
  9
$USERR3
 40
0.0
  9
$USERR4
 40
0.0
  9
$USERR5
 40
0.0
  9
$WORLDVIEW
 70
     1
  9
$SHADEDGE
 70
     3
  9
$SHADEDIF
 70
    70
  9
$TILEMODE
 70
     1
  9
$MAXACTVP
 70
    64
  9
$PINSBASE
 10
0.0
 20
0.0
 30
0.0
  9
$PLIMCHECK
 70
     0
  9
$PEXTMIN
 10
1.000000000000000E+20
 20
1.000000000000000E+20
 30
1.000000000000000E+20
  9
$PEXTMAX
 10
-1.000000000000000E+20
 20
-1.000000000000000E+20
 30
-1.000000000000000E+20
  9
$PLIMMIN
 10
0.0
 20
0.0
  9
$PLIMMAX
 10
12.0
 20
9.0
  9
$UNITMODE
 70
     0
  9
$VISRETAIN
 70
     1
  9
$PLINEGEN
 70
     0
  9
$PSLTSCALE
 70
     1
  9
$TREEDEPTH
 70
  3020
  9
$CMLSTYLE
  2
Standard
  9
$CMLJUST
 70
     0
  9
$CMLSCALE
 40
1.0
  9
$PROXYGRAPHICS
 70
     1
  9
$MEASUREMENT
 70
     0
  9
$CELWEIGHT
370
    -1
  9
$ENDCAPS
280
     0
  9
$JOINSTYLE
280
     0
  9
$LWDISPLAY
290
     0
  9
$INSUNITS
 70
     1
  9
$HYPERLINKBASE
  1

  9
$STYLESHEET
  1

  9
$XEDIT
290
     1
  9
$CEPSNTYPE
380
     0
  9
$PSTYLEMODE
290
     0
  9
$FINGERPRINTGUID
  2
{FAEB1C30-E019-11D5-929B-00C0DF256EC4}
  9
$VERSIONGUID
  2
{FAEB1C32-E019-11D5-929B-00C0DF256EC4}
  9
$EXTNAMES
290
     1
  9
$PSVPSCALE
 40
0.0
  9
$OLESTARTUP
290
     0
  0
ENDSEC
  0
SECTION
  2
CLASSES
  0
CLASS
  1
ACDBDICTIONARYWDFLT
  2
AcDbDictionaryWithDefault
  3
ObjectDBX Classes
 90
        0
280
     0
281
     0
  0
CLASS
  1
ACDBPLACEHOLDER
  2
AcDbPlaceHolder
  3
ObjectDBX Classes
 90
        0
280
     0
281
     0
  0
CLASS
  1
LAYOUT
  2
AcDbLayout
  3
ObjectDBX Classes
 90
        0
280
     0
281
     0
  0
ENDSEC
  0
SECTION
  2
TABLES
  0
TABLE
  2
VPORT
  5
1F0
330
0
100
AcDbSymbolTable
 70
     2
  0
VPORT
  5
211
330
1F0
100
AcDbSymbolTableRecord
100
AcDbViewportTableRecord
  2
*Active
 70
     0
 10
0.0
 20
0.0
 11
1.0
 21
1.0
 12
206.0203594393104
 22
93.18967842741921
 13
0.0
 23
0.0
 14
10.0
 24
10.0
 15
10.0
 25
10.0
 16
0.0
 26
0.0
 36
1.0
 17
0.0
 27
0.0
 37
0.0
 40
638.1418057180724
 41
0.0278257224280614
 42
50.0
 43
0.0
 44
0.0
 50
0.0
 51
0.0000000000007958
 71
     0
 72
   100
 73
     1
 74
     3
 75
     0
 76
     0
 77
     0
 78
     0
281
     0
 65
     1
110
0.0
120
0.0
130
0.0
111
1.0
121
0.0
131
0.0
112
0.0
122
1.0
132
0.0
 79
     0
146
0.0
  0
ENDTAB
  0
TABLE
  2
LTYPE
  5
1ED
330
0
100
AcDbSymbolTable
 70
    25
  0
LTYPE
  5
1FC
330
1ED
100
AcDbSymbolTableRecord
100
AcDbLinetypeTableRecord
  2
ByBlock
 70
     0
  3

 72
    65
 73
     0
 40
0.0
  0
LTYPE
  5
1FD
330
1ED
100
AcDbSymbolTableRecord
100
AcDbLinetypeTableRecord
  2
ByLayer
 70
     0
  3

 72
    65
 73
     0
 40
0.0
  0
LTYPE
  5
1FE
330
1ED
100
AcDbSymbolTableRecord
100
AcDbLinetypeTableRecord
  2
Continuous
 70
     0
  3
Solid line
 72
    65
 73
     0
 40
0.0
  0
LTYPE
  5
219
330
1ED
100
AcDbSymbolTableRecord
100
AcDbLinetypeTableRecord
  2
CENTER
 70
     0
  3
Center ____ _ ____ _ ____ _ ____ _ ____ _ ____
 72
    65
 73
     4
 40
2.0
 49
1.25
 74
     0
 49
-0.25
 74
     0
 49
0.25
 74
     0
 49
-0.25
 74
     0
  0
LTYPE
  5
21A
330
1ED
100
AcDbSymbolTableRecord
100
AcDbLinetypeTableRecord
  2
DASHDOT
 70
     0
  3
Dashdot __ . __ . __ . __ . __ . __ . __ . __
 72
    65
 73
     4
 40
1.0
 49
0.5
 74
     0
 49
-0.25
 74
     0
 49
0.0
 74
     0
 49
-0.25
 74
     0
  0
LTYPE
  5
21B
330
1ED
100
AcDbSymbolTableRecord
100
AcDbLinetypeTableRecord
  2
DASHED
 70
     0
  3
Dashed __ __ __ __ __ __ __ __ __ __ __ __ __ _
 72
    65
 73
     2
 40
0.75
 49
0.5
 74
     0
 49
-0.25
 74
     0
  0
LTYPE
  5
21C
330
1ED
100
AcDbSymbolTableRecord
100
AcDbLinetypeTableRecord
  2
HIDDEN
 70
     0
  3
Hidden __ __ __ __ __ __ __ __ __ __ __ __ __ __
 72
    65
 73
     2
 40
0.375
 49
0.25
 74
     0
 49
-0.125
 74
     0
  0
LTYPE
  5
21D
330
1ED
100
AcDbSymbolTableRecord
100
AcDbLinetypeTableRecord
  2
HIDDEN2
 70
     0
  3
Hidden2 _ _ _ _ _ _ _ _ _ _ _ _ _ _ _ _ _ 
 72
    65
 73
     2
 40
0.1875
 49
0.125
 74
     0
 49
-0.0625
 74
     0
  0
LTYPE
  5
21E
330
1ED
100
AcDbSymbolTableRecord
100
AcDbLinetypeTableRecord
  2
BORDER
 70
     0
  3
Border __ __ . __ __ . __ __ . __ __ . __ __ .
 72
    65
 73
     6
 40
1.75
 49
0.5
 74
     0
 49
-0.25
 74
     0
 49
0.5
 74
     0
 49
-0.25
 74
     0
 49
0.0
 74
     0
 49
-0.25
 74
     0
  0
LTYPE
  5
21F
330
1ED
100
AcDbSymbolTableRecord
100
AcDbLinetypeTableRecord
  2
BORDER2
 70
     0
  3
Border2 __.__.__.__.__.__.__.__.__.__.__.
 72
    65
 73
     6
 40
0.875
 49
0.25
 74
     0
 49
-0.125
 74
     0
 49
0.25
 74
     0
 49
-0.125
 74
     0
 49
0.0
 74
     0
 49
-0.125
 74
     0
  0
LTYPE
  5
220
330
1ED
100
AcDbSymbolTableRecord
100
AcDbLinetypeTableRecord
  2
BORDERX2
 70
     0
  3
Borderx2  ____  ____  .  ____  ____  .  ___
 72
    65
 73
     6
 40
3.5
 49
1.0
 74
     0
 49
-0.5
 74
     0
 49
1.0
 74
     0
 49
-0.5
 74
     0
 49
0.0
 74
     0
 49
-0.5
 74
     0
  0
LTYPE
  5
221
330
1ED
100
AcDbSymbolTableRecord
100
AcDbLinetypeTableRecord
  2
CENTER2
 70
     0
  3
Center2  ___ _ ___ _ ___ _ ___ _ ___ _ ___
 72
    65
 73
     4
 40
1.125
 49
0.75
 74
     0
 49
-0.125
 74
     0
 49
0.125
 74
     0
 49
-0.125
 74
     0
  0
LTYPE
  5
222
330
1ED
100
AcDbSymbolTableRecord
100
AcDbLinetypeTableRecord
  2
CENTERX2
 70
     0
  3
Centerx2  ________  __  ________  __  _____
 72
    65
 73
     4
 40
4.0
 49
2.5
 74
     0
 49
-0.5
 74
     0
 49
0.5
 74
     0
 49
-0.5
 74
     0
  0
LTYPE
  5
223
330
1ED
100
AcDbSymbolTableRecord
100
AcDbLinetypeTableRecord
  2
DASHDOT2
 70
     0
  3
Dashdot2  _._._._._._._._._._._._._._._.
 72
    65
 73
     4
 40
0.5
 49
0.25
 74
     0
 49
-0.125
 74
     0
 49
0.0
 74
     0
 49
-0.125
 74
     0
  0
LTYPE
  5
224
330
1ED
100
AcDbSymbolTableRecord
100
AcDbLinetypeTableRecord
  2
DASHDOTX2
 70
     0
  3
Dashdotx2 ____  .  ____  .  ____  .  ___
 72
    65
 73
     4
 40
2.0
 49
1.0
 74
     0
 49
-0.5
 74
     0
 49
0.0
 74
     0
 49
-0.5
 74
     0
  0
LTYPE
  5
225
330
1ED
100
AcDbSymbolTableRecord
100
AcDbLinetypeTableRecord
  2
DASHED2
 70
     0
  3
Dashed2 _ _ _ _ _ _ _ _ _ _ _ _ _ _ _ _ _ 
 72
    65
 73
     2
 40
0.375
 49
0.25
 74
     0
 49
-0.125
 74
     0
  0
LTYPE
  5
226
330
1ED
100
AcDbSymbolTableRecord
100
AcDbLinetypeTableRecord
  2
DASHEDX2
 70
     0
  3
Dashedx2 ____  ____  ____  ____  ____  ___
 72
    65
 73
     2
 40
1.5
 49
1.0
 74
     0
 49
-0.5
 74
     0
  0
LTYPE
  5
227
330
1ED
100
AcDbSymbolTableRecord
100
AcDbLinetypeTableRecord
  2
DIVIDE
 70
     0
  3
Divide ____ . . ____ . . ____ . . ____ . . ____
 72
    65
 73
     6
 40
1.25
 49
0.5
 74
     0
 49
-0.25
 74
     0
 49
0.0
 74
     0
 49
-0.25
 74
     0
 49
0.0
 74
     0
 49
-0.25
 74
     0
  0
LTYPE
  5
228
330
1ED
100
AcDbSymbolTableRecord
100
AcDbLinetypeTableRecord
  2
DIVIDE2
 70
     0
  3
Divide2 __..__..__..__..__..__..__..__.._
 72
    65
 73
     6
 40
0.625
 49
0.25
 74
     0
 49
-0.125
 74
     0
 49
0.0
 74
     0
 49
-0.125
 74
     0
 49
0.0
 74
     0
 49
-0.125
 74
     0
  0
LTYPE
  5
229
330
1ED
100
AcDbSymbolTableRecord
100
AcDbLinetypeTableRecord
  2
DIVIDEX2
 70
     0
  3
Dividex2 ________  .  .  ________  .  .  _
 72
    65
 73
     6
 40
2.5
 49
1.0
 74
     0
 49
-0.5
 74
     0
 49
0.0
 74
     0
 49
-0.5
 74
     0
 49
0.0
 74
     0
 49
-0.5
 74
     0
  0
LTYPE
  5
22A
330
1ED
100
AcDbSymbolTableRecord
100
AcDbLinetypeTableRecord
  2
DOT
 70
     0
  3
Dot . . . . . . . . . . . . . . . . . . . . . . . .
 72
    65
 73
     2
 40
0.25
 49
0.0
 74
     0
 49
-0.25
 74
     0
  0
LTYPE
  5
22B
330
1ED
100
AcDbSymbolTableRecord
100
AcDbLinetypeTableRecord
  2
DOT2
 70
     0
  3
Dot2 ........................................
 72
    65
 73
     2
 40
0.125
 49
0.0
 74
     0
 49
-0.125
 74
     0
  0
LTYPE
  5
22C
330
1ED
100
AcDbSymbolTableRecord
100
AcDbLinetypeTableRecord
  2
DOTX2
 70
     0
  3
Dotx2 .  .  .  .  .  .  .  .  .  .  .  .  .  .
 72
    65
 73
     2
 40
0.5
 49
0.0
 74
     0
 49
-0.5
 74
     0
  0
LTYPE
  5
22D
330
1ED
100
AcDbSymbolTableRecord
100
AcDbLinetypeTableRecord
  2
HIDDENX2
 70
     0
  3
Hiddenx2 ____ ____ ____ ____ ____ ____ ____ 
 72
    65
 73
     2
 40
0.75
 49
0.5
 74
     0
 49
-0.25
 74
     0
  0
LTYPE
  5
22E
330
1ED
100
AcDbSymbolTableRecord
100
AcDbLinetypeTableRecord
  2
PHANTOM
 70
     0
  3
Phantom ______  __  __  ______  __  __  ______ 
 72
    65
 73
     6
 40
2.5
 49
1.25
 74
     0
 49
-0.25
 74
     0
 49
0.25
 74
     0
 49
-0.25
 74
     0
 49
0.25
 74
     0
 49
-0.25
 74
     0
  0
LTYPE
  5
22F
330
1ED
100
AcDbSymbolTableRecord
100
AcDbLinetypeTableRecord
  2
PHANTOM2
 70
     0
  3
Phantom2 ___ _ _ ___ _ _ ___ _ _ ___ _ _
 72
    65
 73
     6
 40
1.25
 49
0.625
 74
     0
 49
-0.125
 74
     0
 49
0.125
 74
     0
 49
-0.125
 74
     0
 49
0.125
 74
     0
 49
-0.125
 74
     0
  0
LTYPE
  5
230
330
1ED
100
AcDbSymbolTableRecord
100
AcDbLinetypeTableRecord
  2
PHANTOMX2
 70
     0
  3
Phantomx2 ____________    ____    ____   _
 72
    65
 73
     6
 40
5.0
 49
2.5
 74
     0
 49
-0.5
 74
     0
 49
0.5
 74
     0
 49
-0.5
 74
     0
 49
0.5
 74
     0
 49
-0.5
 74
     0
  0
ENDTAB
  0
TABLE
  2
LAYER
  5
1EA
330
0
100
AcDbSymbolTable
 70
     4
  0
LAYER
  5
1F8
330
1EA
100
AcDbSymbolTableRecord
100
AcDbLayerTableRecord
  2
0
 70
     0
 62
    90
  6
Continuous
370
     0
390
1F7
  0
LAYER
  5
2B
330
1EA
100
AcDbSymbolTableRecord
100
AcDbLayerTableRecord
  2
koty
 70
     0
 62
    41
  6
Continuous
370
     0
390
1F7
  0
LAYER
  5
2C
330
1EA
100
AcDbSymbolTableRecord
100
AcDbLayerTableRecord
  2
popis
 70
     0
 62
   210
  6
Continuous
370
     0
390
1F7
  0
LAYER
  5
A9
330
1EA
100
AcDbSymbolTableRecord
100
AcDbLayerTableRecord
  2
Defpoints
 70
     0
 62
     7
  6
Continuous
290
     0
370
     0
390
1F7
  0
ENDTAB
  0
TABLE
  2
STYLE
  5
1EB
330
0
100
AcDbSymbolTable
 70
     1
  0
STYLE
  5
1F9
330
1EB
100
AcDbSymbolTableRecord
100
AcDbTextStyleTableRecord
  2
Standard
 70
     0
 40
0.0
 41
1.0
 50
0.0
 71
     0
 42
0.2
  3
txt.shx
  4

1001
ACAD
1000
txt.shx
1071
        0
  0
ENDTAB
  0
TABLE
  2
VIEW
  5
1EE
330
0
100
AcDbSymbolTable
 70
     0
  0
ENDTAB
  0
TABLE
  2
UCS
  5
1EF
330
0
100
AcDbSymbolTable
 70
     0
  0
ENDTAB
  0
TABLE
  2
APPID
  5
1F1
330
0
100
AcDbSymbolTable
 70
     6
  0
APPID
  5
1FA
330
1F1
100
AcDbSymbolTableRecord
100
AcDbRegAppTableRecord
  2
ACAD
 70
     0
  0
APPID
  5
212
330
1F1
100
AcDbSymbolTableRecord
100
AcDbRegAppTableRecord
  2
VD_INVISIBLE_NOT_FOR_READ
 70
     0
  0
APPID
  5
213
330
1F1
100
AcDbSymbolTableRecord
100
AcDbRegAppTableRecord
  2
VD_TEMPHATCH
 70
     0
  0
APPID
  5
214
330
1F1
100
AcDbSymbolTableRecord
100
AcDbRegAppTableRecord
  2
VDEXTRAPARAM
 70
     0
  0
APPID
  5
215
330
1F1
100
AcDbSymbolTableRecord
100
AcDbRegAppTableRecord
  2
PE_URL
 70
     0
  0
APPID
  5
216
330
1F1
100
AcDbSymbolTableRecord
100
AcDbRegAppTableRecord
  2
VD_UNKNOWN
 70
     0
  0
ENDTAB
  0
TABLE
  2
DIMSTYLE
  5
1F2
330
0
100
AcDbSymbolTable
 70
     2
100
AcDbDimStyleTable
  0
DIMSTYLE
105
20F
330
1F2
100
AcDbSymbolTableRecord
100
AcDbDimStyleTableRecord
  2
STANDARD
 70
     0
 41
0.2
 42
0.05
 44
0.2
 73
     0
 74
     0
140
0.2
172
     1
174
     1
177
   256
178
   256
288
     1
340
1F9
342
144
  0
DIMSTYLE
105
27
102
{ACAD_REACTORS
330
A8
330
C1
330
DD
330
F5
330
10D
330
125
102
}
330
1F2
100
AcDbSymbolTableRecord
100
AcDbDimStyleTableRecord
  2
ISO-25
 70
     0
 40
10.0
 41
2.0
 42
0.625
 44
1.25
 73
     0
 74
     0
 77
     1
140
2.0
147
0.625
172
     1
174
     1
178
   256
271
     0
288
     1
340
1F9
342
144
  0
ENDTAB
  0
TABLE
  2
BLOCK_RECORD
  5
1E9
330
0
100
AcDbSymbolTable
 70
     9
  0
BLOCK_RECORD
  5
207
330
1E9
100
AcDbSymbolTableRecord
100
AcDbBlockTableRecord
  2
*Model_Space
340
20A
  0
BLOCK_RECORD
  5
203
330
1E9
100
AcDbSymbolTableRecord
100
AcDbBlockTableRecord
  2
*Paper_Space
340
206
  0
BLOCK_RECORD
  5
20B
330
1E9
100
AcDbSymbolTableRecord
100
AcDbBlockTableRecord
  2
*Paper_Space0
340
20E
  0
BLOCK_RECORD
  5
144
330
1E9
100
AcDbSymbolTableRecord
100
AcDbBlockTableRecord
  2
VDDIM_DEFAULT
340
0
102
{BLKREFS
331
23B
331
23A
331
249
331
248
331
255
331
254
331
261
331
260
331
26D
331
26C
331
279
331
278
102
}
  0
BLOCK_RECORD
  5
146
330
1E9
100
AcDbSymbolTableRecord
100
AcDbBlockTableRecord
  2
VDDIM_NONE
340
0
  0
BLOCK_RECORD
  5
236
330
1E9
100
AcDbSymbolTableRecord
100
AcDbBlockTableRecord
  2
*D3
340
0
  0
BLOCK_RECORD
  5
242
330
1E9
100
AcDbSymbolTableRecord
100
AcDbBlockTableRecord
  2
*D4
340
0
  0
BLOCK_RECORD
  5
250
330
1E9
100
AcDbSymbolTableRecord
100
AcDbBlockTableRecord
  2
*D5
340
0
  0
BLOCK_RECORD
  5
25C
330
1E9
100
AcDbSymbolTableRecord
100
AcDbBlockTableRecord
  2
*D6
340
0
  0
BLOCK_RECORD
  5
268
330
1E9
100
AcDbSymbolTableRecord
100
AcDbBlockTableRecord
  2
*D7
340
0
  0
BLOCK_RECORD
  5
274
330
1E9
100
AcDbSymbolTableRecord
100
AcDbBlockTableRecord
  2
*D8
340
0
  0
ENDTAB
  0
ENDSEC
  0
SECTION
  2
BLOCKS
  0
BLOCK
  5
208
330
207
100
AcDbEntity
  8
0
100
AcDbBlockBegin
  2
*Model_Space
 70
     0
 71
     0
 10
0.0
 20
0.0
 30
0.0
  3
*Model_Space
  1

  0
ENDBLK
  5
209
330
207
100
AcDbEntity
  8
0
100
AcDbBlockEnd
  0
BLOCK
  5
204
330
203
100
AcDbEntity
 67
     1
  8
0
100
AcDbBlockBegin
  2
*Paper_Space
 70
     0
 71
     0
 10
0.0
 20
0.0
 30
0.0
  3
*Paper_Space
  1

  0
ENDBLK
  5
205
330
203
100
AcDbEntity
 67
     1
  8
0
100
AcDbBlockEnd
  0
BLOCK
  5
20C
330
20B
100
AcDbEntity
  8
0
100
AcDbBlockBegin
  2
*Paper_Space0
 70
     0
 71
     0
 10
0.0
 20
0.0
 30
0.0
  3
*Paper_Space0
  1

  0
VIEWPORT
  5
282
330
20B
100
AcDbEntity
  8
0
 60
     1
100
AcDbViewport
 10
0.0
 20
0.0
 30
0.0
 40
10.0
 41
10.0
 69
     1
 12
0.0
 22
0.0
 13
0.0
 23
0.0
 14
1.0
 24
1.0
 15
0.0
 25
0.0
 16
0.0
 26
0.0
 36
1.0
 17
0.0
 27
0.0
 37
0.0
 42
0.0
 43
0.0
 44
0.0
 45
10.0
 50
0.0
 51
0.0000000000007958
 72
   100
 90
   163872
  1

281
     0
 71
     0
 74
     0
110
0.0
120
0.0
130
0.0
111
1.0
121
0.0
131
0.0
112
0.0
122
1.0
132
0.0
 79
     0
146
0.0
1001
VD_INVISIBLE_NOT_FOR_READ
1000
VD_INVISIBLE_NOT_FOR_READ
  0
VIEWPORT
  5
283
330
20B
100
AcDbEntity
  8
0
 60
     1
100
AcDbViewport
 10
0.0
 20
0.0
 30
0.0
 40
10.0
 41
10.0
 69
     2
 12
0.0
 22
0.0
 13
0.0
 23
0.0
 14
1.0
 24
1.0
 15
0.0
 25
0.0
 16
0.0
 26
0.0
 36
1.0
 17
0.0
 27
0.0
 37
0.0
 42
0.0
 43
0.0
 44
0.0
 45
10.0
 50
0.0
 51
0.0000000000007958
 72
   100
 90
   163872
  1

281
     0
 71
     0
 74
     0
110
0.0
120
0.0
130
0.0
111
1.0
121
0.0
131
0.0
112
0.0
122
1.0
132
0.0
 79
     0
146
0.0
1001
VD_INVISIBLE_NOT_FOR_READ
1000
VD_INVISIBLE_NOT_FOR_READ
  0
ENDBLK
  5
20D
330
20B
100
AcDbEntity
  8
0
100
AcDbBlockEnd
  0
BLOCK
  5
231
330
144
100
AcDbEntity
  8
0
100
AcDbBlockBegin
  2
VDDIM_DEFAULT
 70
     0
 71
     0
 10
0.0
 20
0.0
 30
0.0
  3
VDDIM_DEFAULT
  1

  0
LWPOLYLINE
  5
145
330
144
100
AcDbEntity
  8
0
  6
Continuous
 62
     0
100
AcDbPolyline
 90
        4
 70
     0
 43
0.0
 10
0.0
 20
0.0
 10
-1.0
 20
-0.1665
 10
-1.0
 20
0.1665
 10
0.0
 20
0.0
1001
VDEXTRAPARAM
1071
        1
1071
        0
1071
        0
1040
1.0
1000

1000

1040
0.0
1040
0.0
  0
HATCH
  5
235
330
144
100
AcDbEntity
  8
0
  6
Continuous
 62
     0
100
AcDbHatch
 10
0.0
 20
0.0
 30
0.0
210
0.0
220
0.0
230
1.0
  2
SOLID
 70
     1
 71
     0
 91
        1
 92
        2
 72
     0
 73
     1
 93
        3
 10
0.0
 20
0.0
 10
-1.0
 20
-0.1665
 10
-1.0
 20
0.1665
 97
        0
 75
     0
 76
     1
 98
        1
 10
0.0
 20
0.0
1001
VDEXTRAPARAM
1071
        1
1071
        0
1071
        0
1040
1.0
1000

1000

1040
0.0
1040
0.0
1001
VD_TEMPHATCH
1000
VD_TEMPHATCH
  0
ENDBLK
  5
232
330
144
100
AcDbEntity
  8
0
100
AcDbBlockEnd
  0
BLOCK
  5
233
330
146
100
AcDbEntity
  8
0
100
AcDbBlockBegin
  2
VDDIM_NONE
 70
     0
 71
     0
 10
0.0
 20
0.0
 30
0.0
  3
VDDIM_NONE
  1

  0
ENDBLK
  5
234
330
146
100
AcDbEntity
  8
0
100
AcDbBlockEnd
  0
BLOCK
  5
240
330
236
100
AcDbEntity
  8
0
100
AcDbBlockBegin
  2
*D3
 70
     1
 71
     0
 10
0.0
 20
0.0
 30
0.0
  3
*D3
  1

  0
LINE
  5
237
330
236
100
AcDbEntity
  8
koty
 62
     0
370
    -2
100
AcDbLine
 10
-97.86579039162234
 20
25.73897566057326
 30
0.0
 11
-97.86579039162236
 21
-30.00833501165482
 31
0.0
  0
LINE
  5
238
330
236
100
AcDbEntity
  8
koty
 62
     0
370
    -2
100
AcDbLine
 10
0.1342096083776596
 20
25.73897566057326
 30
0.0
 11
0.1342096083776596
 21
-30.00833501165482
 31
0.0
  0
LINE
  5
239
330
236
100
AcDbEntity
  8
koty
 62
     0
370
    -2
100
AcDbLine
 10
-77.86579039162236
 20
-17.50833501165482
 30
0.0
 11
-19.86579039162234
 21
-17.50833501165482
 31
0.0
  0
INSERT
  5
23A
330
236
100
AcDbEntity
  8
koty
 62
     0
370
    -2
100
AcDbBlockReference
  2
VDDIM_DEFAULT
 10
-97.86579039162236
 20
-17.50833501165482
 30
0.0
 41
20.0
 42
20.0
 43
20.0
 50
180.0
  0
INSERT
  5
23B
330
236
100
AcDbEntity
  8
koty
 62
     0
370
    -2
100
AcDbBlockReference
  2
VDDIM_DEFAULT
 10
0.1342096083776596
 20
-17.50833501165482
 30
0.0
 41
20.0
 42
20.0
 43
20.0
 50
360.0
  0
MTEXT
  5
23C
330
236
100
AcDbEntity
  8
koty
100
AcDbMText
 10
-48.86579039162235
 20
-1.258335011654822
 30
0.0
 40
20.0
 41
0.0
 71
     5
 72
     1
  1
\A1;98
 73
     1
 44
1.0
  0
POINT
  5
23D
330
236
100
AcDbEntity
  8
Defpoints
 62
     0
100
AcDbPoint
 10
-97.86579039162234
 20
31.98897566057326
 30
0.0
  0
POINT
  5
23E
330
236
100
AcDbEntity
  8
Defpoints
 62
     0
100
AcDbPoint
 10
0.1342096083776596
 20
31.98897566057326
 30
0.0
  0
POINT
  5
23F
330
236
100
AcDbEntity
  8
Defpoints
 62
     0
100
AcDbPoint
 10
0.1342096083776596
 20
-17.50833501165482
 30
0.0
  0
ENDBLK
  5
241
330
236
100
AcDbEntity
  8
0
100
AcDbBlockEnd
  0
BLOCK
  5
24E
330
242
100
AcDbEntity
  8
0
100
AcDbBlockBegin
  2
*D4
 70
     1
 71
     0
 10
0.0
 20
0.0
 30
0.0
  3
*D4
  1

  0
LINE
  5
243
330
242
100
AcDbEntity
  8
koty
 62
     0
370
    -2
100
AcDbLine
 10
0.1342096083776596
 20
97.7389756605732
 30
0.0
 11
0.1342096083776596
 21
-30.00833501165488
 31
0.0
  0
LINE
  5
244
330
242
100
AcDbEntity
  8
koty
 62
     0
370
    -2
100
AcDbLine
 10
49.13420960837766
 20
102.7389756605732
 30
0.0
 11
49.13420960837766
 21
-30.00833501165488
 31
0.0
  0
LINE
  5
245
330
242
100
AcDbEntity
  8
koty
 62
     0
370
    -2
100
AcDbLine
 10
-19.86579039162234
 20
-17.50833501165487
 30
0.0
 11
-39.86579039162234
 21
-17.50833501165487
 31
0.0
  0
LINE
  5
246
330
242
100
AcDbEntity
  8
koty
 62
     0
370
    -2
100
AcDbLine
 10
69.13420960837766
 20
-17.50833501165488
 30
0.0
 11
133.0627810369491
 21
-17.50833501165488
 31
0.0
  0
LINE
  5
247
330
242
100
AcDbEntity
  8
koty
 62
     0
370
    -2
100
AcDbLine
 10
0.1342096083776596
 20
-17.50833501165488
 30
0.0
 11
49.13420960837766
 21
-17.50833501165488
 31
0.0
  0
INSERT
  5
248
330
242
100
AcDbEntity
  8
koty
 62
     0
370
    -2
100
AcDbBlockReference
  2
VDDIM_DEFAULT
 10
0.1342096083776596
 20
-17.50833501165488
 30
0.0
 41
20.0
 42
20.0
 43
20.0
 50
360.0
  0
INSERT
  5
249
330
242
100
AcDbEntity
  8
koty
 62
     0
370
    -2
100
AcDbBlockReference
  2
VDDIM_DEFAULT
 10
49.13420960837766
 20
-17.50833501165488
 30
0.0
 41
20.0
 42
20.0
 43
20.0
 50
180.0
  0
MTEXT
  5
24A
330
242
100
AcDbEntity
  8
koty
100
AcDbMText
 10
111.0984953226634
 20
-1.258335011654882
 30
0.0
 40
20.0
 41
0.0
 71
     5
 72
     1
  1
\A1;49
 73
     1
 44
1.0
  0
POINT
  5
24B
330
242
100
AcDbEntity
  8
Defpoints
 62
     0
100
AcDbPoint
 10
0.1342096083776596
 20
103.9889756605732
 30
0.0
  0
POINT
  5
24C
330
242
100
AcDbEntity
  8
Defpoints
 62
     0
100
AcDbPoint
 10
49.13420960837766
 20
108.9889756605732
 30
0.0
  0
POINT
  5
24D
330
242
100
AcDbEntity
  8
Defpoints
 62
     0
100
AcDbPoint
 10
49.13420960837766
 20
-17.50833501165488
 30
0.0
  0
ENDBLK
  5
24F
330
242
100
AcDbEntity
  8
0
100
AcDbBlockEnd
  0
BLOCK
  5
25A
330
250
100
AcDbEntity
  8
0
100
AcDbBlockBegin
  2
*D5
 70
     1
 71
     0
 10
0.0
 20
0.0
 30
0.0
  3
*D5
  1

  0
LINE
  5
251
330
250
100
AcDbEntity
  8
koty
 62
     0
370
    -2
100
AcDbLine
 10
43.13420960837766
 20
83.98897566057327
 30
0.0
 11
104.8611510141745
 21
83.98897566057327
 31
0.0
  0
LINE
  5
252
330
250
100
AcDbEntity
  8
koty
 62
     0
370
    -2
100
AcDbLine
 10
43.13420960837765
 20
183.9889756605732
 30
0.0
 11
104.8611510141745
 21
183.9889756605732
 31
0.0
  0
LINE
  5
253
330
250
100
AcDbEntity
  8
koty
 62
     0
370
    -2
100
AcDbLine
 10
92.36115101417454
 20
103.9889756605733
 30
0.0
 11
92.36115101417454
 21
163.9889756605732
 31
0.0
  0
INSERT
  5
254
330
250
100
AcDbEntity
  8
koty
 62
     0
370
    -2
100
AcDbBlockReference
  2
VDDIM_DEFAULT
 10
92.36115101417454
 20
83.98897566057326
 30
0.0
 41
20.0
 42
20.0
 43
20.0
 50
270.0
  0
INSERT
  5
255
330
250
100
AcDbEntity
  8
koty
 62
     0
370
    -2
100
AcDbBlockReference
  2
VDDIM_DEFAULT
 10
92.36115101417454
 20
183.9889756605732
 30
0.0
 41
20.0
 42
20.0
 43
20.0
 50
90.0
  0
MTEXT
  5
256
330
250
100
AcDbEntity
  8
koty
100
AcDbMText
 10
76.11115101417454
 20
133.9889756605732
 30
0.0
 40
20.0
 41
0.0
 71
     5
 72
     1
  1
\A1;100
 11
0.0
 21
-1.0
 31
0.0
 73
     1
 44
1.0
  0
POINT
  5
257
330
250
100
AcDbEntity
  8
Defpoints
 62
     0
100
AcDbPoint
 10
36.88420960837766
 20
83.98897566057327
 30
0.0
  0
POINT
  5
258
330
250
100
AcDbEntity
  8
Defpoints
 62
     0
100
AcDbPoint
 10
36.88420960837765
 20
183.9889756605732
 30
0.0
  0
POINT
  5
259
330
250
100
AcDbEntity
  8
Defpoints
 62
     0
100
AcDbPoint
 10
92.36115101417454
 20
183.9889756605732
 30
0.0
  0
ENDBLK
  5
25B
330
250
100
AcDbEntity
  8
0
100
AcDbBlockEnd
  0
BLOCK
  5
266
330
25C
100
AcDbEntity
  8
0
100
AcDbBlockBegin
  2
*D6
 70
     1
 71
     0
 10
0.0
 20
0.0
 30
0.0
  3
*D6
  1

  0
LINE
  5
25D
330
25C
100
AcDbEntity
  8
koty
 62
     0
370
    -2
100
AcDbLine
 10
-104.1157903916223
 20
255.9889756605732
 30
0.0
 11
-147.8473083789476
 21
255.9889756605732
 31
0.0
  0
LINE
  5
25E
330
25C
100
AcDbEntity
  8
koty
 62
     0
370
    -2
100
AcDbLine
 10
-104.1157903916223
 20
31.98897566057326
 30
0.0
 11
-147.8473083789477
 21
31.98897566057326
 31
0.0
  0
LINE
  5
25F
330
25C
100
AcDbEntity
  8
koty
 62
     0
370
    -2
100
AcDbLine
 10
-135.3473083789476
 20
235.9889756605732
 30
0.0
 11
-135.3473083789477
 21
51.98897566057326
 31
0.0
  0
INSERT
  5
260
330
25C
100
AcDbEntity
  8
koty
 62
     0
370
    -2
100
AcDbBlockReference
  2
VDDIM_DEFAULT
 10
-135.3473083789476
 20
255.9889756605732
 30
0.0
 41
20.0
 42
20.0
 43
20.0
 50
90.0
  0
INSERT
  5
261
330
25C
100
AcDbEntity
  8
koty
 62
     0
370
    -2
100
AcDbBlockReference
  2
VDDIM_DEFAULT
 10
-135.3473083789477
 20
31.98897566057326
 30
0.0
 41
20.0
 42
20.0
 43
20.0
 50
270.0
  0
MTEXT
  5
262
330
25C
100
AcDbEntity
  8
koty
100
AcDbMText
 10
-151.5973083789477
 20
143.9889756605732
 30
0.0
 40
20.0
 41
0.0
 71
     5
 72
     1
  1
\A1;224
 11
1.268826313857322E-16
 21
1.0
 31
0.0
 73
     1
 44
1.0
  0
POINT
  5
263
330
25C
100
AcDbEntity
  8
Defpoints
 62
     0
100
AcDbPoint
 10
-97.86579039162234
 20
255.9889756605732
 30
0.0
  0
POINT
  5
264
330
25C
100
AcDbEntity
  8
Defpoints
 62
     0
100
AcDbPoint
 10
-97.86579039162234
 20
31.98897566057326
 30
0.0
  0
POINT
  5
265
330
25C
100
AcDbEntity
  8
Defpoints
 62
     0
100
AcDbPoint
 10
-135.3473083789477
 20
31.98897566057326
 30
0.0
  0
ENDBLK
  5
267
330
25C
100
AcDbEntity
  8
0
100
AcDbBlockEnd
  0
BLOCK
  5
272
330
268
100
AcDbEntity
  8
0
100
AcDbBlockBegin
  2
*D7
 70
     1
 71
     0
 10
0.0
 20
0.0
 30
0.0
  3
*D7
  1

  0
LINE
  5
269
330
268
100
AcDbEntity
  8
koty
 62
     0
370
    -2
100
AcDbLine
 10
122.3473450583999
 20
137.7389756605731
 30
0.0
 11
122.3473450583999
 21
-27.08225645265418
 31
0.0
  0
LINE
  5
26A
330
268
100
AcDbEntity
  8
koty
 62
     0
370
    -2
100
AcDbLine
 10
346.3473450583999
 20
155.7389756605732
 30
0.0
 11
346.3473450583999
 21
-27.08225645265421
 31
0.0
  0
LINE
  5
26B
330
268
100
AcDbEntity
  8
koty
 62
     0
370
    -2
100
AcDbLine
 10
142.3473450583999
 20
-14.58225645265419
 30
0.0
 11
326.3473450583999
 21
-14.58225645265421
 31
0.0
  0
INSERT
  5
26C
330
268
100
AcDbEntity
  8
koty
 62
     0
370
    -2
100
AcDbBlockReference
  2
VDDIM_DEFAULT
 10
122.3473450583999
 20
-14.58225645265419
 30
0.0
 41
20.0
 42
20.0
 43
20.0
 50
180.0
  0
INSERT
  5
26D
330
268
100
AcDbEntity
  8
koty
 62
     0
370
    -2
100
AcDbBlockReference
  2
VDDIM_DEFAULT
 10
346.3473450583999
 20
-14.58225645265421
 30
0.0
 41
20.0
 42
20.0
 43
20.0
 50
360.0
  0
MTEXT
  5
26E
330
268
100
AcDbEntity
  8
koty
100
AcDbMText
 10
234.3473450583999
 20
1.667743547345793
 30
0.0
 40
20.0
 41
0.0
 71
     5
 72
     1
  1
\A1;224
 73
     1
 44
1.0
  0
POINT
  5
26F
330
268
100
AcDbEntity
  8
Defpoints
 62
     0
100
AcDbPoint
 10
122.3473450583999
 20
143.9889756605731
 30
0.0
  0
POINT
  5
270
330
268
100
AcDbEntity
  8
Defpoints
 62
     0
100
AcDbPoint
 10
346.3473450583999
 20
161.9889756605732
 30
0.0
  0
POINT
  5
271
330
268
100
AcDbEntity
  8
Defpoints
 62
     0
100
AcDbPoint
 10
346.3473450583999
 20
-14.58225645265421
 30
0.0
  0
ENDBLK
  5
273
330
268
100
AcDbEntity
  8
0
100
AcDbBlockEnd
  0
BLOCK
  5
27E
330
274
100
AcDbEntity
  8
0
100
AcDbBlockBegin
  2
*D8
 70
     1
 71
     0
 10
0.0
 20
0.0
 30
0.0
  3
*D8
  1

  0
LINE
  5
275
330
274
100
AcDbEntity
  8
koty
 62
     0
370
    -2
100
AcDbLine
 10
352.5973450583999
 20
161.9889756605732
 30
0.0
 11
427.5913597341278
 21
161.9889756605732
 31
0.0
  0
LINE
  5
276
330
274
100
AcDbEntity
  8
koty
 62
     0
370
    -2
100
AcDbLine
 10
352.5973450583999
 20
255.9889756605732
 30
0.0
 11
427.5913597341278
 21
255.9889756605732
 31
0.0
  0
LINE
  5
277
330
274
100
AcDbEntity
  8
koty
 62
     0
370
    -2
100
AcDbLine
 10
415.0913597341278
 20
181.9889756605732
 30
0.0
 11
415.0913597341278
 21
235.9889756605732
 31
0.0
  0
INSERT
  5
278
330
274
100
AcDbEntity
  8
koty
 62
     0
370
    -2
100
AcDbBlockReference
  2
VDDIM_DEFAULT
 10
415.0913597341278
 20
161.9889756605732
 30
0.0
 41
20.0
 42
20.0
 43
20.0
 50
270.0
  0
INSERT
  5
279
330
274
100
AcDbEntity
  8
koty
 62
     0
370
    -2
100
AcDbBlockReference
  2
VDDIM_DEFAULT
 10
415.0913597341278
 20
255.9889756605732
 30
0.0
 41
20.0
 42
20.0
 43
20.0
 50
90.0
  0
MTEXT
  5
27A
330
274
100
AcDbEntity
  8
koty
100
AcDbMText
 10
398.8413597341278
 20
208.9889756605732
 30
0.0
 40
20.0
 41
0.0
 71
     5
 72
     1
  1
\A1;94
 11
0.0
 21
-1.0
 31
0.0
 73
     1
 44
1.0
  0
POINT
  5
27B
330
274
100
AcDbEntity
  8
Defpoints
 62
     0
100
AcDbPoint
 10
346.3473450583999
 20
161.9889756605732
 30
0.0
  0
POINT
  5
27C
330
274
100
AcDbEntity
  8
Defpoints
 62
     0
100
AcDbPoint
 10
346.3473450583999
 20
255.9889756605732
 30
0.0
  0
POINT
  5
27D
330
274
100
AcDbEntity
  8
Defpoints
 62
     0
100
AcDbPoint
 10
415.0913597341278
 20
255.9889756605732
 30
0.0
  0
ENDBLK
  5
27F
330
274
100
AcDbEntity
  8
0
100
AcDbBlockEnd
  0
ENDSEC
  0
SECTION
  2
ENTITIES
  0
LINE
  5
3A
330
207
100
AcDbEntity
  8
0
100
AcDbLine
 10
346.3473450583999
 20
255.9889756605732
 30
0.0
 11
346.3473450583999
 21
161.9889756605732
 31
0.0
  0
LINE
  5
3B
330
207
100
AcDbEntity
  8
0
100
AcDbLine
 10
346.3473450583999
 20
161.9889756605732
 30
0.0
 11
333.6754568587081
 21
161.9889756605732
 31
0.0
  0
ARC
  5
40
330
207
100
AcDbEntity
  8
0
100
AcDbCircle
 10
243.0126343145983
 20
152.9889756605733
 30
0.0
 40
121.0004629382963
100
AcDbArc
 50
184.2655925655593
 51
270.1584914385373
  0
ARC
  5
41
330
207
100
AcDbEntity
  8
0
100
AcDbCircle
 10
238.8473450583998
 20
139.4889756605733
 30
0.0
 40
116.5868774776989
100
AcDbArc
 50
87.78795799795167
 51
177.7879579979517
  0
ARC
  5
45
330
207
100
AcDbEntity
  8
0
100
AcDbCircle
 10
237.5004179835608
 20
132.4330200698717
 30
0.0
 40
100.6140776110163
100
AcDbArc
 50
273.3314730313253
 51
17.08293678217937
  0
LINE
  5
47
330
207
100
AcDbEntity
  8
0
100
AcDbLine
 10
243.3473450583999
 20
255.9889756605732
 30
0.0
 11
346.3473450583999
 21
255.9889756605732
 31
0.0
  0
ARC
  5
48
330
207
100
AcDbEntity
  8
0
100
AcDbCircle
 10
237.5004179835608
 20
132.4330200698717
 30
0.0
 40
95.61407761101636
100
AcDbArc
 50
273.3314730313253
 51
17.08293678217937
  0
ARC
  5
49
330
207
100
AcDbEntity
  8
0
100
AcDbCircle
 10
243.0126343145983
 20
152.9889756605733
 30
0.0
 40
116.0004629382963
100
AcDbArc
 50
184.2655925655593
 51
270.1584914385373
  0
ARC
  5
4A
330
207
100
AcDbEntity
  8
0
100
AcDbCircle
 10
238.8473450583998
 20
139.4889756605733
 30
0.0
 40
111.5868774776989
100
AcDbArc
 50
87.78795799795167
 51
177.7879579979517
  0
LINE
  5
4B
330
207
100
AcDbEntity
  8
0
100
AcDbLine
 10
243.3473450583999
 20
250.9889756605732
 30
0.0
 11
346.3473450583999
 21
250.9889756605732
 31
0.0
  0
LINE
  5
4C
330
207
100
AcDbEntity
  8
0
100
AcDbLine
 10
346.3473450583999
 20
166.9889756605732
 30
0.0
 11
333.6754568587081
 21
166.9889756605732
 31
0.0
  0
LINE
  5
4D
330
207
100
AcDbEntity
  8
0
100
AcDbLine
 10
328.896054156883
 20
160.5201973199832
 30
0.0
 11
333.6754568587081
 21
166.9889756605732
 31
0.0
  0
CIRCLE
  5
4E
330
207
100
AcDbEntity
  8
0
100
AcDbCircle
 10
243.3473450583999
 20
143.9889756605732
 30
0.0
 40
17.89347656860504
  0
CIRCLE
  5
4F
330
207
100
AcDbEntity
  8
0
100
AcDbCircle
 10
243.3473450583999
 20
143.9889756605732
 30
0.0
 40
30.30981420012267
  0
CIRCLE
  5
50
330
207
100
AcDbEntity
  8
0
100
AcDbCircle
 10
243.3473450583999
 20
143.9889756605732
 30
0.0
 40
52.12364240662502
  0
CIRCLE
  5
51
330
207
100
AcDbEntity
  8
0
100
AcDbCircle
 10
243.3473450583999
 20
143.9889756605732
 30
0.0
 40
67.91752124288205
  0
CIRCLE
  5
52
330
207
100
AcDbEntity
  8
0
100
AcDbCircle
 10
243.3473450583999
 20
143.9889756605732
 30
0.0
 40
75.47022434316882
  0
LINE
  5
54
330
207
100
AcDbEntity
  8
0
100
AcDbLine
 10
263.1172553923021
 20
166.9636461094703
 30
0.0
 11
277.8880199201936
 21
183.0250599650417
 31
0.0
  0
LINE
  5
55
330
207
100
AcDbEntity
  8
0
100
AcDbLine
 10
264.5893793563678
 20
165.6098178210884
 30
0.0
 11
279.3601438842594
 21
181.6712316766597
 31
0.0
  0
LINE
  5
56
330
207
100
AcDbEntity
  8
0
100
AcDbLine
 10
243.079487450026
 20
174.2976062655279
 30
0.0
 11
242.1668605582897
 21
196.0992486792278
 31
0.0
  0
LINE
  5
57
330
207
100
AcDbEntity
  8
0
100
AcDbLine
 10
241.0812374490108
 20
174.2139585910668
 30
0.0
 11
240.1686105572745
 21
196.0156010047667
 31
0.0
  0
LINE
  5
58
330
207
100
AcDbEntity
  8
0
100
AcDbLine
 10
221.7265028978848
 20
165.2310099585412
 30
0.0
 11
205.6650890423134
 21
180.0017744864328
 31
0.0
  0
LINE
  5
59
330
207
100
AcDbEntity
  8
0
100
AcDbLine
 10
220.3726746095028
 20
163.7588859944755
 30
0.0
 11
204.3112607539315
 21
178.5296505223669
 31
0.0
  0
LINE
  5
5A
330
207
100
AcDbEntity
  8
0
100
AcDbLine
 10
213.0387144534453
 20
143.7211180521993
 30
0.0
 11
191.2370720397454
 21
142.8084911604631
 31
0.0
  0
LINE
  5
5B
330
207
100
AcDbEntity
  8
0
100
AcDbLine
 10
213.1223621279064
 20
141.7228680511842
 30
0.0
 11
191.3207197142065
 21
140.8102411594479
 31
0.0
  0
LINE
  5
5C
330
207
100
AcDbEntity
  8
0
100
AcDbLine
 10
222.1053107604319
 20
122.3681335000581
 30
0.0
 11
207.3345462325403
 21
106.3067196444868
 31
0.0
  0
LINE
  5
5D
330
207
100
AcDbEntity
  8
0
100
AcDbLine
 10
223.5774347244977
 20
121.0143052116761
 30
0.0
 11
208.8066701966062
 21
104.9528913561048
 31
0.0
  0
LINE
  5
5E
330
207
100
AcDbEntity
  8
0
100
AcDbLine
 10
243.6152026667737
 20
113.6803450556186
 30
0.0
 11
244.52782955851
 21
91.87870264191872
 31
0.0
  0
LINE
  5
5F
330
207
100
AcDbEntity
  8
0
100
AcDbLine
 10
245.6134526677889
 20
113.7639927300797
 30
0.0
 11
246.5260795595252
 21
91.96235031637986
 31
0.0
  0
LINE
  5
60
330
207
100
AcDbEntity
  8
0
100
AcDbLine
 10
264.968187218915
 20
122.7469413626052
 30
0.0
 11
281.0296010744863
 21
107.9761768347136
 31
0.0
  0
LINE
  5
61
330
207
100
AcDbEntity
  8
0
100
AcDbLine
 10
266.3220155072969
 20
124.2190653266709
 30
0.0
 11
282.3834293628683
 21
109.4483007987794
 31
0.0
  0
LINE
  5
62
330
207
100
AcDbEntity
  8
0
100
AcDbLine
 10
273.6559756633545
 20
144.2568332689471
 30
0.0
 11
295.4576180770544
 21
145.1694601606833
 31
0.0
  0
LINE
  5
63
330
207
100
AcDbEntity
  8
0
100
AcDbLine
 10
273.5723279888935
 20
146.2550832699622
 30
0.0
 11
295.3739704025934
 21
147.1677101616985
 31
0.0
  0
LINE
  5
64
330
207
100
AcDbEntity
  8
0
100
AcDbLine
 10
0.1342096083776596
 20
255.9889756605732
 30
0.0
 11
-97.86579039162234
 21
255.9889756605732
 31
0.0
  0
LINE
  5
65
330
207
100
AcDbEntity
  8
0
100
AcDbLine
 10
0.1342096083776596
 20
31.98897566057326
 30
0.0
 11
-97.86579039162234
 21
31.98897566057326
 31
0.0
  0
LINE
  5
69
330
207
100
AcDbEntity
  8
0
100
AcDbLine
 10
0.1342096083776596
 20
196.0156010047667
 30
0.0
 11
-76.52797904998943
 21
196.0156010047667
 31
0.0
  0
LINE
  5
6B
330
207
100
AcDbEntity
  8
0
100
AcDbLine
 10
0.1342096083776596
 20
183.9889756605732
 30
0.0
 11
44.13420960837766
 21
183.9889756605732
 31
0.0
  0
LINE
  5
6C
330
207
100
AcDbEntity
  8
0
100
AcDbLine
 10
0.1342096083776596
 20
103.9889756605732
 30
0.0
 11
44.13420960837766
 21
103.9889756605732
 31
0.0
  0
LINE
  5
6D
330
207
100
AcDbEntity
  8
0
100
AcDbLine
 10
0.1342096083776596
 20
183.9889756605732
 30
0.0
 11
0.1342096083776596
 21
103.9889756605732
 31
0.0
  0
LINE
  5
6E
330
207
100
AcDbEntity
  8
0
100
AcDbLine
 10
0.1342096083776596
 20
183.9889756605732
 30
0.0
 11
0.1342096083776596
 21
255.9889756605732
 31
0.0
  0
LINE
  5
6F
330
207
100
AcDbEntity
  8
0
100
AcDbLine
 10
0.1342096083776596
 20
103.9889756605732
 30
0.0
 11
0.1342096083776596
 21
31.98897566057326
 31
0.0
  0
LINE
  5
70
330
207
100
AcDbEntity
  8
0
100
AcDbLine
 10
49.13420960837766
 20
178.9889756605732
 30
0.0
 11
49.13420960837766
 21
108.9889756605732
 31
0.0
  0
LINE
  5
71
330
207
100
AcDbEntity
  8
0
100
AcDbLine
 10
0.1342096083776596
 20
255.9889756605732
 30
0.0
 11
-97.86579039162234
 21
255.9889756605732
 31
0.0
  0
LINE
  5
72
330
207
100
AcDbEntity
  8
0
100
AcDbLine
 10
-97.86579039162234
 20
255.9889756605732
 30
0.0
 11
-97.86579039162234
 21
31.98897566057326
 31
0.0
  0
LINE
  5
73
330
207
100
AcDbEntity
  8
0
100
AcDbLine
 10
-76.52797904998943
 20
196.0156010047667
 30
0.0
 11
-97.86579039162234
 21
196.0156010047667
 31
0.0
  0
LWPOLYLINE
  5
75
330
207
100
AcDbEntity
  8
0
100
AcDbPolyline
 90
        4
 70
     1
 43
0.0
 10
36.88420960837766
 20
103.9889756605732
 10
12.38420960837766
 20
103.9889756605732
 10
12.38420960837766
 20
83.98897566057327
 10
36.88420960837766
 20
83.98897566057327
  0
LWPOLYLINE
  5
76
330
207
100
AcDbEntity
  8
0
100
AcDbPolyline
 90
        4
 70
     1
 43
0.0
 10
-97.86579039162234
 20
255.9889756605732
 10
-97.86579039162234
 20
255.9889756605732
 10
-97.86579039162234
 20
196.0156010047667
 10
-97.86579039162234
 20
196.0156010047667
  0
LWPOLYLINE
  5
77
330
207
100
AcDbEntity
  8
0
100
AcDbPolyline
 90
        5
 70
     0
 43
0.0
 10
-97.86579039162234
 20
255.9889756605732
 10
-97.86579039162234
 20
196.0156010047667
 10
0.1342096083776596
 20
196.0156010047667
 10
0.1342096083776596
 20
255.9889756605732
 10
-97.86579039162234
 20
255.9889756605732
  0
LWPOLYLINE
  5
78
330
207
100
AcDbEntity
  8
0
100
AcDbPolyline
 90
        4
 70
     1
 43
0.0
 10
-95.86579039162234
 20
254.9889756605733
 10
-95.86579039162234
 20
197.0156010047667
 10
-1.865790391622326
 20
197.0156010047667
 10
-1.86579039162234
 20
254.9889756605733
  0
LWPOLYLINE
  5
79
330
207
100
AcDbEntity
  8
0
100
AcDbPolyline
 90
        2
 70
     0
 43
0.0
 10
-0.8657903916223405
 20
254.9889756605733
 10
-97.86579039162234
 20
254.9889756605733
  0
LINE
  5
7C
330
207
100
AcDbEntity
  8
0
100
AcDbLine
 10
-0.8657903916223405
 20
254.9889756605733
 30
0.0
 11
0.1342096083776595
 21
254.9889756605733
 31
0.0
  0
LINE
  5
7D
330
207
100
AcDbEntity
  8
0
100
AcDbLine
 10
-1.86579039162234
 20
253.9889756605732
 30
0.0
 11
-1.86579039162234
 21
254.9889756605733
 31
0.0
  0
LINE
  5
7E
330
207
100
AcDbEntity
  8
0
100
AcDbLine
 10
-96.86579039162234
 20
197.0156010047667
 30
0.0
 11
-97.86579039162234
 21
197.0156010047667
 31
0.0
  0
LINE
  5
7F
330
207
100
AcDbEntity
  8
0
100
AcDbLine
 10
-95.86579039162234
 20
198.0156010047667
 30
0.0
 11
-95.86579039162234
 21
197.0156010047667
 31
0.0
  0
LINE
  5
80
330
207
100
AcDbEntity
  8
0
100
AcDbLine
 10
-1.865790391622326
 20
198.0156010047667
 30
0.0
 11
-1.865790391622326
 21
197.0156010047667
 31
0.0
  0
LINE
  5
81
330
207
100
AcDbEntity
  8
0
100
AcDbLine
 10
-0.8657903916223261
 20
197.0156010047667
 30
0.0
 11
0.1342096083776596
 21
197.0156010047667
 31
0.0
  0
LWPOLYLINE
  5
82
330
207
100
AcDbEntity
  8
0
100
AcDbPolyline
 90
        2
 70
     0
 43
0.0
 10
-96.86579039162234
 20
197.0156010047667
 10
-0.8657903916223261
 20
197.0156010047667
  0
LINE
  5
8B
330
207
100
AcDbEntity
  8
0
100
AcDbLine
 10
-81.25431020414997
 20
233.6952135721301
 30
0.0
 11
-81.25431020414997
 21
197.0156010047667
 31
0.0
  0
LINE
  5
8C
330
207
100
AcDbEntity
  8
0
100
AcDbLine
 10
-82.25431020414999
 20
233.6952135721301
 30
0.0
 11
-82.25431020414999
 21
197.0156010047667
 31
0.0
  0
LINE
  5
8E
330
207
100
AcDbEntity
  8
0
100
AcDbLine
 10
-82.25431020414999
 20
233.6952135721301
 30
0.0
 11
-81.25431020414997
 21
233.6952135721301
 31
0.0
  0
LINE
  5
8F
330
207
100
AcDbEntity
  8
0
100
AcDbLine
 10
-15.47727057909469
 20
233.6952135721301
 30
0.0
 11
-15.47727057909469
 21
197.0156010047667
 31
0.0
  0
LINE
  5
90
330
207
100
AcDbEntity
  8
0
100
AcDbLine
 10
-16.47727057909469
 20
233.6952135721301
 30
0.0
 11
-16.47727057909469
 21
197.0156010047667
 31
0.0
  0
LINE
  5
91
330
207
100
AcDbEntity
  8
0
100
AcDbLine
 10
-15.47727057909467
 20
233.6952135721301
 30
0.0
 11
-16.47727057909469
 21
233.6952135721301
 31
0.0
  0
LWPOLYLINE
  5
92
330
207
100
AcDbEntity
  8
0
100
AcDbPolyline
 90
        4
 70
     1
 43
0.0
 10
-81.25431020414997
 20
197.0156010047667
 10
-16.47727057909469
 20
197.0156010047667
 10
-16.47727057909469
 20
201.416802644235
 10
-81.25431020414997
 20
201.416802644235
  0
LWPOLYLINE
  5
93
330
207
100
AcDbEntity
  8
0
100
AcDbPolyline
 90
        4
 70
     1
 43
0.0
 10
-81.25431020414997
 20
201.416802644235
 10
-16.47727057909469
 20
201.416802644235
 10
-16.47727057909469
 20
205.8180042837034
 10
-81.25431020414997
 20
205.8180042837034
  0
LWPOLYLINE
  5
94
330
207
100
AcDbEntity
  8
0
100
AcDbPolyline
 90
        4
 70
     1
 43
0.0
 10
-81.25431020414997
 20
205.8180042837034
 10
-16.47727057909469
 20
205.8180042837034
 10
-16.47727057909469
 20
210.2192059231717
 10
-81.25431020414997
 20
210.2192059231717
  0
LWPOLYLINE
  5
95
330
207
100
AcDbEntity
  8
0
100
AcDbPolyline
 90
        4
 70
     1
 43
0.0
 10
-81.25431020414997
 20
210.2192059231717
 10
-16.47727057909469
 20
210.2192059231717
 10
-16.47727057909469
 20
214.6204075626401
 10
-81.25431020414997
 20
214.6204075626401
  0
LWPOLYLINE
  5
96
330
207
100
AcDbEntity
  8
0
100
AcDbPolyline
 90
        4
 70
     1
 43
0.0
 10
-81.25431020414997
 20
214.6204075626401
 10
-16.47727057909469
 20
214.6204075626401
 10
-16.47727057909469
 20
219.0216092021084
 10
-81.25431020414997
 20
219.0216092021084
  0
LWPOLYLINE
  5
97
330
207
100
AcDbEntity
  8
0
100
AcDbPolyline
 90
        4
 70
     1
 43
0.0
 10
-81.25431020414997
 20
219.0216092021084
 10
-16.47727057909469
 20
219.0216092021084
 10
-16.47727057909469
 20
223.4228108415768
 10
-81.25431020414997
 20
223.4228108415768
  0
LWPOLYLINE
  5
98
330
207
100
AcDbEntity
  8
0
100
AcDbPolyline
 90
        4
 70
     1
 43
0.0
 10
-81.25431020414997
 20
223.4228108415768
 10
-16.47727057909469
 20
223.4228108415768
 10
-16.47727057909469
 20
227.8240124810452
 10
-81.25431020414997
 20
227.8240124810452
  0
LWPOLYLINE
  5
99
330
207
100
AcDbEntity
  8
0
100
AcDbPolyline
 90
        4
 70
     1
 43
0.0
 10
-81.25431020414997
 20
227.8240124810452
 10
-16.47727057909469
 20
227.8240124810452
 10
-16.47727057909469
 20
232.2252141205135
 10
-81.25431020414997
 20
232.2252141205135
  0
LINE
  5
9A
330
207
100
AcDbEntity
  8
0
100
AcDbLine
 10
-95.86579039162234
 20
222.9656667553345
 30
0.0
 11
-87.38121840908092
 21
217.4645864924605
 31
0.0
  0
LINE
  5
9B
330
207
100
AcDbEntity
  8
0
100
AcDbLine
 10
-87.38121840908092
 20
217.4645864924605
 30
0.0
 11
-87.38121840908092
 21
197.0156010047667
 31
0.0
  0
LINE
  5
9C
330
207
100
AcDbEntity
  8
0
100
AcDbLine
 10
-12.0528528467239
 20
210.2192059231717
 30
0.0
 11
-1.86579039162233
 21
210.2192059231717
 31
0.0
  0
LINE
  5
9D
330
207
100
AcDbEntity
  8
0
100
AcDbLine
 10
-4.156656889192618
 20
209.2192059231718
 30
0.0
 11
-1.865790391622329
 21
209.2192059231718
 31
0.0
  0
LINE
  5
9F
330
207
100
AcDbEntity
  8
0
100
AcDbLine
 10
-4.156656889192618
 20
197.0156010047667
 30
0.0
 11
-4.156656889192618
 21
209.2192059231718
 31
0.0
  0
LINE
  5
A0
330
207
100
AcDbEntity
  8
0
100
AcDbLine
 10
-12.0528528467239
 20
209.2192059231717
 30
0.0
 11
-12.0528528467239
 21
197.0156010047667
 31
0.0
  0
LINE
  5
A3
330
207
100
AcDbEntity
  8
0
100
AcDbLine
 10
-12.0528528467239
 20
210.2192059231717
 30
0.0
 11
-15.47727057909469
 21
210.2192059231717
 31
0.0
  0
LINE
  5
A5
330
207
100
AcDbEntity
  8
0
100
AcDbLine
 10
-12.0528528467239
 20
209.2192059231717
 30
0.0
 11
-15.47727057909469
 21
209.2192059231717
 31
0.0
  0
ARC
  5
A6
330
207
100
AcDbEntity
  8
0
100
AcDbCircle
 10
44.13420960837766
 20
178.9889756605732
 30
0.0
 40
5.0
100
AcDbArc
 50
0.0
 51
90.0
  0
ARC
  5
A7
330
207
100
AcDbEntity
  8
0
100
AcDbCircle
 10
44.13420960837766
 20
108.9889756605732
 30
0.0
 40
5.0
100
AcDbArc
 50
270.0
 51
0.0
  0
DIMENSION
  5
A8
330
207
100
AcDbEntity
  8
koty
100
AcDbDimension
  2
*D3
 10
0.1342096083776596
 20
-17.50833501165482
 30
0.0
 11
-48.86579039162235
 21
-1.258335011654822
 31
0.0
 70
    32
 71
     0
 42
98.0
  3
ISO-25
100
AcDbAlignedDimension
 13
-97.86579039162234
 23
31.98897566057326
 33
0.0
 14
0.1342096083776596
 24
31.98897566057326
 34
0.0
100
AcDbRotatedDimension
  0
DIMENSION
  5
C1
330
207
100
AcDbEntity
  8
koty
100
AcDbDimension
  2
*D4
 10
49.13420960837766
 20
-17.50833501165488
 30
0.0
 11
111.0984953226634
 21
-1.258335011654882
 31
0.0
 70
    32
 71
     0
 42
49.0
  3
ISO-25
100
AcDbAlignedDimension
 13
0.1342096083776596
 23
103.9889756605732
 33
0.0
 14
49.13420960837766
 24
108.9889756605732
 34
0.0
100
AcDbRotatedDimension
  0
DIMENSION
  5
DD
330
207
100
AcDbEntity
  8
koty
100
AcDbDimension
  2
*D5
 10
92.36115101417454
 20
183.9889756605732
 30
0.0
 11
76.11115101417454
 21
133.9889756605732
 31
0.0
 70
    32
 71
     0
 42
99.99999999999992
  3
ISO-25
100
AcDbAlignedDimension
 13
36.88420960837766
 23
83.98897566057327
 33
0.0
 14
36.88420960837765
 24
183.9889756605732
 34
0.0
 50
90.0
100
AcDbRotatedDimension
  0
DIMENSION
  5
F5
330
207
100
AcDbEntity
  8
koty
100
AcDbDimension
  2
*D6
 10
-135.3473083789477
 20
31.98897566057326
 30
0.0
 11
-151.5973083789477
 21
143.9889756605732
 31
0.0
 70
    32
 71
     0
 42
223.9999999999999
  3
ISO-25
100
AcDbAlignedDimension
 13
-97.86579039162234
 23
255.9889756605732
 33
0.0
 14
-97.86579039162234
 24
31.98897566057326
 34
0.0
 50
90.0
100
AcDbRotatedDimension
  0
DIMENSION
  5
10D
330
207
100
AcDbEntity
  8
koty
100
AcDbDimension
  2
*D7
 10
346.3473450583999
 20
-14.58225645265421
 30
0.0
 11
234.3473450583999
 21
1.667743547345793
 31
0.0
 70
    32
 71
     0
 42
224.0
  3
ISO-25
100
AcDbAlignedDimension
 13
122.3473450583999
 23
143.9889756605731
 33
0.0
 14
346.3473450583999
 24
161.9889756605732
 34
0.0
100
AcDbRotatedDimension
  0
DIMENSION
  5
125
330
207
100
AcDbEntity
  8
koty
100
AcDbDimension
  2
*D8
 10
415.0913597341278
 20
255.9889756605732
 30
0.0
 11
398.8413597341278
 21
208.9889756605732
 31
0.0
 70
    32
 71
     0
 42
94.0
  3
ISO-25
100
AcDbAlignedDimension
 13
346.3473450583999
 23
161.9889756605732
 33
0.0
 14
346.3473450583999
 24
255.9889756605732
 34
0.0
 50
90.0
100
AcDbRotatedDimension
  0
TEXT
  5
13D
330
207
100
AcDbEntity
  8
popis
100
AcDbText
 10
-177.4983002929072
 20
304.4456239164875
 30
0.0
 40
15.0
  1
CBM/2 140/059 - speciální radiální ventilátor
100
AcDbText
  0
VIEWPORT
  5
280
330
203
100
AcDbEntity
 67
     1
  8
0
 60
     1
100
AcDbViewport
 10
0.0
 20
0.0
 30
0.0
 40
10.0
 41
10.0
 69
     1
 12
0.0
 22
0.0
 13
0.0
 23
0.0
 14
1.0
 24
1.0
 15
0.0
 25
0.0
 16
0.0
 26
0.0
 36
1.0
 17
0.0
 27
0.0
 37
0.0
 42
0.0
 43
0.0
 44
0.0
 45
10.0
 50
0.0
 51
0.0000000000007958
 72
   100
 90
   163872
  1

281
     0
 71
     0
 74
     0
110
0.0
120
0.0
130
0.0
111
1.0
121
0.0
131
0.0
112
0.0
122
1.0
132
0.0
 79
     0
146
0.0
1001
VD_INVISIBLE_NOT_FOR_READ
1000
VD_INVISIBLE_NOT_FOR_READ
  0
VIEWPORT
  5
281
330
203
100
AcDbEntity
 67
     1
  8
0
 60
     1
100
AcDbViewport
 10
0.0
 20
0.0
 30
0.0
 40
10.0
 41
10.0
 69
     2
 12
0.0
 22
0.0
 13
0.0
 23
0.0
 14
1.0
 24
1.0
 15
0.0
 25
0.0
 16
0.0
 26
0.0
 36
1.0
 17
0.0
 27
0.0
 37
0.0
 42
0.0
 43
0.0
 44
0.0
 45
10.0
 50
0.0
 51
0.0000000000007958
 72
   100
 90
   163872
  1

281
     0
 71
     0
 74
     0
110
0.0
120
0.0
130
0.0
111
1.0
121
0.0
131
0.0
112
0.0
122
1.0
132
0.0
 79
     0
146
0.0
1001
VD_INVISIBLE_NOT_FOR_READ
1000
VD_INVISIBLE_NOT_FOR_READ
  0
ENDSEC
  0
SECTION
  2
OBJECTS
  0
DICTIONARY
  5
1F4
330
0
100
AcDbDictionary
281
     1
  3
ACAD_GROUP
350
1F5
  3
ACAD_LAYOUT
350
202
  3
ACAD_MLINESTYLE
350
1FF
  3
ACAD_PLOTSETTINGS
350
201
  3
ACAD_PLOTSTYLENAME
350
1F6
  3
VECTORDRAW_OBJECTS
350
217
  0
DICTIONARY
  5
1F5
102
{ACAD_REACTORS
330
1F4
102
}
330
1F4
100
AcDbDictionary
281
     1
  0
DICTIONARY
  5
202
102
{ACAD_REACTORS
330
1F4
102
}
330
1F4
100
AcDbDictionary
281
     1
  3
Model
350
20A
  3
Rozvržení1
350
206
  3
Rozvržení2
350
20E
  0
DICTIONARY
  5
1FF
102
{ACAD_REACTORS
330
1F4
102
}
330
1F4
100
AcDbDictionary
281
     1
  3
Standard
350
200
  0
DICTIONARY
  5
201
102
{ACAD_REACTORS
330
1F4
102
}
330
1F4
100
AcDbDictionary
281
     1
  0
ACDBDICTIONARYWDFLT
  5
1F6
102
{ACAD_REACTORS
330
1F4
102
}
330
1F4
100
AcDbDictionary
281
     1
  3
Normal
350
1F7
100
AcDbDictionaryWithDefault
340
1F7
  0
DICTIONARY
  5
217
102
{ACAD_REACTORS
330
1F4
102
}
330
1F4
100
AcDbDictionary
281
     1
  3
SERIALNO
350
218
  0
LAYOUT
  5
20A
102
{ACAD_REACTORS
330
202
102
}
330
202
100
AcDbPlotSettings
  1
VectorDraw Printer Drawing
  2

  4

  6

 40
0.0
 41
0.0
 42
0.0
 43
0.0
 44
0.0
 45
0.0
 46
0.0
 47
0.0
 48
0.0
 49
0.0
140
0.0
141
0.0
142
1.0
143
1.0
 70
  1712
 72
     0
 73
     0
 74
     0
  7

 75
     0
147
1.0
148
0.0
149
0.0
100
AcDbLayout
  1
Model
 70
     1
 71
     0
 10
0.0
 20
0.0
 11
12.0
 21
9.0
 12
0.0
 22
0.0
 32
0.0
 14
-177.4983002929073
 24
-30.00833501165482
 34
0.0
 15
427.5913597341278
 25
319.4456239164875
 35
0.0
146
0.0
 13
0.0
 23
0.0
 33
0.0
 16
1.0
 26
0.0
 36
0.0
 17
0.0
 27
1.0
 37
0.0
 76
     0
330
207
  0
LAYOUT
  5
206
102
{ACAD_REACTORS
330
202
102
}
330
202
100
AcDbPlotSettings
  1
VectorDraw Printer Drawing
  2

  4

  6

 40
0.0
 41
0.0
 42
0.0
 43
0.0
 44
0.0
 45
0.0
 46
0.0
 47
0.0
 48
0.0
 49
0.0
140
0.0
141
0.0
142
1.0
143
1.0
 70
   688
 72
     0
 73
     0
 74
     5
  7

 75
    16
147
1.0
148
0.0
149
0.0
100
AcDbLayout
  1
Rozvržení1
 70
     1
 71
     1
 10
0.0
 20
0.0
 11
12.0
 21
9.0
 12
0.0
 22
0.0
 32
0.0
 14
1.000000000000000E+20
 24
1.000000000000000E+20
 34
1.000000000000000E+20
 15
-1.000000000000000E+20
 25
-1.000000000000000E+20
 35
-1.000000000000000E+20
146
0.0
 13
0.0
 23
0.0
 33
0.0
 16
1.0
 26
0.0
 36
0.0
 17
0.0
 27
1.0
 37
0.0
 76
     0
330
203
331
280
  0
LAYOUT
  5
20E
102
{ACAD_REACTORS
330
202
102
}
330
202
100
AcDbPlotSettings
  1
VectorDraw Printer Drawing
  2

  4

  6

 40
0.0
 41
0.0
 42
0.0
 43
0.0
 44
0.0
 45
0.0
 46
0.0
 47
0.0
 48
0.0
 49
0.0
140
0.0
141
0.0
142
1.0
143
1.0
 70
   688
 72
     0
 73
     0
 74
     5
  7

 75
    16
147
1.0
148
0.0
149
0.0
100
AcDbLayout
  1
Rozvržení2
 70
     1
 71
     2
 10
0.0
 20
0.0
 11
12.0
 21
9.0
 12
0.0
 22
0.0
 32
0.0
 14
0.0
 24
0.0
 34
0.0
 15
0.0
 25
0.0
 35
0.0
146
0.0
 13
0.0
 23
0.0
 33
0.0
 16
1.0
 26
0.0
 36
0.0
 17
0.0
 27
1.0
 37
0.0
 76
     0
330
20B
331
282
  0
MLINESTYLE
  5
200
102
{ACAD_REACTORS
330
1FF
102
}
330
1FF
100
AcDbMlineStyle
  2
Standard
 70
     0
  3

 62
   256
 51
90.0
 52
90.0
 71
     2
 49
0.5
 62
   256
  6
BYLAYER
 49
-0.5
 62
   256
  6
BYLAYER
  0
ACDBPLACEHOLDER
  5
1F7
102
{ACAD_REACTORS
330
1F6
102
}
330
1F6
  0
XRECORD
  5
218
102
{ACAD_REACTORS
330
217
102
}
330
217
100
AcDbXrecord
280
     1
1000
rInJVR9YY4Q8hfPWdUq5j5319
1070
     4
1070
     6
  0
ENDSEC
  0
EOF
