  0
SECTION
  2
HEADER
  9
$ACADVER
  1
AC1014
  9
$ACADMAINTVER
 70
     0
  9
$DWGCODEPAGE
  3
ANSI_1250
  9
$INSBASE
 10
0.0
 20
0.0
 30
0.0
  9
$EXTMIN
 10
88.255173
 20
-1530.998366
 30
0.0
  9
$EXTMAX
 10
1368.183213
 20
-336.750532
 30
0.0
  9
$LIMMIN
 10
0.0
 20
0.0
  9
$LIMMAX
 10
420.0
 20
297.0
  9
$ORTHOMODE
 70
     0
  9
$REGENMODE
 70
     1
  9
$FILLMODE
 70
     1
  9
$QTEXTMODE
 70
     0
  9
$MIRRTEXT
 70
     1
  9
$DRAGMODE
 70
     2
  9
$LTSCALE
 40
1.0
  9
$OSMODE
 70
    36
  9
$ATTMODE
 70
     1
  9
$TEXTSIZE
 40
20.0
  9
$TRACEWID
 40
1.0
  9
$TEXTSTYLE
  7
ED30
  9
$CLAYER
  8
V0-VYPLNE
  9
$CELTYPE
  6
CONTINUOUS
  9
$CECOLOR
 62
    41
  9
$CELTSCALE
 40
3.0
  9
$DELOBJ
 70
     1
  9
$DISPSILH
 70
     0
  9
$DIMSCALE
 40
1.0
  9
$DIMASZ
 40
25.0
  9
$DIMEXO
 40
1.0
  9
$DIMDLI
 40
3.75
  9
$DIMRND
 40
0.0
  9
$DIMDLE
 40
0.0
  9
$DIMEXE
 40
1.25
  9
$DIMTP
 40
0.0
  9
$DIMTM
 40
0.0
  9
$DIMTXT
 40
30.0
  9
$DIMCEN
 40
3.0
  9
$DIMTSZ
 40
0.0
  9
$DIMTOL
 70
     0
  9
$DIMLIM
 70
     0
  9
$DIMTIH
 70
     0
  9
$DIMTOH
 70
     0
  9
$DIMSE1
 70
     0
  9
$DIMSE2
 70
     0
  9
$DIMTAD
 70
     1
  9
$DIMZIN
 70
     8
  9
$DIMBLK
  1

  9
$DIMASO
 70
     1
  9
$DIMSHO
 70
     1
  9
$DIMPOST
  1

  9
$DIMAPOST
  1

  9
$DIMALT
 70
     0
  9
$DIMALTD
 70
     4
  9
$DIMALTF
 40
0.0394
  9
$DIMLFAC
 40
1.0
  9
$DIMTOFL
 70
     1
  9
$DIMTVP
 40
0.0
  9
$DIMTIX
 70
     0
  9
$DIMSOXD
 70
     0
  9
$DIMSAH
 70
     1
  9
$DIMBLK1
  1
_OPEN
  9
$DIMBLK2
  1
_OPEN
  9
$DIMSTYLE
  2
ED30
  9
$DIMCLRD
 70
     0
  9
$DIMCLRE
 70
     0
  9
$DIMCLRT
 70
     0
  9
$DIMTFAC
 40
1.0
  9
$DIMGAP
 40
4.0
  9
$DIMJUST
 70
     0
  9
$DIMSD1
 70
     0
  9
$DIMSD2
 70
     0
  9
$DIMTOLJ
 70
     1
  9
$DIMTZIN
 70
     8
  9
$DIMALTZ
 70
     0
  9
$DIMALTTZ
 70
     0
  9
$DIMFIT
 70
     3
  9
$DIMUPT
 70
     0
  9
$DIMUNIT
 70
     2
  9
$DIMDEC
 70
     0
  9
$DIMTDEC
 70
     1
  9
$DIMALTU
 70
     8
  9
$DIMALTTD
 70
     4
  9
$DIMTXSTY
  7
ED30
  9
$DIMAUNIT
 70
     0
  9
$LUNITS
 70
     2
  9
$LUPREC
 70
     4
  9
$SKETCHINC
 40
1.0
  9
$FILLETRAD
 40
0.0
  9
$AUNITS
 70
     0
  9
$AUPREC
 70
     0
  9
$MENU
  1
.
  9
$ELEVATION
 40
0.0
  9
$PELEVATION
 40
0.0
  9
$THICKNESS
 40
0.0
  9
$LIMCHECK
 70
     0
  9
$BLIPMODE
 70
     0
  9
$CHAMFERA
 40
10.0
  9
$CHAMFERB
 40
10.0
  9
$CHAMFERC
 40
20.0
  9
$CHAMFERD
 40
0.0
  9
$SKPOLY
 70
     1
  9
$TDCREATE
 40
2451196.643769328
  9
$TDUPDATE
 40
2452915.647086458
  9
$TDINDWG
 40
0.2542489583
  9
$TDUSRTIMER
 40
0.2542489583
  9
$USRTIMER
 70
     1
  9
$ANGBASE
 50
0.0
  9
$ANGDIR
 70
     0
  9
$PDMODE
 70
     3
  9
$PDSIZE
 40
20.0
  9
$PLINEWID
 40
0.0
  9
$COORDS
 70
     1
  9
$SPLFRAME
 70
     0
  9
$SPLINETYPE
 70
     6
  9
$SPLINESEGS
 70
     8
  9
$ATTDIA
 70
     0
  9
$ATTREQ
 70
     1
  9
$HANDLING
 70
     1
  9
$HANDSEED
  5
1544
  9
$SURFTAB1
 70
     6
  9
$SURFTAB2
 70
     6
  9
$SURFTYPE
 70
     6
  9
$SURFU
 70
     6
  9
$SURFV
 70
     6
  9
$UCSNAME
  2

  9
$UCSORG
 10
913.1832125521595
 20
-860.8362015275439
 30
0.0
  9
$UCSXDIR
 10
1.0
 20
0.0
 30
0.0
  9
$UCSYDIR
 10
0.0
 20
1.0
 30
0.0
  9
$PUCSNAME
  2

  9
$PUCSORG
 10
0.0
 20
0.0
 30
0.0
  9
$PUCSXDIR
 10
1.0
 20
0.0
 30
0.0
  9
$PUCSYDIR
 10
0.0
 20
1.0
 30
0.0
  9
$USERI1
 70
     0
  9
$USERI2
 70
     0
  9
$USERI3
 70
     0
  9
$USERI4
 70
     0
  9
$USERI5
 70
     0
  9
$USERR1
 40
0.0
  9
$USERR2
 40
0.0
  9
$USERR3
 40
0.0
  9
$USERR4
 40
0.0
  9
$USERR5
 40
0.0
  9
$WORLDVIEW
 70
     1
  9
$SHADEDGE
 70
     3
  9
$SHADEDIF
 70
    70
  9
$TILEMODE
 70
     1
  9
$MAXACTVP
 70
    48
  9
$PINSBASE
 10
0.0
 20
0.0
 30
0.0
  9
$PLIMCHECK
 70
     0
  9
$PEXTMIN
 10
1.000000E+20
 20
1.000000E+20
 30
1.000000E+20
  9
$PEXTMAX
 10
-1.000000E+20
 20
-1.000000E+20
 30
-1.000000E+20
  9
$PLIMMIN
 10
0.0
 20
0.0
  9
$PLIMMAX
 10
420.0
 20
297.0
  9
$UNITMODE
 70
     0
  9
$VISRETAIN
 70
     1
  9
$PLINEGEN
 70
     0
  9
$PSLTSCALE
 70
     0
  9
$TREEDEPTH
 70
  3020
  9
$PICKSTYLE
 70
     1
  9
$CMLSTYLE
  2
STANDARD
  9
$CMLJUST
 70
     0
  9
$CMLSCALE
 40
1.0
  9
$PROXYGRAPHICS
 70
     1
  9
$MEASUREMENT
 70
     1
  0
ENDSEC
  0
SECTION
  2
CLASSES
  0
CLASS
  1
DICTIONARYVAR
  2
AcDbDictionaryVar
  3
"AutoCAD"
 90
        0
280
     0
281
     0
  0
CLASS
  1
LWPOLYLINE
  2
AcDbPolyline
  3
"AutoCAD"
 90
        0
280
     0
281
     1
  0
CLASS
  1
HATCH
  2
AcDbHatch
  3
"ACAD_SEDONA"
 90
        0
280
     0
281
     1
  0
ENDSEC
  0
SECTION
  2
TABLES
  0
TABLE
  2
VPORT
  5
8
100
AcDbSymbolTable
 70
     2
  0
VPORT
  5
1543
100
AcDbSymbolTableRecord
100
AcDbViewportTableRecord
  2
*ACTIVE
 70
     0
 10
0.0
 20
0.0
 11
1.0
 21
1.0
 12
679.527315
 22
-931.440359
 13
0.0
 23
0.0
 14
10.0
 24
10.0
 15
10.0
 25
10.0
 16
0.0
 26
0.0
 36
1.0
 17
0.0
 27
0.0
 37
0.0
 40
1300.194164
 41
1.730469
 42
50.0
 43
0.0
 44
0.0
 50
0.0
 51
0.0
 71
     0
 72
   100
 73
     1
 74
     1
 75
     0
 76
     0
 77
     0
 78
     0
  0
ENDTAB
  0
TABLE
  2
LTYPE
  5
5
100
AcDbSymbolTable
 70
     3
  0
LTYPE
  5
14
100
AcDbSymbolTableRecord
100
AcDbLinetypeTableRecord
  2
BYBLOCK
 70
     0
  3

 72
    65
 73
     0
 40
0.0
  0
LTYPE
  5
15
100
AcDbSymbolTableRecord
100
AcDbLinetypeTableRecord
  2
BYLAYER
 70
     0
  3

 72
    65
 73
     0
 40
0.0
  0
LTYPE
  5
16
100
AcDbSymbolTableRecord
100
AcDbLinetypeTableRecord
  2
CONTINUOUS
 70
     0
  3
Solid line
 72
    65
 73
     0
 40
0.0
  0
LTYPE
  5
7F
100
AcDbSymbolTableRecord
100
AcDbLinetypeTableRecord
  2
DASHDOT
 70
     0
  3
Dash dot __ . __ . __ . __ . __ . __ . __ . __
 72
    65
 73
     4
 40
25.4
 49
12.7
 74
     0
 49
-6.35
 74
     0
 49
0.0
 74
     0
 49
-6.35
 74
     0
  0
LTYPE
  5
80
100
AcDbSymbolTableRecord
100
AcDbLinetypeTableRecord
  2
DASHED
 70
     0
  3
Dashed __ __ __ __ __ __ __ __ __ __ __ __ __ _
 72
    65
 73
     2
 40
19.05
 49
12.7
 74
     0
 49
-6.35
 74
     0
  0
ENDTAB
  0
TABLE
  2
LAYER
  5
2
100
AcDbSymbolTable
 70
     6
  0
LAYER
  5
F
100
AcDbSymbolTableRecord
100
AcDbLayerTableRecord
  2
0
 70
     0
 62
     7
  6
CONTINUOUS
  0
LAYER
  5
9E
100
AcDbSymbolTableRecord
100
AcDbLayerTableRecord
  2
DEFPOINTS
 70
     0
 62
     7
  6
CONTINUOUS
  0
LAYER
  5
377
100
AcDbSymbolTableRecord
100
AcDbLayerTableRecord
  2
V0-OBRYS
 70
     0
 62
    90
  6
CONTINUOUS
  0
LAYER
  5
378
100
AcDbSymbolTableRecord
100
AcDbLayerTableRecord
  2
V0-VYPLNE
 70
     0
 62
    63
  6
DASHDOT
  0
LAYER
  5
37A
100
AcDbSymbolTableRecord
100
AcDbLayerTableRecord
  2
V0-NAZVY
 70
     0
 62
   210
  6
CONTINUOUS
  0
LAYER
  5
559
100
AcDbSymbolTableRecord
100
AcDbLayerTableRecord
  2
V0-ZBYTEK
 70
     0
 62
    51
  6
CONTINUOUS
  0
ENDTAB
  0
TABLE
  2
STYLE
  5
3
100
AcDbSymbolTable
 70
     5
  0
STYLE
  5
10
100
AcDbSymbolTableRecord
100
AcDbTextStyleTableRecord
  2
STANDARD
 70
     0
 40
7.0
 41
1.0
 50
0.0
 71
     0
 42
20.0
  3
ISOCP.shx
  4

  0
STYLE
  5
331
100
AcDbSymbolTableRecord
100
AcDbTextStyleTableRecord
  2
ED30
 70
     0
 40
30.0
 41
1.0
 50
0.0
 71
     0
 42
2.5
  3
ISOCP.shx
  4

  0
STYLE
  5
5D2
100
AcDbSymbolTableRecord
100
AcDbTextStyleTableRecord
  2
ED20
 70
     0
 40
20.0
 41
1.0
 50
0.0
 71
     0
 42
20.0
  3
isocp.shx
  4

  0
STYLE
  5
64F
100
AcDbSymbolTableRecord
100
AcDbTextStyleTableRecord
  2
ED40
 70
     0
 40
40.0
 41
1.0
 50
0.0
 71
     0
 42
20.0
  3
isocp.shx
  4

  0
STYLE
  5
650
100
AcDbSymbolTableRecord
100
AcDbTextStyleTableRecord
  2
ED10
 70
     0
 40
10.0
 41
1.0
 50
0.0
 71
     0
 42
20.0
  3
isocp.shx
  4

  0
ENDTAB
  0
TABLE
  2
VIEW
  5
6
100
AcDbSymbolTable
 70
     0
  0
ENDTAB
  0
TABLE
  2
UCS
  5
7
100
AcDbSymbolTable
 70
     0
  0
ENDTAB
  0
TABLE
  2
APPID
  5
9
100
AcDbSymbolTable
 70
     3
  0
APPID
  5
11
100
AcDbSymbolTableRecord
100
AcDbRegAppTableRecord
  2
ACAD
 70
     0
  0
APPID
  5
FAA
100
AcDbSymbolTableRecord
100
AcDbRegAppTableRecord
  2
CONTENTBLOCKICON
 70
     0
  0
APPID
  5
FAB
100
AcDbSymbolTableRecord
100
AcDbRegAppTableRecord
  2
CONTENTBLOCKDESCRIPTION
 70
     0
  0
ENDTAB
  0
TABLE
  2
DIMSTYLE
  5
A
100
AcDbSymbolTable
 70
     5
  0
DIMSTYLE
105
1D
100
AcDbSymbolTableRecord
100
AcDbDimStyleTableRecord
  2
STANDARD
 70
     0
  3

  4

  5

  6
_OPEN
  7
_OPEN
 40
0.0
 41
15.0
 42
0.625
 43
3.75
 44
1.25
 45
0.0
 46
0.0
 47
0.0
 48
0.0
140
15.0
141
2.5
142
0.0
143
0.0394
144
1.0
145
0.0
146
1.0
147
3.0
 71
     0
 72
     0
 73
     0
 74
     0
 75
     0
 76
     0
 77
     1
 78
     8
170
     0
171
     4
172
     1
173
     1
174
     0
175
     0
176
     0
177
     0
178
     0
270
     2
271
     0
272
     1
273
     8
274
     4
340
331
275
     0
280
     0
281
     0
282
     0
283
     1
284
     8
285
     0
286
     0
287
     3
288
     0
  0
DIMSTYLE
105
397
100
AcDbSymbolTableRecord
100
AcDbDimStyleTableRecord
  2
ED40
 70
     0
  3

  4

  5

  6
_OPEN
  7
_OPEN
 40
0.0
 41
35.0
 42
1.0
 43
3.75
 44
1.25
 45
0.0
 46
0.0
 47
0.0
 48
0.0
140
40.0
141
3.0
142
0.0
143
0.0394
144
1.0
145
0.0
146
1.0
147
4.0
 71
     0
 72
     0
 73
     0
 74
     0
 75
     0
 76
     0
 77
     1
 78
     8
170
     0
171
     4
172
     1
173
     1
174
     0
175
     0
176
     0
177
     0
178
     0
270
     2
271
     0
272
     1
273
     8
274
     4
340
64F
275
     0
280
     0
281
     0
282
     0
283
     1
284
     8
285
     0
286
     0
287
     3
288
     0
  0
DIMSTYLE
105
656
102
{ACAD_REACTORS
330
1160
330
1162
330
1165
330
133B
330
13A2
330
13BC
330
13D6
330
13E3
330
13FB
330
1408
330
1426
102
}
100
AcDbSymbolTableRecord
100
AcDbDimStyleTableRecord
  2
ED30
 70
     0
  3

  4

  5

  6
_OPEN
  7
_OPEN
 40
0.0
 41
25.0
 42
1.0
 43
3.75
 44
1.25
 45
0.0
 46
0.0
 47
0.0
 48
0.0
140
30.0
141
3.0
142
0.0
143
0.0394
144
1.0
145
0.0
146
1.0
147
4.0
 71
     0
 72
     0
 73
     0
 74
     0
 75
     0
 76
     0
 77
     1
 78
     8
170
     0
171
     4
172
     1
173
     1
174
     0
175
     0
176
     0
177
     0
178
     0
270
     2
271
     0
272
     1
273
     8
274
     4
340
331
275
     0
280
     0
281
     0
282
     0
283
     1
284
     8
285
     0
286
     0
287
     3
288
     0
  0
DIMSTYLE
105
657
100
AcDbSymbolTableRecord
100
AcDbDimStyleTableRecord
  2
ED20
 70
     0
  3

  4

  5

  6
_OPEN
  7
_OPEN
 40
0.0
 41
20.0
 42
1.0
 43
3.75
 44
1.25
 45
0.0
 46
0.0
 47
0.0
 48
0.0
140
20.0
141
3.0
142
0.0
143
0.0394
144
1.0
145
0.0
146
1.0
147
2.0
 71
     0
 72
     0
 73
     0
 74
     0
 75
     0
 76
     0
 77
     1
 78
     8
170
     0
171
     4
172
     1
173
     1
174
     0
175
     0
176
     0
177
     0
178
     0
270
     2
271
     0
272
     1
273
     8
274
     4
340
5D2
275
     0
280
     0
281
     0
282
     0
283
     1
284
     8
285
     0
286
     0
287
     3
288
     0
  0
DIMSTYLE
105
658
100
AcDbSymbolTableRecord
100
AcDbDimStyleTableRecord
  2
ED10
 70
     0
  3

  4

  5

  6
_OPEN
  7
_OPEN
 40
0.0
 41
15.0
 42
1.0
 43
3.75
 44
1.25
 45
0.0
 46
0.0
 47
0.0
 48
0.0
140
10.0
141
3.0
142
0.0
143
0.0394
144
1.0
145
0.0
146
1.0
147
1.5
 71
     0
 72
     0
 73
     0
 74
     0
 75
     0
 76
     0
 77
     1
 78
     8
170
     0
171
     4
172
     1
173
     1
174
     0
175
     0
176
     0
177
     0
178
     0
270
     2
271
     0
272
     1
273
     8
274
     4
340
5D2
275
     0
280
     0
281
     0
282
     0
283
     1
284
     8
285
     0
286
     0
287
     3
288
     0
  0
ENDTAB
  0
TABLE
  2
BLOCK_RECORD
  5
1
100
AcDbSymbolTable
 70
    12
  0
BLOCK_RECORD
  5
1A
100
AcDbSymbolTableRecord
100
AcDbBlockTableRecord
  2
*MODEL_SPACE
  0
BLOCK_RECORD
  5
17
100
AcDbSymbolTableRecord
100
AcDbBlockTableRecord
  2
*PAPER_SPACE
  0
BLOCK_RECORD
  5
90
100
AcDbSymbolTableRecord
100
AcDbBlockTableRecord
  2
_OPEN
  0
BLOCK_RECORD
  5
108E
100
AcDbSymbolTableRecord
100
AcDbBlockTableRecord
  2
*D1
  0
BLOCK_RECORD
  5
10A6
100
AcDbSymbolTableRecord
100
AcDbBlockTableRecord
  2
*D2
  0
BLOCK_RECORD
  5
10CA
100
AcDbSymbolTableRecord
100
AcDbBlockTableRecord
  2
*D3
  0
BLOCK_RECORD
  5
132F
100
AcDbSymbolTableRecord
100
AcDbBlockTableRecord
  2
*D4
  0
BLOCK_RECORD
  5
1396
100
AcDbSymbolTableRecord
100
AcDbBlockTableRecord
  2
*D5
  0
BLOCK_RECORD
  5
13B0
100
AcDbSymbolTableRecord
100
AcDbBlockTableRecord
  2
*D6
  0
BLOCK_RECORD
  5
13CA
100
AcDbSymbolTableRecord
100
AcDbBlockTableRecord
  2
*D7
  0
BLOCK_RECORD
  5
13D7
100
AcDbSymbolTableRecord
100
AcDbBlockTableRecord
  2
*D8
  0
BLOCK_RECORD
  5
13EF
100
AcDbSymbolTableRecord
100
AcDbBlockTableRecord
  2
*D9
  0
BLOCK_RECORD
  5
13FC
100
AcDbSymbolTableRecord
100
AcDbBlockTableRecord
  2
*D10
  0
BLOCK_RECORD
  5
1418
100
AcDbSymbolTableRecord
100
AcDbBlockTableRecord
  2
*D11
  0
ENDTAB
  0
ENDSEC
  0
SECTION
  2
BLOCKS
  0
BLOCK
  5
1B
100
AcDbEntity
  8
0
100
AcDbBlockBegin
  2
*MODEL_SPACE
 70
     0
 10
0.0
 20
0.0
 30
0.0
  3
*MODEL_SPACE
  1

  0
ENDBLK
  5
1C
100
AcDbEntity
  8
0
100
AcDbBlockEnd
  0
BLOCK
  5
18
100
AcDbEntity
 67
     1
  8
0
100
AcDbBlockBegin
  2
*PAPER_SPACE
 70
     0
 10
0.0
 20
0.0
 30
0.0
  3
*PAPER_SPACE
  1

  0
ENDBLK
  5
19
100
AcDbEntity
 67
     1
  8
0
100
AcDbBlockEnd
  0
BLOCK
  5
91
100
AcDbEntity
  8
0
100
AcDbBlockBegin
  2
_OPEN
 70
     0
 10
0.0
 20
0.0
 30
0.0
  3
_OPEN
  1

  0
LINE
  5
92
100
AcDbEntity
  8
0
  6
BYBLOCK
 62
     0
100
AcDbLine
 10
-1.0
 20
0.166667
 30
0.0
 11
0.0
 21
0.0
 31
0.0
  0
LINE
  5
93
100
AcDbEntity
  8
0
  6
BYBLOCK
 62
     0
100
AcDbLine
 10
0.0
 20
0.0
 30
0.0
 11
-1.0
 21
-0.166667
 31
0.0
  0
LINE
  5
94
100
AcDbEntity
  8
0
  6
BYBLOCK
 62
     0
100
AcDbLine
 10
0.0
 20
0.0
 30
0.0
 11
-1.0
 21
0.0
 31
0.0
  0
ENDBLK
  5
95
100
AcDbEntity
  8
0
100
AcDbBlockEnd
  0
BLOCK
  5
1368
100
AcDbEntity
  8
0
 48
3.0
100
AcDbBlockBegin
  2
*D1
 70
     1
 10
0.0
 20
0.0
 30
0.0
  3
*D1
  1

  0
LINE
  5
1369
100
AcDbEntity
  8
0
  6
BYBLOCK
 62
     0
 48
3.0
100
AcDbLine
 10
180.183213
 20
-748.836202
 30
0.0
 11
180.183213
 21
-1005.348268
 31
0.0
  0
LINE
  5
136A
100
AcDbEntity
  8
0
  6
BYBLOCK
 62
     0
 48
3.0
100
AcDbLine
 10
718.183213
 20
-748.836202
 30
0.0
 11
718.183213
 21
-1005.348268
 31
0.0
  0
LINE
  5
136B
100
AcDbEntity
  8
0
  6
BYBLOCK
 62
     0
 48
3.0
100
AcDbLine
 10
205.183213
 20
-1004.098268
 30
0.0
 11
693.183213
 21
-1004.098268
 31
0.0
  0
INSERT
  5
136C
100
AcDbEntity
  8
0
  6
BYBLOCK
 62
     0
 48
3.0
100
AcDbBlockReference
  2
_OPEN
 10
180.183213
 20
-1004.098268
 30
0.0
 41
25.0
 42
25.0
 43
25.0
 50
180.0
  0
INSERT
  5
136D
100
AcDbEntity
  8
0
  6
BYBLOCK
 62
     0
 48
3.0
100
AcDbBlockReference
  2
_OPEN
 10
718.183213
 20
-1004.098268
 30
0.0
 41
25.0
 42
25.0
 43
25.0
  0
MTEXT
  5
136E
100
AcDbEntity
  8
0
  6
BYBLOCK
 62
     0
 48
3.0
100
AcDbMText
 10
449.183213
 20
-985.098268
 30
0.0
 40
30.0
 41
0.0
 71
     5
 72
     1
  1
\A1;538
  7
ED30
  0
POINT
  5
136F
100
AcDbEntity
  8
DEFPOINTS
  6
BYBLOCK
 62
     0
 48
3.0
100
AcDbPoint
 10
180.183213
 20
-747.836202
 30
0.0
  0
POINT
  5
1370
100
AcDbEntity
  8
DEFPOINTS
  6
BYBLOCK
 62
     0
 48
3.0
100
AcDbPoint
 10
718.183213
 20
-747.836202
 30
0.0
  0
POINT
  5
1371
100
AcDbEntity
  8
DEFPOINTS
  6
BYBLOCK
 62
     0
 48
3.0
100
AcDbPoint
 10
718.183213
 20
-1004.098268
 30
0.0
  0
ENDBLK
  5
1372
100
AcDbEntity
  8
0
 48
3.0
100
AcDbBlockEnd
  0
BLOCK
  5
12DA
100
AcDbEntity
  8
0
 48
3.0
100
AcDbBlockBegin
  2
*D2
 70
     1
 10
0.0
 20
0.0
 30
0.0
  3
*D2
  1

  0
LINE
  5
12DB
100
AcDbEntity
  8
0
  6
BYBLOCK
 62
     0
 48
3.0
100
AcDbLine
 10
654.183213
 20
-423.836202
 30
0.0
 11
826.990711
 21
-423.836202
 31
0.0
  0
LINE
  5
12DC
100
AcDbEntity
  8
0
  6
BYBLOCK
 62
     0
 48
3.0
100
AcDbLine
 10
654.183213
 20
-860.836202
 30
0.0
 11
826.990711
 21
-860.836202
 31
0.0
  0
LINE
  5
12DD
100
AcDbEntity
  8
0
  6
BYBLOCK
 62
     0
 48
3.0
100
AcDbLine
 10
825.740711
 20
-448.836202
 30
0.0
 11
825.740711
 21
-835.836202
 31
0.0
  0
INSERT
  5
12DE
100
AcDbEntity
  8
0
  6
BYBLOCK
 62
     0
 48
3.0
100
AcDbBlockReference
  2
_OPEN
 10
825.740711
 20
-423.836202
 30
0.0
 41
25.0
 42
25.0
 43
25.0
 50
90.0
  0
INSERT
  5
12DF
100
AcDbEntity
  8
0
  6
BYBLOCK
 62
     0
 48
3.0
100
AcDbBlockReference
  2
_OPEN
 10
825.740711
 20
-860.836202
 30
0.0
 41
25.0
 42
25.0
 43
25.0
 50
270.0
  0
MTEXT
  5
12E0
100
AcDbEntity
  8
0
  6
BYBLOCK
 62
     0
 48
3.0
100
AcDbMText
 10
806.740711
 20
-622.836202
 30
0.0
 40
30.0
 41
0.0
 71
     5
 72
     1
  1
\A1;437
  7
ED30
 11
0.0
 21
1.0
 31
0.0
  0
POINT
  5
12E1
100
AcDbEntity
  8
DEFPOINTS
  6
BYBLOCK
 62
     0
 48
3.0
100
AcDbPoint
 10
653.183213
 20
-423.836202
 30
0.0
  0
POINT
  5
12E2
100
AcDbEntity
  8
DEFPOINTS
  6
BYBLOCK
 62
     0
 48
3.0
100
AcDbPoint
 10
653.183213
 20
-860.836202
 30
0.0
  0
POINT
  5
12E3
100
AcDbEntity
  8
DEFPOINTS
  6
BYBLOCK
 62
     0
 48
3.0
100
AcDbPoint
 10
825.740711
 20
-860.836202
 30
0.0
  0
ENDBLK
  5
12E4
100
AcDbEntity
  8
0
 48
3.0
100
AcDbBlockEnd
  0
BLOCK
  5
122D
100
AcDbEntity
  8
0
 48
3.0
100
AcDbBlockBegin
  2
*D3
 70
     1
 10
0.0
 20
0.0
 30
0.0
  3
*D3
  1

  0
LINE
  5
122E
100
AcDbEntity
  8
0
  6
BYBLOCK
 62
     0
 48
3.0
100
AcDbLine
 10
913.183213
 20
-861.836202
 30
0.0
 11
913.183213
 21
-974.629215
 31
0.0
  0
LINE
  5
122F
100
AcDbEntity
  8
0
  6
BYBLOCK
 62
     0
 48
3.0
100
AcDbLine
 10
1368.183213
 20
-861.836202
 30
0.0
 11
1368.183213
 21
-974.629215
 31
0.0
  0
LINE
  5
1230
100
AcDbEntity
  8
0
  6
BYBLOCK
 62
     0
 48
3.0
100
AcDbLine
 10
938.183213
 20
-973.379215
 30
0.0
 11
1343.183213
 21
-973.379215
 31
0.0
  0
INSERT
  5
1231
100
AcDbEntity
  8
0
  6
BYBLOCK
 62
     0
 48
3.0
100
AcDbBlockReference
  2
_OPEN
 10
913.183213
 20
-973.379215
 30
0.0
 41
25.0
 42
25.0
 43
25.0
 50
180.0
  0
INSERT
  5
1232
100
AcDbEntity
  8
0
  6
BYBLOCK
 62
     0
 48
3.0
100
AcDbBlockReference
  2
_OPEN
 10
1368.183213
 20
-973.379215
 30
0.0
 41
25.0
 42
25.0
 43
25.0
  0
MTEXT
  5
1233
100
AcDbEntity
  8
0
  6
BYBLOCK
 62
     0
 48
3.0
100
AcDbMText
 10
1140.683213
 20
-954.379215
 30
0.0
 40
30.0
 41
0.0
 71
     5
 72
     1
  1
\A1;455
  7
ED30
  0
POINT
  5
1234
100
AcDbEntity
  8
DEFPOINTS
  6
BYBLOCK
 62
     0
 48
3.0
100
AcDbPoint
 10
913.183213
 20
-860.836202
 30
0.0
  0
POINT
  5
1235
100
AcDbEntity
  8
DEFPOINTS
  6
BYBLOCK
 62
     0
 48
3.0
100
AcDbPoint
 10
1368.183213
 20
-860.836202
 30
0.0
  0
POINT
  5
1236
100
AcDbEntity
  8
DEFPOINTS
  6
BYBLOCK
 62
     0
 48
3.0
100
AcDbPoint
 10
1368.183213
 20
-973.379215
 30
0.0
  0
ENDBLK
  5
1237
100
AcDbEntity
  8
0
 48
3.0
100
AcDbBlockEnd
  0
BLOCK
  5
142D
100
AcDbEntity
  8
0
 48
3.0
100
AcDbBlockBegin
  2
*D4
 70
     1
 10
0.0
 20
0.0
 30
0.0
  3
*D4
  1

  0
LINE
  5
142E
100
AcDbEntity
  8
0
  6
BYBLOCK
 62
     0
 48
3.0
100
AcDbLine
 10
224.683213
 20
-886.836202
 30
0.0
 11
224.683213
 21
-954.360262
 31
0.0
  0
LINE
  5
142F
100
AcDbEntity
  8
0
  6
BYBLOCK
 62
     0
 48
3.0
100
AcDbLine
 10
673.183213
 20
-886.836202
 30
0.0
 11
673.183213
 21
-954.360262
 31
0.0
  0
LINE
  5
1430
100
AcDbEntity
  8
0
  6
BYBLOCK
 62
     0
 48
3.0
100
AcDbLine
 10
249.683213
 20
-953.110262
 30
0.0
 11
648.183213
 21
-953.110262
 31
0.0
  0
INSERT
  5
1431
100
AcDbEntity
  8
0
  6
BYBLOCK
 62
     0
 48
3.0
100
AcDbBlockReference
  2
_OPEN
 10
224.683213
 20
-953.110262
 30
0.0
 41
25.0
 42
25.0
 43
25.0
 50
180.0
  0
INSERT
  5
1432
100
AcDbEntity
  8
0
  6
BYBLOCK
 62
     0
 48
3.0
100
AcDbBlockReference
  2
_OPEN
 10
673.183213
 20
-953.110262
 30
0.0
 41
25.0
 42
25.0
 43
25.0
  0
MTEXT
  5
1433
100
AcDbEntity
  8
0
  6
BYBLOCK
 62
     0
 48
3.0
100
AcDbMText
 10
449.183213
 20
-934.110262
 30
0.0
 40
30.0
 41
0.0
 71
     5
 72
     1
  1
\A1;449
  7
ED30
  0
POINT
  5
1434
100
AcDbEntity
  8
DEFPOINTS
  6
BYBLOCK
 62
     0
 48
3.0
100
AcDbPoint
 10
224.683213
 20
-885.836202
 30
0.0
  0
POINT
  5
1435
100
AcDbEntity
  8
DEFPOINTS
  6
BYBLOCK
 62
     0
 48
3.0
100
AcDbPoint
 10
673.183213
 20
-885.836202
 30
0.0
  0
POINT
  5
1436
100
AcDbEntity
  8
DEFPOINTS
  6
BYBLOCK
 62
     0
 48
3.0
100
AcDbPoint
 10
673.183213
 20
-953.110262
 30
0.0
  0
ENDBLK
  5
1437
100
AcDbEntity
  8
0
 48
3.0
100
AcDbBlockEnd
  0
BLOCK
  5
1397
100
AcDbEntity
  8
0
 48
3.0
100
AcDbBlockBegin
  2
*D5
 70
     1
 10
0.0
 20
0.0
 30
0.0
  3
*D5
  1

  0
LINE
  5
1398
100
AcDbEntity
  8
0
  6
BYBLOCK
 62
     0
 48
3.0
100
AcDbLine
 10
180.183213
 20
-496.836202
 30
0.0
 11
180.183213
 21
-370.596988
 31
0.0
  0
LINE
  5
1399
100
AcDbEntity
  8
0
  6
BYBLOCK
 62
     0
 48
3.0
100
AcDbLine
 10
245.183213
 20
-422.836202
 30
0.0
 11
245.183213
 21
-370.596988
 31
0.0
  0
LINE
  5
139A
100
AcDbEntity
  8
0
  6
BYBLOCK
 62
     0
 48
3.0
100
AcDbLine
 10
205.183213
 20
-371.846988
 30
0.0
 11
220.183213
 21
-371.846988
 31
0.0
  0
INSERT
  5
139B
100
AcDbEntity
  8
0
  6
BYBLOCK
 62
     0
 48
3.0
100
AcDbBlockReference
  2
_OPEN
 10
180.183213
 20
-371.846988
 30
0.0
 41
25.0
 42
25.0
 43
25.0
 50
180.0
  0
INSERT
  5
139C
100
AcDbEntity
  8
0
  6
BYBLOCK
 62
     0
 48
3.0
100
AcDbBlockReference
  2
_OPEN
 10
245.183213
 20
-371.846988
 30
0.0
 41
25.0
 42
25.0
 43
25.0
  0
MTEXT
  5
139D
100
AcDbEntity
  8
0
  6
BYBLOCK
 62
     0
 48
3.0
100
AcDbMText
 10
212.683213
 20
-352.846988
 30
0.0
 40
30.0
 41
0.0
 71
     5
 72
     1
  1
\A1;65
  7
ED30
  0
POINT
  5
139E
100
AcDbEntity
  8
DEFPOINTS
  6
BYBLOCK
 62
     0
 48
3.0
100
AcDbPoint
 10
180.183213
 20
-497.836202
 30
0.0
  0
POINT
  5
139F
100
AcDbEntity
  8
DEFPOINTS
  6
BYBLOCK
 62
     0
 48
3.0
100
AcDbPoint
 10
245.183213
 20
-423.836202
 30
0.0
  0
POINT
  5
13A0
100
AcDbEntity
  8
DEFPOINTS
  6
BYBLOCK
 62
     0
 48
3.0
100
AcDbPoint
 10
245.183213
 20
-371.846988
 30
0.0
  0
ENDBLK
  5
13A1
100
AcDbEntity
  8
0
 48
3.0
100
AcDbBlockEnd
  0
BLOCK
  5
13B1
100
AcDbEntity
  8
0
 48
3.0
100
AcDbBlockBegin
  2
*D6
 70
     1
 10
0.0
 20
0.0
 30
0.0
  3
*D6
  1

  0
LINE
  5
13B2
100
AcDbEntity
  8
0
  6
BYBLOCK
 62
     0
 48
3.0
100
AcDbLine
 10
245.183213
 20
-421.836202
 30
0.0
 11
245.183213
 21
-370.596988
 31
0.0
  0
LINE
  5
13B3
100
AcDbEntity
  8
0
  6
BYBLOCK
 62
     0
 48
3.0
100
AcDbLine
 10
653.183213
 20
-422.836202
 30
0.0
 11
653.183213
 21
-370.596988
 31
0.0
  0
LINE
  5
13B4
100
AcDbEntity
  8
0
  6
BYBLOCK
 62
     0
 48
3.0
100
AcDbLine
 10
270.183213
 20
-371.846988
 30
0.0
 11
628.183213
 21
-371.846988
 31
0.0
  0
INSERT
  5
13B5
100
AcDbEntity
  8
0
  6
BYBLOCK
 62
     0
 48
3.0
100
AcDbBlockReference
  2
_OPEN
 10
245.183213
 20
-371.846988
 30
0.0
 41
25.0
 42
25.0
 43
25.0
 50
180.0
  0
INSERT
  5
13B6
100
AcDbEntity
  8
0
  6
BYBLOCK
 62
     0
 48
3.0
100
AcDbBlockReference
  2
_OPEN
 10
653.183213
 20
-371.846988
 30
0.0
 41
25.0
 42
25.0
 43
25.0
  0
MTEXT
  5
13B7
100
AcDbEntity
  8
0
  6
BYBLOCK
 62
     0
 48
3.0
100
AcDbMText
 10
449.183213
 20
-352.846988
 30
0.0
 40
30.0
 41
0.0
 71
     5
 72
     1
  1
\A1;408
  7
ED30
  0
POINT
  5
13B8
100
AcDbEntity
  8
DEFPOINTS
  6
BYBLOCK
 62
     0
 48
3.0
100
AcDbPoint
 10
245.183213
 20
-422.836202
 30
0.0
  0
POINT
  5
13B9
100
AcDbEntity
  8
DEFPOINTS
  6
BYBLOCK
 62
     0
 48
3.0
100
AcDbPoint
 10
653.183213
 20
-423.836202
 30
0.0
  0
POINT
  5
13BA
100
AcDbEntity
  8
DEFPOINTS
  6
BYBLOCK
 62
     0
 48
3.0
100
AcDbPoint
 10
653.183213
 20
-371.846988
 30
0.0
  0
ENDBLK
  5
13BB
100
AcDbEntity
  8
0
 48
3.0
100
AcDbBlockEnd
  0
BLOCK
  5
13CB
100
AcDbEntity
  8
0
 48
3.0
100
AcDbBlockBegin
  2
*D7
 70
     1
 10
0.0
 20
0.0
 30
0.0
  3
*D7
  1

  0
LINE
  5
13CC
100
AcDbEntity
  8
0
  6
BYBLOCK
 62
     0
 48
3.0
100
AcDbLine
 10
653.183213
 20
-421.836202
 30
0.0
 11
653.183213
 21
-369.346988
 31
0.0
  0
LINE
  5
13CD
100
AcDbEntity
  8
0
  6
BYBLOCK
 62
     0
 48
3.0
100
AcDbLine
 10
718.183213
 20
-496.836202
 30
0.0
 11
718.183213
 21
-369.346988
 31
0.0
  0
LINE
  5
13CE
100
AcDbEntity
  8
0
  6
BYBLOCK
 62
     0
 48
3.0
100
AcDbLine
 10
678.183213
 20
-370.596988
 30
0.0
 11
693.183213
 21
-370.596988
 31
0.0
  0
INSERT
  5
13CF
100
AcDbEntity
  8
0
  6
BYBLOCK
 62
     0
 48
3.0
100
AcDbBlockReference
  2
_OPEN
 10
653.183213
 20
-370.596988
 30
0.0
 41
25.0
 42
25.0
 43
25.0
 50
180.0
  0
INSERT
  5
13D0
100
AcDbEntity
  8
0
  6
BYBLOCK
 62
     0
 48
3.0
100
AcDbBlockReference
  2
_OPEN
 10
718.183213
 20
-370.596988
 30
0.0
 41
25.0
 42
25.0
 43
25.0
  0
MTEXT
  5
13D1
100
AcDbEntity
  8
0
  6
BYBLOCK
 62
     0
 48
3.0
100
AcDbMText
 10
685.683213
 20
-351.596988
 30
0.0
 40
30.0
 41
0.0
 71
     5
 72
     1
  1
\A1;65
  7
ED30
  0
POINT
  5
13D2
100
AcDbEntity
  8
DEFPOINTS
  6
BYBLOCK
 62
     0
 48
3.0
100
AcDbPoint
 10
653.183213
 20
-422.836202
 30
0.0
  0
POINT
  5
13D3
100
AcDbEntity
  8
DEFPOINTS
  6
BYBLOCK
 62
     0
 48
3.0
100
AcDbPoint
 10
718.183213
 20
-497.836202
 30
0.0
  0
POINT
  5
13D4
100
AcDbEntity
  8
DEFPOINTS
  6
BYBLOCK
 62
     0
 48
3.0
100
AcDbPoint
 10
718.183213
 20
-370.596988
 30
0.0
  0
ENDBLK
  5
13D5
100
AcDbEntity
  8
0
 48
3.0
100
AcDbBlockEnd
  0
BLOCK
  5
13D8
100
AcDbEntity
  8
0
 48
3.0
100
AcDbBlockBegin
  2
*D8
 70
     1
 10
0.0
 20
0.0
 30
0.0
  3
*D8
  1

  0
LINE
  5
13D9
100
AcDbEntity
  8
0
  6
BYBLOCK
 62
     0
 48
3.0
100
AcDbLine
 10
955.683213
 20
-886.836202
 30
0.0
 11
955.683213
 21
-921.218057
 31
0.0
  0
LINE
  5
13DA
100
AcDbEntity
  8
0
  6
BYBLOCK
 62
     0
 48
3.0
100
AcDbLine
 10
1325.683213
 20
-886.836202
 30
0.0
 11
1325.683213
 21
-921.218057
 31
0.0
  0
LINE
  5
13DB
100
AcDbEntity
  8
0
  6
BYBLOCK
 62
     0
 48
3.0
100
AcDbLine
 10
980.683213
 20
-919.968057
 30
0.0
 11
1300.683213
 21
-919.968057
 31
0.0
  0
INSERT
  5
13DC
100
AcDbEntity
  8
0
  6
BYBLOCK
 62
     0
 48
3.0
100
AcDbBlockReference
  2
_OPEN
 10
955.683213
 20
-919.968057
 30
0.0
 41
25.0
 42
25.0
 43
25.0
 50
180.0
  0
INSERT
  5
13DD
100
AcDbEntity
  8
0
  6
BYBLOCK
 62
     0
 48
3.0
100
AcDbBlockReference
  2
_OPEN
 10
1325.683213
 20
-919.968057
 30
0.0
 41
25.0
 42
25.0
 43
25.0
  0
MTEXT
  5
13DE
100
AcDbEntity
  8
0
  6
BYBLOCK
 62
     0
 48
3.0
100
AcDbMText
 10
1140.683213
 20
-900.968057
 30
0.0
 40
30.0
 41
0.0
 71
     5
 72
     1
  1
\A1;370
  7
ED30
  0
POINT
  5
13DF
100
AcDbEntity
  8
DEFPOINTS
  6
BYBLOCK
 62
     0
 48
3.0
100
AcDbPoint
 10
955.683213
 20
-885.836202
 30
0.0
  0
POINT
  5
13E0
100
AcDbEntity
  8
DEFPOINTS
  6
BYBLOCK
 62
     0
 48
3.0
100
AcDbPoint
 10
1325.683213
 20
-885.836202
 30
0.0
  0
POINT
  5
13E1
100
AcDbEntity
  8
DEFPOINTS
  6
BYBLOCK
 62
     0
 48
3.0
100
AcDbPoint
 10
1325.683213
 20
-919.968057
 30
0.0
  0
ENDBLK
  5
13E2
100
AcDbEntity
  8
0
 48
3.0
100
AcDbBlockEnd
  0
BLOCK
  5
13F0
100
AcDbEntity
  8
0
 48
3.0
100
AcDbBlockBegin
  2
*D9
 70
     1
 10
0.0
 20
0.0
 30
0.0
  3
*D9
  1

  0
LINE
  5
13F1
100
AcDbEntity
  8
0
  6
BYBLOCK
 62
     0
 48
3.0
100
AcDbLine
 10
719.183213
 20
-497.836202
 30
0.0
 11
776.69878
 21
-497.836202
 31
0.0
  0
LINE
  5
13F2
100
AcDbEntity
  8
0
  6
BYBLOCK
 62
     0
 48
3.0
100
AcDbLine
 10
719.183213
 20
-747.836202
 30
0.0
 11
776.69878
 21
-747.836202
 31
0.0
  0
LINE
  5
13F3
100
AcDbEntity
  8
0
  6
BYBLOCK
 62
     0
 48
3.0
100
AcDbLine
 10
775.44878
 20
-522.836202
 30
0.0
 11
775.44878
 21
-722.836202
 31
0.0
  0
INSERT
  5
13F4
100
AcDbEntity
  8
0
  6
BYBLOCK
 62
     0
 48
3.0
100
AcDbBlockReference
  2
_OPEN
 10
775.44878
 20
-497.836202
 30
0.0
 41
25.0
 42
25.0
 43
25.0
 50
90.0
  0
INSERT
  5
13F5
100
AcDbEntity
  8
0
  6
BYBLOCK
 62
     0
 48
3.0
100
AcDbBlockReference
  2
_OPEN
 10
775.44878
 20
-747.836202
 30
0.0
 41
25.0
 42
25.0
 43
25.0
 50
270.0
  0
MTEXT
  5
13F6
100
AcDbEntity
  8
0
  6
BYBLOCK
 62
     0
 48
3.0
100
AcDbMText
 10
756.445827
 20
-622.836202
 30
0.0
 40
30.0
 41
0.0
 71
     5
 72
     1
  1
\A1;250
  7
ED30
 11
0.0
 21
1.0
 31
0.0
  0
POINT
  5
13F7
100
AcDbEntity
  8
DEFPOINTS
  6
BYBLOCK
 62
     0
 48
3.0
100
AcDbPoint
 10
718.183213
 20
-497.836202
 30
0.0
  0
POINT
  5
13F8
100
AcDbEntity
  8
DEFPOINTS
  6
BYBLOCK
 62
     0
 48
3.0
100
AcDbPoint
 10
718.183213
 20
-747.836202
 30
0.0
  0
POINT
  5
13F9
100
AcDbEntity
  8
DEFPOINTS
  6
BYBLOCK
 62
     0
 48
3.0
100
AcDbPoint
 10
775.44878
 20
-747.836202
 30
0.0
  0
ENDBLK
  5
13FA
100
AcDbEntity
  8
0
 48
3.0
100
AcDbBlockEnd
  0
BLOCK
  5
1438
100
AcDbEntity
  8
0
 48
3.0
100
AcDbBlockBegin
  2
*D10
 70
     1
 10
0.0
 20
0.0
 30
0.0
  3
*D10
  1

  0
LINE
  5
1439
100
AcDbEntity
  8
0
  6
BYBLOCK
 62
     0
 48
3.0
100
AcDbLine
 10
157.352871
 20
-622.836202
 30
0.0
 11
121.014031
 21
-622.836202
 31
0.0
  0
LINE
  5
143A
100
AcDbEntity
  8
0
  6
BYBLOCK
 62
     0
 48
3.0
100
AcDbLine
 10
203.683213
 20
-885.836202
 30
0.0
 11
121.014031
 21
-885.836202
 31
0.0
  0
LINE
  5
143B
100
AcDbEntity
  8
0
  6
BYBLOCK
 62
     0
 48
3.0
100
AcDbLine
 10
122.264031
 20
-647.836202
 30
0.0
 11
122.264031
 21
-860.836202
 31
0.0
  0
INSERT
  5
143C
100
AcDbEntity
  8
0
  6
BYBLOCK
 62
     0
 48
3.0
100
AcDbBlockReference
  2
_OPEN
 10
122.264031
 20
-622.836202
 30
0.0
 41
25.0
 42
25.0
 43
25.0
 50
90.0
  0
INSERT
  5
143D
100
AcDbEntity
  8
0
  6
BYBLOCK
 62
     0
 48
3.0
100
AcDbBlockReference
  2
_OPEN
 10
122.264031
 20
-885.836202
 30
0.0
 41
25.0
 42
25.0
 43
25.0
 50
270.0
  0
MTEXT
  5
143E
100
AcDbEntity
  8
0
  6
BYBLOCK
 62
     0
 48
3.0
100
AcDbMText
 10
103.261078
 20
-754.336202
 30
0.0
 40
30.0
 41
0.0
 71
     5
 72
     1
  1
\A1;263
  7
ED30
 11
0.0
 21
1.0
 31
0.0
  0
POINT
  5
143F
100
AcDbEntity
  8
DEFPOINTS
  6
BYBLOCK
 62
     0
 48
3.0
100
AcDbPoint
 10
158.352871
 20
-622.836202
 30
0.0
  0
POINT
  5
1440
100
AcDbEntity
  8
DEFPOINTS
  6
BYBLOCK
 62
     0
 48
3.0
100
AcDbPoint
 10
204.683213
 20
-885.836202
 30
0.0
  0
POINT
  5
1441
100
AcDbEntity
  8
DEFPOINTS
  6
BYBLOCK
 62
     0
 48
3.0
100
AcDbPoint
 10
122.264031
 20
-885.836202
 30
0.0
  0
ENDBLK
  5
1442
100
AcDbEntity
  8
0
 48
3.0
100
AcDbBlockEnd
  0
BLOCK
  5
1419
100
AcDbEntity
  8
0
 48
3.0
100
AcDbBlockBegin
  2
*D11
 70
     1
 10
0.0
 20
0.0
 30
0.0
  3
*D11
  1

  0
LINE
  5
141A
100
AcDbEntity
  8
0
  6
BYBLOCK
 62
     0
 48
3.0
100
AcDbLine
 10
934.683213
 20
-860.836202
 30
0.0
 11
873.707396
 21
-860.836202
 31
0.0
  0
LINE
  5
141B
100
AcDbEntity
  8
0
  6
BYBLOCK
 62
     0
 48
3.0
100
AcDbLine
 10
934.683213
 20
-885.836202
 30
0.0
 11
873.707396
 21
-885.836202
 31
0.0
  0
LINE
  5
141C
100
AcDbEntity
  8
0
  6
BYBLOCK
 62
     0
 48
3.0
100
AcDbLine
 10
874.957396
 20
-835.836202
 30
0.0
 11
874.957396
 21
-810.836202
 31
0.0
  0
LINE
  5
141D
100
AcDbEntity
  8
0
  6
BYBLOCK
 62
     0
 48
3.0
100
AcDbLine
 10
874.957396
 20
-910.836202
 30
0.0
 11
874.957396
 21
-978.840653
 31
0.0
  0
LINE
  5
141E
100
AcDbEntity
  8
0
  6
BYBLOCK
 62
     0
 48
3.0
100
AcDbLine
 10
874.957396
 20
-860.836202
 30
0.0
 11
874.957396
 21
-885.836202
 31
0.0
  0
INSERT
  5
141F
100
AcDbEntity
  8
0
  6
BYBLOCK
 62
     0
 48
3.0
100
AcDbBlockReference
  2
_OPEN
 10
874.957396
 20
-860.836202
 30
0.0
 41
25.0
 42
25.0
 43
25.0
 50
270.0
  0
INSERT
  5
1420
100
AcDbEntity
  8
0
  6
BYBLOCK
 62
     0
 48
3.0
100
AcDbBlockReference
  2
_OPEN
 10
874.957396
 20
-885.836202
 30
0.0
 41
25.0
 42
25.0
 43
25.0
 50
90.0
  0
MTEXT
  5
1421
100
AcDbEntity
  8
0
  6
BYBLOCK
 62
     0
 48
3.0
100
AcDbMText
 10
855.954444
 20
-957.338427
 30
0.0
 40
30.0
 41
0.0
 71
     5
 72
     1
  1
\A1;25
  7
ED30
 11
0.0
 21
1.0
 31
0.0
  0
POINT
  5
1422
100
AcDbEntity
  8
DEFPOINTS
  6
BYBLOCK
 62
     0
 48
3.0
100
AcDbPoint
 10
935.683213
 20
-860.836202
 30
0.0
  0
POINT
  5
1423
100
AcDbEntity
  8
DEFPOINTS
  6
BYBLOCK
 62
     0
 48
3.0
100
AcDbPoint
 10
935.683213
 20
-885.836202
 30
0.0
  0
POINT
  5
1424
100
AcDbEntity
  8
DEFPOINTS
  6
BYBLOCK
 62
     0
 48
3.0
100
AcDbPoint
 10
874.957396
 20
-885.836202
 30
0.0
  0
ENDBLK
  5
1425
100
AcDbEntity
  8
0
 48
3.0
100
AcDbBlockEnd
  0
ENDSEC
  0
SECTION
  2
ENTITIES
  0
LINE
  5
10EE
100
AcDbEntity
  8
V0-VYPLNE
 48
3.0
100
AcDbLine
 10
158.352871
 20
-622.836202
 30
0.0
 11
724.435856
 21
-622.836202
 31
0.0
  0
LINE
  5
10EF
100
AcDbEntity
  8
V0-VYPLNE
 48
3.0
100
AcDbLine
 10
969.347491
 20
-622.836202
 30
0.0
 11
1306.128067
 21
-622.836202
 31
0.0
  0
LINE
  5
10F7
100
AcDbEntity
  8
V0-OBRYS
  6
CONTINUOUS
 62
    90
 48
3.0
100
AcDbLine
 10
245.183213
 20
-423.836202
 30
0.0
 11
245.183213
 21
-860.836202
 31
0.0
  0
LINE
  5
10F8
100
AcDbEntity
  8
V0-OBRYS
  6
CONTINUOUS
 62
    90
 48
3.0
100
AcDbLine
 10
245.183213
 20
-423.836202
 30
0.0
 11
653.183213
 21
-423.836202
 31
0.0
  0
LINE
  5
10F9
100
AcDbEntity
  8
V0-OBRYS
  6
CONTINUOUS
 62
    90
 48
3.0
100
AcDbLine
 10
245.183213
 20
-860.836202
 30
0.0
 11
653.183213
 21
-860.836202
 31
0.0
  0
LINE
  5
10FA
100
AcDbEntity
  8
V0-OBRYS
  6
CONTINUOUS
 62
    90
 48
3.0
100
AcDbLine
 10
653.183213
 20
-423.836202
 30
0.0
 11
653.183213
 21
-860.836202
 31
0.0
  0
LINE
  5
10FB
100
AcDbEntity
  8
V0-OBRYS
  6
CONTINUOUS
 62
    90
 48
3.0
100
AcDbLine
 10
913.183213
 20
-423.836202
 30
0.0
 11
913.183213
 21
-860.836202
 31
0.0
  0
LINE
  5
10FC
100
AcDbEntity
  8
V0-OBRYS
  6
CONTINUOUS
 62
    90
 48
3.0
100
AcDbLine
 10
1368.183213
 20
-423.836202
 30
0.0
 11
1368.183213
 21
-860.836202
 31
0.0
  0
LINE
  5
10FD
100
AcDbEntity
  8
V0-OBRYS
  6
CONTINUOUS
 62
    90
 48
3.0
100
AcDbLine
 10
913.183213
 20
-423.836202
 30
0.0
 11
1368.183213
 21
-423.836202
 31
0.0
  0
LINE
  5
1100
100
AcDbEntity
  8
V0-OBRYS
  6
CONTINUOUS
 62
    90
 48
3.0
100
AcDbLine
 10
913.183213
 20
-860.836202
 30
0.0
 11
1368.183213
 21
-860.836202
 31
0.0
  0
LINE
  5
1105
100
AcDbEntity
  8
V0-OBRYS
  6
CONTINUOUS
 62
    90
 48
3.0
100
AcDbLine
 10
933.183213
 20
-443.836202
 30
0.0
 11
933.183213
 21
-840.836202
 31
0.0
  0
LINE
  5
1106
100
AcDbEntity
  8
V0-OBRYS
  6
CONTINUOUS
 62
    90
 48
3.0
100
AcDbLine
 10
933.183213
 20
-443.836202
 30
0.0
 11
1348.183213
 21
-443.836202
 31
0.0
  0
LINE
  5
1107
100
AcDbEntity
  8
V0-OBRYS
  6
CONTINUOUS
 62
    90
 48
3.0
100
AcDbLine
 10
1348.183213
 20
-443.836202
 30
0.0
 11
1348.183213
 21
-840.836202
 31
0.0
  0
LINE
  5
1108
100
AcDbEntity
  8
V0-OBRYS
  6
CONTINUOUS
 62
    90
 48
3.0
100
AcDbLine
 10
933.183213
 20
-840.836202
 30
0.0
 11
1348.183213
 21
-840.836202
 31
0.0
  0
LINE
  5
1122
100
AcDbEntity
  8
V0-OBRYS
 48
3.0
100
AcDbLine
 10
180.183213
 20
-747.836202
 30
0.0
 11
180.183213
 21
-497.836202
 31
0.0
  0
LINE
  5
1123
100
AcDbEntity
  8
V0-OBRYS
 48
3.0
100
AcDbLine
 10
180.183213
 20
-747.836202
 30
0.0
 11
190.183213
 21
-747.836202
 31
0.0
  0
LINE
  5
1124
100
AcDbEntity
  8
V0-OBRYS
 48
3.0
100
AcDbLine
 10
180.183213
 20
-497.836202
 30
0.0
 11
190.183213
 21
-497.836202
 31
0.0
  0
LINE
  5
1125
100
AcDbEntity
  8
V0-OBRYS
 48
3.0
100
AcDbLine
 10
190.183213
 20
-497.836202
 30
0.0
 11
190.183213
 21
-747.836202
 31
0.0
  0
LINE
  5
1126
100
AcDbEntity
  8
V0-OBRYS
 48
3.0
100
AcDbLine
 10
200.183213
 20
-747.836202
 30
0.0
 11
200.183213
 21
-497.836202
 31
0.0
  0
ARC
  5
1127
100
AcDbEntity
  8
V0-OBRYS
 48
3.0
100
AcDbCircle
 10
195.183213
 20
-497.836202
 30
0.0
 40
5.0
100
AcDbArc
 50
0.0
 51
180.0
  0
ARC
  5
1128
100
AcDbEntity
  8
V0-OBRYS
 48
3.0
100
AcDbCircle
 10
195.183213
 20
-747.836202
 30
0.0
 40
5.0
100
AcDbArc
 50
180.0
 51
0.0
  0
LINE
  5
1129
100
AcDbEntity
  8
V0-OBRYS
 48
3.0
100
AcDbLine
 10
200.183213
 20
-497.836202
 30
0.0
 11
245.183213
 21
-497.836202
 31
0.0
  0
LINE
  5
112A
100
AcDbEntity
  8
V0-OBRYS
 48
3.0
100
AcDbLine
 10
200.183213
 20
-747.836202
 30
0.0
 11
245.183213
 21
-747.836202
 31
0.0
  0
LINE
  5
112B
100
AcDbEntity
  8
V0-OBRYS
 48
3.0
100
AcDbLine
 10
698.183213
 20
-747.836202
 30
0.0
 11
698.183213
 21
-497.836202
 31
0.0
  0
LINE
  5
112C
100
AcDbEntity
  8
V0-OBRYS
 48
3.0
100
AcDbLine
 10
708.183213
 20
-497.836202
 30
0.0
 11
708.183213
 21
-747.836202
 31
0.0
  0
LINE
  5
112D
100
AcDbEntity
  8
V0-OBRYS
 48
3.0
100
AcDbLine
 10
718.183213
 20
-747.836202
 30
0.0
 11
718.183213
 21
-497.836202
 31
0.0
  0
LINE
  5
112E
100
AcDbEntity
  8
V0-OBRYS
 48
3.0
100
AcDbLine
 10
698.183213
 20
-747.836202
 30
0.0
 11
653.183213
 21
-747.836202
 31
0.0
  0
LINE
  5
112F
100
AcDbEntity
  8
V0-OBRYS
 48
3.0
100
AcDbLine
 10
718.183213
 20
-747.836202
 30
0.0
 11
708.183213
 21
-747.836202
 31
0.0
  0
ARC
  5
1130
100
AcDbEntity
  8
V0-OBRYS
 48
3.0
100
AcDbCircle
 10
703.183213
 20
-747.836202
 30
0.0
 40
5.0
100
AcDbArc
 50
180.0
 51
360.0
  0
LINE
  5
1131
100
AcDbEntity
  8
V0-OBRYS
 48
3.0
100
AcDbLine
 10
698.183213
 20
-497.836202
 30
0.0
 11
653.183213
 21
-497.836202
 31
0.0
  0
LINE
  5
1132
100
AcDbEntity
  8
V0-OBRYS
 48
3.0
100
AcDbLine
 10
718.183213
 20
-497.836202
 30
0.0
 11
708.183213
 21
-497.836202
 31
0.0
  0
ARC
  5
1133
100
AcDbEntity
  8
V0-OBRYS
 48
3.0
100
AcDbCircle
 10
703.183213
 20
-497.836202
 30
0.0
 40
5.0
100
AcDbArc
 50
360.0
 51
180.0
  0
LINE
  5
1148
100
AcDbEntity
  8
V0-OBRYS
  6
CONTINUOUS
 62
    90
 48
3.0
100
AcDbLine
 10
653.183213
 20
-1075.998366
 30
0.0
 11
653.183213
 21
-1530.998366
 31
0.0
  0
LINE
  5
1149
100
AcDbEntity
  8
V0-OBRYS
  6
CONTINUOUS
 62
    90
 48
3.0
100
AcDbLine
 10
245.183213
 20
-1075.998366
 30
0.0
 11
245.183213
 21
-1530.998366
 31
0.0
  0
LINE
  5
114A
100
AcDbEntity
  8
V0-OBRYS
  6
CONTINUOUS
 62
    90
 48
3.0
100
AcDbLine
 10
245.183213
 20
-1530.998366
 30
0.0
 11
653.183213
 21
-1530.998366
 31
0.0
  0
LINE
  5
114B
100
AcDbEntity
  8
V0-VYPLNE
 48
3.0
100
AcDbLine
 10
158.352871
 20
-1303.498366
 30
0.0
 11
724.435856
 21
-1303.498366
 31
0.0
  0
LINE
  5
114C
100
AcDbEntity
  8
V0-OBRYS
  6
CONTINUOUS
 62
    90
 48
3.0
100
AcDbLine
 10
245.183213
 20
-1075.998366
 30
0.0
 11
653.183213
 21
-1075.998366
 31
0.0
  0
LINE
  5
114D
100
AcDbEntity
  8
V0-OBRYS
 48
3.0
100
AcDbLine
 10
200.183213
 20
-1428.498366
 30
0.0
 11
200.183213
 21
-1178.498366
 31
0.0
  0
LINE
  5
114E
100
AcDbEntity
  8
V0-OBRYS
 48
3.0
100
AcDbLine
 10
190.183213
 20
-1178.498366
 30
0.0
 11
190.183213
 21
-1428.498366
 31
0.0
  0
LINE
  5
114F
100
AcDbEntity
  8
V0-OBRYS
 48
3.0
100
AcDbLine
 10
180.183213
 20
-1428.498366
 30
0.0
 11
180.183213
 21
-1178.498366
 31
0.0
  0
LINE
  5
1150
100
AcDbEntity
  8
V0-OBRYS
 48
3.0
100
AcDbLine
 10
200.183213
 20
-1428.498366
 30
0.0
 11
245.183213
 21
-1428.498366
 31
0.0
  0
LINE
  5
1151
100
AcDbEntity
  8
V0-OBRYS
 48
3.0
100
AcDbLine
 10
180.183213
 20
-1428.498366
 30
0.0
 11
190.183213
 21
-1428.498366
 31
0.0
  0
ARC
  5
1152
100
AcDbEntity
  8
V0-OBRYS
 48
3.0
100
AcDbCircle
 10
195.183213
 20
-1428.498366
 30
0.0
 40
5.0
100
AcDbArc
 50
180.0
 51
0.0
  0
LINE
  5
1153
100
AcDbEntity
  8
V0-OBRYS
 48
3.0
100
AcDbLine
 10
200.183213
 20
-1178.498366
 30
0.0
 11
245.183213
 21
-1178.498366
 31
0.0
  0
LINE
  5
1154
100
AcDbEntity
  8
V0-OBRYS
 48
3.0
100
AcDbLine
 10
180.183213
 20
-1178.498366
 30
0.0
 11
190.183213
 21
-1178.498366
 31
0.0
  0
ARC
  5
1155
100
AcDbEntity
  8
V0-OBRYS
 48
3.0
100
AcDbCircle
 10
195.183213
 20
-1178.498366
 30
0.0
 40
5.0
100
AcDbArc
 50
0.0
 51
180.0
  0
LINE
  5
1156
100
AcDbEntity
  8
V0-OBRYS
 48
3.0
100
AcDbLine
 10
718.183213
 20
-1428.498366
 30
0.0
 11
718.183213
 21
-1178.498366
 31
0.0
  0
LINE
  5
1157
100
AcDbEntity
  8
V0-OBRYS
 48
3.0
100
AcDbLine
 10
708.183213
 20
-1178.498366
 30
0.0
 11
708.183213
 21
-1428.498366
 31
0.0
  0
LINE
  5
1158
100
AcDbEntity
  8
V0-OBRYS
 48
3.0
100
AcDbLine
 10
698.183213
 20
-1428.498366
 30
0.0
 11
698.183213
 21
-1178.498366
 31
0.0
  0
LINE
  5
1159
100
AcDbEntity
  8
V0-OBRYS
 48
3.0
100
AcDbLine
 10
698.183213
 20
-1428.498366
 30
0.0
 11
653.183213
 21
-1428.498366
 31
0.0
  0
ARC
  5
115A
100
AcDbEntity
  8
V0-OBRYS
 48
3.0
100
AcDbCircle
 10
703.183213
 20
-1428.498366
 30
0.0
 40
5.0
100
AcDbArc
 50
180.0
 51
360.0
  0
LINE
  5
115B
100
AcDbEntity
  8
V0-OBRYS
 48
3.0
100
AcDbLine
 10
718.183213
 20
-1428.498366
 30
0.0
 11
708.183213
 21
-1428.498366
 31
0.0
  0
LINE
  5
115C
100
AcDbEntity
  8
V0-OBRYS
 48
3.0
100
AcDbLine
 10
698.183213
 20
-1178.498366
 30
0.0
 11
653.183213
 21
-1178.498366
 31
0.0
  0
ARC
  5
115D
100
AcDbEntity
  8
V0-OBRYS
 48
3.0
100
AcDbCircle
 10
703.183213
 20
-1178.498366
 30
0.0
 40
5.0
100
AcDbArc
 50
360.0
 51
180.0
  0
LINE
  5
115E
100
AcDbEntity
  8
V0-OBRYS
 48
3.0
100
AcDbLine
 10
718.183213
 20
-1178.498366
 30
0.0
 11
708.183213
 21
-1178.498366
 31
0.0
  0
DIMENSION
  5
1160
100
AcDbEntity
  8
V0-VYPLNE
  6
CONTINUOUS
 62
    41
 48
3.0
100
AcDbDimension
  2
*D1
 10
718.183213
 20
-1004.098268
 30
0.0
 11
449.183213
 21
-1004.098268
 31
0.0
 70
   160
  3
ED30
100
AcDbAlignedDimension
 13
180.183213
 23
-747.836202
 33
0.0
 14
718.183213
 24
-747.836202
 34
0.0
100
AcDbRotatedDimension
1001
ACAD
1000
DSTYLE
1002
{
1070
    40
1040
1.0
1002
}
  0
DIMENSION
  5
1162
100
AcDbEntity
  8
V0-VYPLNE
  6
CONTINUOUS
 62
    41
 48
3.0
100
AcDbDimension
  2
*D2
 10
825.740711
 20
-860.836202
 30
0.0
 11
825.740711
 21
-622.836202
 31
0.0
 70
   160
  3
ED30
100
AcDbAlignedDimension
 13
653.183213
 23
-423.836202
 33
0.0
 14
653.183213
 24
-860.836202
 34
0.0
 50
90.0
100
AcDbRotatedDimension
1001
ACAD
1000
DSTYLE
1002
{
1070
    40
1040
1.0
1002
}
  0
DIMENSION
  5
1165
100
AcDbEntity
  8
V0-VYPLNE
  6
CONTINUOUS
 62
    41
 48
3.0
100
AcDbDimension
  2
*D3
 10
1368.183213
 20
-973.379215
 30
0.0
 11
1140.683213
 21
-954.379215
 31
0.0
 70
    32
  3
ED30
100
AcDbAlignedDimension
 13
913.183213
 23
-860.836202
 33
0.0
 14
1368.183213
 24
-860.836202
 34
0.0
100
AcDbRotatedDimension
1001
ACAD
1000
DSTYLE
1002
{
1070
    40
1040
1.0
1002
}
  0
MTEXT
  5
1166
100
AcDbEntity
  8
V0-ZBYTEK
100
AcDbMText
 10
1147.184641
 20
-1260.099802
 30
0.0
 40
22.5
 41
353.4649
 71
     5
 72
     5
  1
ZVUKOVE  IZOLOVANY
  7
ED10
  0
MTEXT
  5
1167
100
AcDbEntity
  8
V0-ZBYTEK
 62
    51
100
AcDbMText
 10
1150.770944
 20
-1191.914947
 30
0.0
 40
31.5
 41
892.3329
 71
     5
 72
     5
  1
RADIALNI VENTILATOR
  7
ED10
  0
MTEXT
  5
1168
100
AcDbEntity
  8
V0-NAZVY
100
AcDbMText
 10
1136.334586
 20
-1109.462536
 30
0.0
 40
56.25
 41
462.6911
 71
     5
 72
     5
  1
CVB-180
  7
ED10
  0
MTEXT
  5
116B
100
AcDbEntity
  8
V0-NAZVY
100
AcDbMText
 10
1106.985049
 20
-392.280178
 30
0.0
 40
33.75
 41
277.6147
 71
     5
 72
     5
  1
CVB-180
  7
ED10
  0
LINE
  5
1229
100
AcDbEntity
  8
V0-OBRYS
  6
CONTINUOUS
 62
    90
 48
3.0
100
AcDbLine
 10
204.683213
 20
-885.836202
 30
0.0
 11
245.183213
 21
-885.836202
 31
0.0
  0
LINE
  5
122A
100
AcDbEntity
  8
V0-OBRYS
  6
CONTINUOUS
 62
    90
 48
3.0
100
AcDbLine
 10
245.183213
 20
-885.836202
 30
0.0
 11
245.183213
 21
-860.836202
 31
0.0
  0
LINE
  5
122B
100
AcDbEntity
  8
V0-OBRYS
  6
CONTINUOUS
 62
    90
 48
3.0
100
AcDbLine
 10
693.183213
 20
-885.836202
 30
0.0
 11
653.183213
 21
-885.836202
 31
0.0
  0
LINE
  5
122C
100
AcDbEntity
  8
V0-OBRYS
  6
CONTINUOUS
 62
    90
 48
3.0
100
AcDbLine
 10
653.183213
 20
-885.836202
 30
0.0
 11
653.183213
 21
-860.836202
 31
0.0
  0
LINE
  5
12E6
100
AcDbEntity
  8
V0-VYPLNE
  6
DASHDOT
 62
    63
 48
3.0
100
AcDbLine
 10
1140.683213
 20
-476.441449
 30
0.0
 11
1140.683213
 21
-797.603917
 31
0.0
  0
LINE
  5
12E7
100
AcDbEntity
  8
V0-VYPLNE
  6
DASHDOT
 62
    63
 48
3.0
100
AcDbLine
 10
449.183213
 20
-423.836202
 30
0.0
 11
449.183213
 21
-876.631149
 31
0.0
  0
CIRCLE
  5
12E9
100
AcDbEntity
  8
V0-VYPLNE
  6
DASHED
 62
    52
 48
3.0
100
AcDbCircle
 10
357.019166
 20
-710.928892
 30
0.0
 40
86.675026
  0
LINE
  5
12EA
100
AcDbEntity
  8
V0-VYPLNE
  6
DASHED
 62
    52
 48
3.0
100
AcDbLine
 10
435.921693
 20
-505.328131
 30
0.0
 11
244.758974
 21
-505.328131
 31
0.0
  0
LINE
  5
12EB
100
AcDbEntity
  8
V0-VYPLNE
  6
DASHDOT
 62
    63
 48
3.0
100
AcDbLine
 10
254.964448
 20
-744.069342
 30
0.0
 11
244.758974
 21
-744.069342
 31
0.0
  0
LINE
  5
12EC
100
AcDbEntity
  8
V0-VYPLNE
  6
DASHDOT
 62
    63
 48
3.0
100
AcDbLine
 10
270.34414
 20
-710.928892
 30
0.0
 11
474.382094
 21
-710.928892
 31
0.0
  0
LINE
  5
12ED
100
AcDbEntity
  8
V0-VYPLNE
  6
DASHDOT
 62
    63
 48
3.0
100
AcDbLine
 10
357.019166
 20
-622.836202
 30
0.0
 11
357.019166
 21
-817.998042
 31
0.0
  0
CIRCLE
  5
12F1
100
AcDbEntity
  8
V0-OBRYS
  6
CONTINUOUS
 62
    90
 48
3.0
100
AcDbCircle
 10
270.183213
 20
-835.836202
 30
0.0
 40
8.0
  0
CIRCLE
  5
12F2
100
AcDbEntity
  8
V0-OBRYS
  6
CONTINUOUS
 62
    90
 48
3.0
100
AcDbCircle
 10
628.183213
 20
-835.836202
 30
0.0
 40
8.0
  0
CIRCLE
  5
12F5
100
AcDbEntity
  8
V0-OBRYS
  6
CONTINUOUS
 62
    90
 48
3.0
100
AcDbCircle
 10
270.183213
 20
-448.836202
 30
0.0
 40
8.0
  0
CIRCLE
  5
12F6
100
AcDbEntity
  8
V0-OBRYS
  6
CONTINUOUS
 62
    90
 48
3.0
100
AcDbCircle
 10
628.183213
 20
-448.836202
 30
0.0
 40
8.0
  0
CIRCLE
  5
12F7
100
AcDbEntity
  8
V0-OBRYS
  6
CONTINUOUS
 62
    90
 48
3.0
100
AcDbCircle
 10
1140.683213
 20
-622.836202
 30
0.0
 40
125.0
  0
CIRCLE
  5
12F8
100
AcDbEntity
  8
V0-OBRYS
  6
CONTINUOUS
 62
    90
 48
3.0
100
AcDbCircle
 10
1140.683213
 20
-622.836202
 30
0.0
 40
135.616572
  0
LINE
  5
12F9
100
AcDbEntity
  8
V0-OBRYS
  6
CONTINUOUS
 62
    90
 48
3.0
100
AcDbLine
 10
1079.056315
 20
-512.08618
 30
0.0
 11
1079.056315
 21
-731.323016
 31
0.0
  0
LINE
  5
12FA
100
AcDbEntity
  8
V0-OBRYS
  6
CONTINUOUS
 62
    90
 48
3.0
100
AcDbLine
 10
1202.31011
 20
-512.08618
 30
0.0
 11
1202.31011
 21
-731.323016
 31
0.0
  0
LINE
  5
12FB
100
AcDbEntity
  8
V0-OBRYS
  6
CONTINUOUS
 62
    90
 48
3.0
100
AcDbLine
 10
1079.056315
 20
-519.733978
 30
0.0
 11
1201.52198
 21
-519.733978
 31
0.0
  0
LINE
  5
12FC
100
AcDbEntity
  8
V0-OBRYS
  6
CONTINUOUS
 62
    90
 48
3.0
100
AcDbLine
 10
1079.056315
 20
-667.591377
 30
0.0
 11
1201.52198
 21
-667.591377
 31
0.0
  0
LINE
  5
12FD
100
AcDbEntity
  8
V0-OBRYS
  6
CONTINUOUS
 62
    90
 48
3.0
100
AcDbLine
 10
1079.056315
 20
-726.224484
 30
0.0
 11
1201.52198
 21
-726.224484
 31
0.0
  0
LINE
  5
12FE
100
AcDbEntity
  8
V0-VYPLNE
  6
CONTINUOUS
 62
    41
 48
3.0
100
AcDbLine
 10
1079.056315
 20
-545.226634
 30
0.0
 11
1201.52198
 21
-545.226634
 31
0.0
  0
LINE
  5
1303
100
AcDbEntity
  8
V0-VYPLNE
  6
CONTINUOUS
 62
    41
 48
3.0
100
AcDbLine
 10
1079.056315
 20
-570.226634
 30
0.0
 11
1201.52198
 21
-570.226634
 31
0.0
  0
LINE
  5
1304
100
AcDbEntity
  8
V0-VYPLNE
  6
CONTINUOUS
 62
    41
 48
3.0
100
AcDbLine
 10
1079.056315
 20
-595.226634
 30
0.0
 11
1201.52198
 21
-595.226634
 31
0.0
  0
LINE
  5
1305
100
AcDbEntity
  8
V0-VYPLNE
  6
CONTINUOUS
 62
    41
 48
3.0
100
AcDbLine
 10
1079.056315
 20
-620.226634
 30
0.0
 11
1201.52198
 21
-620.226634
 31
0.0
  0
LINE
  5
1306
100
AcDbEntity
  8
V0-VYPLNE
  6
CONTINUOUS
 62
    41
 48
3.0
100
AcDbLine
 10
1079.056315
 20
-645.226634
 30
0.0
 11
1201.52198
 21
-645.226634
 31
0.0
  0
LINE
  5
1323
100
AcDbEntity
  8
V0-OBRYS
  6
CONTINUOUS
 62
    90
 48
3.0
100
AcDbLine
 10
935.683213
 20
-885.836202
 30
0.0
 11
975.683213
 21
-885.836202
 31
0.0
  0
LINE
  5
1324
100
AcDbEntity
  8
V0-OBRYS
  6
CONTINUOUS
 62
    90
 48
3.0
100
AcDbLine
 10
935.683213
 20
-885.836202
 30
0.0
 11
935.683213
 21
-860.836202
 31
0.0
  0
LINE
  5
1325
100
AcDbEntity
  8
V0-OBRYS
  6
CONTINUOUS
 62
    90
 48
3.0
100
AcDbLine
 10
975.683213
 20
-885.836202
 30
0.0
 11
975.683213
 21
-860.836202
 31
0.0
  0
LINE
  5
1326
100
AcDbEntity
  8
V0-VYPLNE
  6
DASHDOT
 62
    63
 48
3.0
100
AcDbLine
 10
955.683213
 20
-885.836202
 30
0.0
 11
955.683213
 21
-823.096574
 31
0.0
  0
LINE
  5
1327
100
AcDbEntity
  8
V0-VYPLNE
  6
DASHDOT
 62
    63
 48
3.0
100
AcDbLine
 10
955.683213
 20
-823.096574
 30
0.0
 11
955.683213
 21
-914.870132
 31
0.0
  0
LINE
  5
1328
100
AcDbEntity
  8
V0-VYPLNE
  6
DASHDOT
 62
    63
 48
3.0
100
AcDbLine
 10
1325.683213
 20
-885.836202
 30
0.0
 11
1325.683213
 21
-823.096574
 31
0.0
  0
LINE
  5
1329
100
AcDbEntity
  8
V0-OBRYS
  6
CONTINUOUS
 62
    90
 48
3.0
100
AcDbLine
 10
1345.683213
 20
-885.836202
 30
0.0
 11
1305.683213
 21
-885.836202
 31
0.0
  0
LINE
  5
132A
100
AcDbEntity
  8
V0-OBRYS
  6
CONTINUOUS
 62
    90
 48
3.0
100
AcDbLine
 10
1345.683213
 20
-885.836202
 30
0.0
 11
1345.683213
 21
-860.836202
 31
0.0
  0
LINE
  5
132B
100
AcDbEntity
  8
V0-OBRYS
  6
CONTINUOUS
 62
    90
 48
3.0
100
AcDbLine
 10
1305.683213
 20
-885.836202
 30
0.0
 11
1305.683213
 21
-860.836202
 31
0.0
  0
LINE
  5
132C
100
AcDbEntity
  8
V0-VYPLNE
  6
DASHDOT
 62
    63
 48
3.0
100
AcDbLine
 10
224.683213
 20
-907.221056
 30
0.0
 11
224.683213
 21
-856.233051
 31
0.0
  0
LINE
  5
132E
100
AcDbEntity
  8
V0-VYPLNE
  6
DASHDOT
 62
    63
 48
3.0
100
AcDbLine
 10
673.183213
 20
-907.221056
 30
0.0
 11
673.183213
 21
-856.233051
 31
0.0
  0
DIMENSION
  5
133B
100
AcDbEntity
  8
V0-VYPLNE
  6
CONTINUOUS
 62
    41
 48
3.0
100
AcDbDimension
  2
*D4
 10
673.183213
 20
-953.110262
 30
0.0
 11
449.183213
 21
-953.110262
 31
0.0
 70
   160
  3
ED30
100
AcDbAlignedDimension
 13
224.683213
 23
-885.836202
 33
0.0
 14
673.183213
 24
-885.836202
 34
0.0
100
AcDbRotatedDimension
1001
ACAD
1000
DSTYLE
1002
{
1070
    40
1040
1.0
1002
}
  0
LINE
  5
1373
100
AcDbEntity
  8
V0-VYPLNE
  6
DASHDOT
 62
    63
 48
3.0
100
AcDbLine
 10
270.183213
 20
-423.836202
 30
0.0
 11
270.183213
 21
-476.372398
 31
0.0
  0
LINE
  5
1374
100
AcDbEntity
  8
V0-VYPLNE
  6
DASHDOT
 62
    63
 48
3.0
100
AcDbLine
 10
628.183213
 20
-423.836202
 30
0.0
 11
628.183213
 21
-476.372398
 31
0.0
  0
LINE
  5
1375
100
AcDbEntity
  8
V0-VYPLNE
  6
DASHDOT
 62
    63
 48
3.0
100
AcDbLine
 10
245.183213
 20
-448.836202
 30
0.0
 11
295.766231
 21
-448.836202
 31
0.0
  0
LINE
  5
1376
100
AcDbEntity
  8
V0-VYPLNE
  6
DASHDOT
 62
    63
 48
3.0
100
AcDbLine
 10
245.183213
 20
-835.836202
 30
0.0
 11
300.869235
 21
-835.836202
 31
0.0
  0
LINE
  5
1377
100
AcDbEntity
  8
V0-VYPLNE
  6
DASHDOT
 62
    63
 48
3.0
100
AcDbLine
 10
612.152594
 20
-448.836202
 30
0.0
 11
653.183213
 21
-448.836202
 31
0.0
  0
ARC
  5
1378
100
AcDbEntity
  8
V0-VYPLNE
  6
DASHED
 62
    52
 48
3.0
100
AcDbCircle
 10
418.251998
 20
-680.337707
 30
0.0
 40
175.899317
100
AcDbArc
 50
201.242672
 51
84.234717
  0
LINE
  5
1379
100
AcDbEntity
  8
V0-VYPLNE
  6
DASHDOT
 62
    63
 48
3.0
100
AcDbLine
 10
609.601092
 20
-835.836202
 30
0.0
 11
653.183213
 21
-835.836202
 31
0.0
  0
LINE
  5
137A
100
AcDbEntity
  8
V0-VYPLNE
  6
DASHDOT
 62
    63
 48
3.0
100
AcDbLine
 10
270.183213
 20
-815.442643
 30
0.0
 11
270.183213
 21
-860.836202
 31
0.0
  0
LINE
  5
137B
100
AcDbEntity
  8
V0-VYPLNE
  6
DASHDOT
 62
    63
 48
3.0
100
AcDbLine
 10
628.183213
 20
-812.893244
 30
0.0
 11
628.183213
 21
-860.836202
 31
0.0
  0
DIMENSION
  5
13A2
100
AcDbEntity
  8
V0-VYPLNE
  6
CONTINUOUS
 62
    41
 48
3.0
100
AcDbDimension
  2
*D5
 10
245.183213
 20
-371.846988
 30
0.0
 11
212.683213
 21
-352.846988
 31
0.0
 70
    32
  3
ED30
100
AcDbAlignedDimension
 13
180.183213
 23
-497.836202
 33
0.0
 14
245.183213
 24
-423.836202
 34
0.0
100
AcDbRotatedDimension
1001
ACAD
1000
DSTYLE
1002
{
1070
    40
1040
1.0
1002
}
  0
DIMENSION
  5
13BC
100
AcDbEntity
  8
V0-VYPLNE
  6
CONTINUOUS
 62
    41
 48
3.0
100
AcDbDimension
  2
*D6
 10
653.183213
 20
-371.846988
 30
0.0
 11
449.183213
 21
-352.846988
 31
0.0
 70
    32
  3
ED30
100
AcDbAlignedDimension
 13
245.183213
 23
-422.836202
 33
0.0
 14
653.183213
 24
-423.836202
 34
0.0
100
AcDbRotatedDimension
1001
ACAD
1000
DSTYLE
1002
{
1070
    40
1040
1.0
1002
}
  0
DIMENSION
  5
13D6
100
AcDbEntity
  8
V0-VYPLNE
  6
CONTINUOUS
 62
    41
 48
3.0
100
AcDbDimension
  2
*D7
 10
718.183213
 20
-370.596988
 30
0.0
 11
685.683213
 21
-351.596988
 31
0.0
 70
    32
  3
ED30
100
AcDbAlignedDimension
 13
653.183213
 23
-422.836202
 33
0.0
 14
718.183213
 24
-497.836202
 34
0.0
100
AcDbRotatedDimension
1001
ACAD
1000
DSTYLE
1002
{
1070
    40
1040
1.0
1002
}
  0
DIMENSION
  5
13E3
100
AcDbEntity
  8
V0-VYPLNE
  6
CONTINUOUS
 62
    41
 48
3.0
100
AcDbDimension
  2
*D8
 10
1325.683213
 20
-919.968057
 30
0.0
 11
1140.683213
 21
-900.968057
 31
0.0
 70
    32
  3
ED30
100
AcDbAlignedDimension
 13
955.683213
 23
-885.836202
 33
0.0
 14
1325.683213
 24
-885.836202
 34
0.0
100
AcDbRotatedDimension
1001
ACAD
1000
DSTYLE
1002
{
1070
    40
1040
1.0
1002
}
  0
DIMENSION
  5
13FB
100
AcDbEntity
  8
V0-VYPLNE
  6
CONTINUOUS
 62
    41
 48
3.0
100
AcDbDimension
  2
*D9
 10
775.44878
 20
-747.836202
 30
0.0
 11
756.445827
 21
-622.836202
 31
0.0
 70
    32
  3
ED30
100
AcDbAlignedDimension
 13
718.183213
 23
-497.836202
 33
0.0
 14
718.183213
 24
-747.836202
 34
0.0
 50
90.0
100
AcDbRotatedDimension
1001
ACAD
1000
DSTYLE
1002
{
1070
    40
1040
1.0
1002
}
  0
DIMENSION
  5
1408
100
AcDbEntity
  8
V0-VYPLNE
  6
CONTINUOUS
 62
    41
 48
3.0
100
AcDbDimension
  2
*D10
 10
122.264031
 20
-885.836202
 30
0.0
 11
103.261078
 21
-754.336202
 31
0.0
 70
    32
  3
ED30
100
AcDbAlignedDimension
 13
158.352871
 23
-622.836202
 33
0.0
 14
204.683213
 24
-885.836202
 34
0.0
 50
90.0
100
AcDbRotatedDimension
1001
ACAD
1000
DSTYLE
1002
{
1070
    40
1040
1.0
1002
}
  0
DIMENSION
  5
1426
100
AcDbEntity
  8
V0-VYPLNE
  6
CONTINUOUS
 62
    41
 48
3.0
100
AcDbDimension
  2
*D11
 10
874.957396
 20
-885.836202
 30
0.0
 11
855.954444
 21
-957.338427
 31
0.0
 70
    32
  3
ED30
100
AcDbAlignedDimension
 13
935.683213
 23
-860.836202
 33
0.0
 14
935.683213
 24
-885.836202
 34
0.0
 50
90.0
100
AcDbRotatedDimension
1001
ACAD
1000
DSTYLE
1002
{
1070
    40
1040
1.0
1002
}
  0
MTEXT
  5
1427
100
AcDbEntity
  8
V0-NAZVY
100
AcDbMText
 10
456.351804
 20
-463.663386
 30
0.0
 40
33.75
 41
277.6147
 71
     5
 72
     5
  1
CVB-180
  7
ED10
  0
MTEXT
  5
1428
100
AcDbEntity
  8
V0-NAZVY
100
AcDbMText
 10
443.594288
 20
-1144.353274
 30
0.0
 40
33.75
 41
277.6147
 71
     5
 72
     5
  1
CVB-180
  7
ED10
  0
POINT
  5
1447
100
AcDbEntity
  8
V0-VYPLNE
  6
CONTINUOUS
 62
    41
 48
3.0
100
AcDbPoint
 10
180.183213
 20
-622.836202
 30
0.0
  0
POINT
  5
1449
100
AcDbEntity
  8
V0-VYPLNE
  6
CONTINUOUS
 62
    41
 48
3.0
100
AcDbPoint
 10
718.183213
 20
-622.836202
 30
0.0
  0
POINT
  5
144A
100
AcDbEntity
  8
V0-VYPLNE
  6
CONTINUOUS
 62
    41
 48
3.0
100
AcDbPoint
 10
180.183213
 20
-1303.498366
 30
0.0
  0
POINT
  5
144B
100
AcDbEntity
  8
V0-VYPLNE
  6
CONTINUOUS
 62
    41
 48
3.0
100
AcDbPoint
 10
718.183213
 20
-1303.498366
 30
0.0
  0
POINT
  5
144C
100
AcDbEntity
  8
V0-VYPLNE
  6
CONTINUOUS
 62
    41
 48
3.0
100
AcDbPoint
 10
1140.683213
 20
-622.836202
 30
0.0
  0
VIEWPORT
  5
22
100
AcDbEntity
 67
     1
  8
0
100
AcDbViewport
 10
261.517699
 20
148.5
 30
0.0
 40
523.035398
 41
297.0
 68
    -1
 69
     1
1001
ACAD
1000
MVIEW
1002
{
1070
    16
1010
0.0
1020
0.0
1030
0.0
1010
0.0
1020
0.0
1030
1.0
1040
0.0
1040
297.0
1040
261.517699
1040
148.5
1040
50.0
1040
0.0
1040
0.0
1070
     0
1070
   100
1070
     1
1070
     1
1070
     0
1070
     0
1070
     0
1070
     0
1040
0.0
1040
0.0
1040
0.0
1040
1.0
1040
1.0
1040
10.0
1040
10.0
1070
     0
1002
{
1002
}
1002
}
  0
ENDSEC
  0
SECTION
  2
OBJECTS
  0
DICTIONARY
  5
C
100
AcDbDictionary
  3
ACAD_GROUP
350
D
  3
ACAD_MLINESTYLE
350
E
  3
ACDBVARIABLEDICTIONARY
350
5D
  0
DICTIONARY
  5
D
102
{ACAD_REACTORS
330
C
102
}
100
AcDbDictionary
  0
DICTIONARY
  5
E
102
{ACAD_REACTORS
330
C
102
}
100
AcDbDictionary
  3
STANDARD
350
13
  0
DICTIONARY
  5
5D
102
{ACAD_REACTORS
330
C
102
}
100
AcDbDictionary
  3
DIMADEC
350
5E
  3
SORTENTS
350
3D8
  0
MLINESTYLE
  5
13
102
{ACAD_REACTORS
330
E
102
}
100
AcDbMlineStyle
  2
STANDARD
 70
     0
  3

 62
     0
 51
90.0
 52
90.0
 71
     2
 49
0.5
 62
   256
  6
BYLAYER
 49
-0.5
 62
   256
  6
BYLAYER
  0
DICTIONARYVAR
  5
5E
102
{ACAD_REACTORS
330
5D
102
}
100
DictionaryVariables
280
     0
  1
0
  0
DICTIONARYVAR
  5
3D8
102
{ACAD_REACTORS
330
5D
102
}
100
DictionaryVariables
280
     0
  1
96
  0
ENDSEC
  0
EOF
