  0
SECTION
  2
HEADER
  9
$ACADVER
  1
AC1014
  9
$ACADMAINTVER
 70
     0
  9
$DWGCODEPAGE
  3
ANSI_1250
  9
$INSBASE
 10
0.0
 20
0.0
 30
0.0
  9
$EXTMIN
 10
1084.682583
 20
-1235.25572
 30
0.0
  9
$EXTMAX
 10
2148.64272
 20
386.271454
 30
0.0
  9
$LIMMIN
 10
0.0
 20
0.0
  9
$LIMMAX
 10
420.0
 20
297.0
  9
$ORTHOMODE
 70
     1
  9
$REGENMODE
 70
     1
  9
$FILLMODE
 70
     1
  9
$QTEXTMODE
 70
     0
  9
$MIRRTEXT
 70
     1
  9
$DRAGMODE
 70
     2
  9
$LTSCALE
 40
1.0
  9
$OSMODE
 70
     1
  9
$ATTMODE
 70
     1
  9
$TEXTSIZE
 40
40.0
  9
$TRACEWID
 40
1.0
  9
$TEXTSTYLE
  7
ED40
  9
$CLAYER
  8
V0-VYPLNE
  9
$CELTYPE
  6
CONTINUOUS
  9
$CECOLOR
 62
    41
  9
$CELTSCALE
 40
1.0
  9
$DELOBJ
 70
     1
  9
$DISPSILH
 70
     0
  9
$DIMSCALE
 40
1.0
  9
$DIMASZ
 40
30.0
  9
$DIMEXO
 40
1.0
  9
$DIMDLI
 40
3.75
  9
$DIMRND
 40
0.0
  9
$DIMDLE
 40
0.0
  9
$DIMEXE
 40
1.25
  9
$DIMTP
 40
0.0
  9
$DIMTM
 40
0.0
  9
$DIMTXT
 40
30.0
  9
$DIMCEN
 40
3.0
  9
$DIMTSZ
 40
0.0
  9
$DIMTOL
 70
     0
  9
$DIMLIM
 70
     0
  9
$DIMTIH
 70
     0
  9
$DIMTOH
 70
     0
  9
$DIMSE1
 70
     0
  9
$DIMSE2
 70
     0
  9
$DIMTAD
 70
     1
  9
$DIMZIN
 70
     8
  9
$DIMBLK
  1

  9
$DIMASO
 70
     1
  9
$DIMSHO
 70
     1
  9
$DIMPOST
  1

  9
$DIMAPOST
  1

  9
$DIMALT
 70
     0
  9
$DIMALTD
 70
     4
  9
$DIMALTF
 40
0.0394
  9
$DIMLFAC
 40
1.0
  9
$DIMTOFL
 70
     1
  9
$DIMTVP
 40
0.0
  9
$DIMTIX
 70
     0
  9
$DIMSOXD
 70
     0
  9
$DIMSAH
 70
     1
  9
$DIMBLK1
  1
_OPEN
  9
$DIMBLK2
  1
_OPEN
  9
$DIMSTYLE
  2
ED30
  9
$DIMCLRD
 70
    41
  9
$DIMCLRE
 70
    41
  9
$DIMCLRT
 70
    41
  9
$DIMTFAC
 40
1.0
  9
$DIMGAP
 40
2.0
  9
$DIMJUST
 70
     0
  9
$DIMSD1
 70
     0
  9
$DIMSD2
 70
     0
  9
$DIMTOLJ
 70
     1
  9
$DIMTZIN
 70
     8
  9
$DIMALTZ
 70
     0
  9
$DIMALTTZ
 70
     0
  9
$DIMFIT
 70
     3
  9
$DIMUPT
 70
     0
  9
$DIMUNIT
 70
     2
  9
$DIMDEC
 70
     0
  9
$DIMTDEC
 70
     1
  9
$DIMALTU
 70
     8
  9
$DIMALTTD
 70
     4
  9
$DIMTXSTY
  7
ED30
  9
$DIMAUNIT
 70
     0
  9
$LUNITS
 70
     2
  9
$LUPREC
 70
     4
  9
$SKETCHINC
 40
1.0
  9
$FILLETRAD
 40
10.0
  9
$AUNITS
 70
     0
  9
$AUPREC
 70
     0
  9
$MENU
  1
.
  9
$ELEVATION
 40
0.0
  9
$PELEVATION
 40
0.0
  9
$THICKNESS
 40
0.0
  9
$LIMCHECK
 70
     0
  9
$BLIPMODE
 70
     0
  9
$CHAMFERA
 40
0.5
  9
$CHAMFERB
 40
0.5
  9
$CHAMFERC
 40
20.0
  9
$CHAMFERD
 40
0.0
  9
$SKPOLY
 70
     1
  9
$TDCREATE
 40
2451196.643769328
  9
$TDUPDATE
 40
2452915.904141551
  9
$TDINDWG
 40
1.0382347222
  9
$TDUSRTIMER
 40
1.0382347222
  9
$USRTIMER
 70
     1
  9
$ANGBASE
 50
0.0
  9
$ANGDIR
 70
     0
  9
$PDMODE
 70
    35
  9
$PDSIZE
 40
20.0
  9
$PLINEWID
 40
0.0
  9
$COORDS
 70
     1
  9
$SPLFRAME
 70
     0
  9
$SPLINETYPE
 70
     6
  9
$SPLINESEGS
 70
     8
  9
$ATTDIA
 70
     0
  9
$ATTREQ
 70
     1
  9
$HANDLING
 70
     1
  9
$HANDSEED
  5
499C
  9
$SURFTAB1
 70
     6
  9
$SURFTAB2
 70
     6
  9
$SURFTYPE
 70
     6
  9
$SURFU
 70
     6
  9
$SURFV
 70
     6
  9
$UCSNAME
  2

  9
$UCSORG
 10
1829.721191398644
 20
-11.00090689553283
 30
0.0
  9
$UCSXDIR
 10
1.0
 20
0.0
 30
0.0
  9
$UCSYDIR
 10
0.0
 20
1.0
 30
0.0
  9
$PUCSNAME
  2

  9
$PUCSORG
 10
0.0
 20
0.0
 30
0.0
  9
$PUCSXDIR
 10
1.0
 20
0.0
 30
0.0
  9
$PUCSYDIR
 10
0.0
 20
1.0
 30
0.0
  9
$USERI1
 70
     0
  9
$USERI2
 70
     0
  9
$USERI3
 70
     0
  9
$USERI4
 70
     0
  9
$USERI5
 70
     0
  9
$USERR1
 40
0.0
  9
$USERR2
 40
0.0
  9
$USERR3
 40
0.0
  9
$USERR4
 40
0.0
  9
$USERR5
 40
0.0
  9
$WORLDVIEW
 70
     1
  9
$SHADEDGE
 70
     3
  9
$SHADEDIF
 70
    70
  9
$TILEMODE
 70
     1
  9
$MAXACTVP
 70
    48
  9
$PINSBASE
 10
0.0
 20
0.0
 30
0.0
  9
$PLIMCHECK
 70
     0
  9
$PEXTMIN
 10
1.000000E+20
 20
1.000000E+20
 30
1.000000E+20
  9
$PEXTMAX
 10
-1.000000E+20
 20
-1.000000E+20
 30
-1.000000E+20
  9
$PLIMMIN
 10
0.0
 20
0.0
  9
$PLIMMAX
 10
420.0
 20
297.0
  9
$UNITMODE
 70
     0
  9
$VISRETAIN
 70
     1
  9
$PLINEGEN
 70
     0
  9
$PSLTSCALE
 70
     0
  9
$TREEDEPTH
 70
  3020
  9
$PICKSTYLE
 70
     0
  9
$CMLSTYLE
  2
STANDARD
  9
$CMLJUST
 70
     1
  9
$CMLSCALE
 40
3.0
  9
$PROXYGRAPHICS
 70
     1
  9
$MEASUREMENT
 70
     1
  0
ENDSEC
  0
SECTION
  2
CLASSES
  0
CLASS
  1
DICTIONARYVAR
  2
AcDbDictionaryVar
  3
"AutoCAD"
 90
        0
280
     0
281
     0
  0
CLASS
  1
LWPOLYLINE
  2
AcDbPolyline
  3
"AutoCAD"
 90
        0
280
     0
281
     1
  0
CLASS
  1
HATCH
  2
AcDbHatch
  3
"ACAD_SEDONA"
 90
        0
280
     0
281
     1
  0
ENDSEC
  0
SECTION
  2
TABLES
  0
TABLE
  2
VPORT
  5
8
100
AcDbSymbolTable
 70
     2
  0
VPORT
  5
499B
100
AcDbSymbolTableRecord
100
AcDbViewportTableRecord
  2
*ACTIVE
 70
     0
 10
0.0
 20
0.0
 11
1.0
 21
1.0
 12
1536.77219
 22
-454.98049
 13
0.0
 23
0.0
 14
10.0
 24
10.0
 15
10.0
 25
10.0
 16
0.0
 26
0.0
 36
1.0
 17
0.0
 27
0.0
 37
0.0
 40
1869.044998
 41
1.730469
 42
50.0
 43
0.0
 44
0.0
 50
0.0
 51
0.0
 71
     0
 72
   100
 73
     1
 74
     1
 75
     0
 76
     0
 77
     0
 78
     0
  0
ENDTAB
  0
TABLE
  2
LTYPE
  5
5
100
AcDbSymbolTable
 70
     4
  0
LTYPE
  5
14
100
AcDbSymbolTableRecord
100
AcDbLinetypeTableRecord
  2
BYBLOCK
 70
     0
  3

 72
    65
 73
     0
 40
0.0
  0
LTYPE
  5
15
100
AcDbSymbolTableRecord
100
AcDbLinetypeTableRecord
  2
BYLAYER
 70
     0
  3

 72
    65
 73
     0
 40
0.0
  0
LTYPE
  5
16
100
AcDbSymbolTableRecord
100
AcDbLinetypeTableRecord
  2
CONTINUOUS
 70
     0
  3
Solid line
 72
    65
 73
     0
 40
0.0
  0
LTYPE
  5
7F
100
AcDbSymbolTableRecord
100
AcDbLinetypeTableRecord
  2
DASHDOT
 70
     0
  3
Dash dot __ . __ . __ . __ . __ . __ . __ . __
 72
    65
 73
     4
 40
25.4
 49
12.7
 74
     0
 49
-6.35
 74
     0
 49
0.0
 74
     0
 49
-6.35
 74
     0
  0
LTYPE
  5
1B9E
100
AcDbSymbolTableRecord
100
AcDbLinetypeTableRecord
  2
ACAD_ISO02W100
 70
     0
  3
ISO dash __ __ __ __ __ __ __ __ __ __ __ __ __
 72
    65
 73
     2
 40
15.0
 49
12.0
 74
     0
 49
-3.0
 74
     0
  0
LTYPE
  5
1B9F
100
AcDbSymbolTableRecord
100
AcDbLinetypeTableRecord
  2
DASHED
 70
     0
  3
Dashed __ __ __ __ __ __ __ __ __ __ __ __ __ _
 72
    65
 73
     2
 40
19.05
 49
12.7
 74
     0
 49
-6.35
 74
     0
  0
ENDTAB
  0
TABLE
  2
LAYER
  5
2
100
AcDbSymbolTable
 70
     5
  0
LAYER
  5
F
100
AcDbSymbolTableRecord
100
AcDbLayerTableRecord
  2
0
 70
     0
 62
     7
  6
CONTINUOUS
  0
LAYER
  5
9E
100
AcDbSymbolTableRecord
100
AcDbLayerTableRecord
  2
DEFPOINTS
 70
     0
 62
     7
  6
CONTINUOUS
  0
LAYER
  5
377
100
AcDbSymbolTableRecord
100
AcDbLayerTableRecord
  2
V0-OBRYS
 70
     0
 62
    90
  6
CONTINUOUS
  0
LAYER
  5
378
100
AcDbSymbolTableRecord
100
AcDbLayerTableRecord
  2
V0-VYPLNE
 70
     0
 62
    63
  6
DASHDOT
  0
LAYER
  5
1540
100
AcDbSymbolTableRecord
100
AcDbLayerTableRecord
  2
VO-OBRYS
 70
     0
 62
    90
  6
CONTINUOUS
  0
ENDTAB
  0
TABLE
  2
STYLE
  5
3
100
AcDbSymbolTable
 70
     6
  0
STYLE
  5
10
100
AcDbSymbolTableRecord
100
AcDbTextStyleTableRecord
  2
STANDARD
 70
     0
 40
0.0
 41
1.0
 50
0.0
 71
     0
 42
2.5
  3
ISOCP
  4

  0
STYLE
  5
331
100
AcDbSymbolTableRecord
100
AcDbTextStyleTableRecord
  2
ED20
 70
     0
 40
20.0
 41
1.0
 50
0.0
 71
     0
 42
2.5
  3
ISOCP.shx
  4

  0
STYLE
  5
648
100
AcDbSymbolTableRecord
100
AcDbTextStyleTableRecord
  2
ED10
 70
     0
 40
10.0
 41
1.0
 50
0.0
 71
     0
 42
10.0
  3
ISOCP.shx
  4

  0
STYLE
  5
F38
100
AcDbSymbolTableRecord
100
AcDbTextStyleTableRecord
  2
ED30
 70
     0
 40
30.0
 41
1.0
 50
0.0
 71
     0
 42
2.5
  3
ISOCP.shx
  4

  0
STYLE
  5
F39
100
AcDbSymbolTableRecord
100
AcDbTextStyleTableRecord
  2
ED40
 70
     0
 40
40.0
 41
1.0
 50
0.0
 71
     0
 42
40.0
  3
ISOCP.shx
  4

  0
STYLE
  5
1B9D
100
AcDbSymbolTableRecord
100
AcDbTextStyleTableRecord
  2

 70
     1
 40
0.0
 41
1.0
 50
0.0
 71
     0
 42
40.0
  3
ltypeshp.shx
  4

  0
ENDTAB
  0
TABLE
  2
VIEW
  5
6
100
AcDbSymbolTable
 70
     0
  0
ENDTAB
  0
TABLE
  2
UCS
  5
7
100
AcDbSymbolTable
 70
     0
  0
ENDTAB
  0
TABLE
  2
APPID
  5
9
100
AcDbSymbolTable
 70
     3
  0
APPID
  5
11
100
AcDbSymbolTableRecord
100
AcDbRegAppTableRecord
  2
ACAD
 70
     0
  0
APPID
  5
2570
100
AcDbSymbolTableRecord
100
AcDbRegAppTableRecord
  2
CONTENTBLOCKICON
 70
     0
  0
APPID
  5
2571
100
AcDbSymbolTableRecord
100
AcDbRegAppTableRecord
  2
CONTENTBLOCKDESCRIPTION
 70
     0
  0
ENDTAB
  0
TABLE
  2
DIMSTYLE
  5
A
100
AcDbSymbolTable
 70
     4
  0
DIMSTYLE
105
1D
100
AcDbSymbolTableRecord
100
AcDbDimStyleTableRecord
  2
STANDARD
 70
     0
  3

  4

  5

  6
_OPEN
  7
_OPEN
 40
0.0
 41
15.0
 42
0.625
 43
3.75
 44
1.25
 45
0.0
 46
0.0
 47
0.0
 48
0.0
140
15.0
141
2.5
142
0.0
143
0.0394
144
1.0
145
0.0
146
1.0
147
3.0
 71
     0
 72
     0
 73
     0
 74
     0
 75
     0
 76
     0
 77
     1
 78
     8
170
     0
171
     4
172
     1
173
     1
174
     0
175
     0
176
     0
177
     0
178
     0
270
     2
271
     0
272
     1
273
     8
274
     4
340
331
275
     0
280
     0
281
     0
282
     0
283
     1
284
     8
285
     0
286
     0
287
     3
288
     0
  0
DIMSTYLE
105
FE9
100
AcDbSymbolTableRecord
100
AcDbDimStyleTableRecord
  2
ED20
 70
     0
  3

  4

  5

  6
_OPEN
  7
_OPEN
 40
1.0
 41
20.0
 42
1.0
 43
3.75
 44
1.25
 45
0.0
 46
0.0
 47
0.0
 48
0.0
140
20.0
141
3.0
142
0.0
143
0.0394
144
1.0
145
0.0
146
1.0
147
2.0
 71
     0
 72
     0
 73
     0
 74
     0
 75
     0
 76
     0
 77
     1
 78
     8
170
     0
171
     4
172
     1
173
     1
174
     0
175
     0
176
    41
177
    41
178
    41
270
     2
271
     0
272
     1
273
     8
274
     4
340
331
275
     0
280
     0
281
     0
282
     0
283
     1
284
     8
285
     0
286
     0
287
     3
288
     0
  0
DIMSTYLE
105
320E
102
{ACAD_REACTORS
330
4084
330
409E
330
40AB
102
}
100
AcDbSymbolTableRecord
100
AcDbDimStyleTableRecord
  2
ED30
 70
     0
  3

  4

  5

  6
_OPEN
  7
_OPEN
 40
1.0
 41
30.0
 42
1.0
 43
3.75
 44
1.25
 45
0.0
 46
0.0
 47
0.0
 48
0.0
140
30.0
141
3.0
142
0.0
143
0.0394
144
1.0
145
0.0
146
1.0
147
2.0
 71
     0
 72
     0
 73
     0
 74
     0
 75
     0
 76
     0
 77
     1
 78
     8
170
     0
171
     4
172
     1
173
     1
174
     0
175
     0
176
    41
177
    41
178
    41
270
     2
271
     0
272
     1
273
     8
274
     4
340
F38
275
     0
280
     0
281
     0
282
     0
283
     1
284
     8
285
     0
286
     0
287
     3
288
     0
  0
DIMSTYLE
105
4105
100
AcDbSymbolTableRecord
100
AcDbDimStyleTableRecord
  2
ED40
 70
     0
  3

  4

  5

  6
_OPEN
  7
_OPEN
 40
1.0
 41
40.0
 42
1.0
 43
3.75
 44
1.25
 45
0.0
 46
0.0
 47
0.0
 48
0.0
140
40.0
141
3.0
142
0.0
143
0.0394
144
1.0
145
0.0
146
1.0
147
2.0
 71
     0
 72
     0
 73
     0
 74
     0
 75
     0
 76
     0
 77
     1
 78
     8
170
     0
171
     4
172
     1
173
     1
174
     0
175
     0
176
    41
177
    41
178
    41
270
     2
271
     0
272
     1
273
     8
274
     4
340
F39
275
     0
280
     0
281
     0
282
     0
283
     1
284
     8
285
     0
286
     0
287
     3
288
     0
  0
ENDTAB
  0
TABLE
  2
BLOCK_RECORD
  5
1
100
AcDbSymbolTable
 70
    20
  0
BLOCK_RECORD
  5
1A
100
AcDbSymbolTableRecord
100
AcDbBlockTableRecord
  2
*MODEL_SPACE
  0
BLOCK_RECORD
  5
17
100
AcDbSymbolTableRecord
100
AcDbBlockTableRecord
  2
*PAPER_SPACE
  0
BLOCK_RECORD
  5
90
100
AcDbSymbolTableRecord
100
AcDbBlockTableRecord
  2
_OPEN
  0
BLOCK_RECORD
  5
267B
100
AcDbSymbolTableRecord
100
AcDbBlockTableRecord
  2
ASVORK
1001
CONTENTBLOCKICON
1071
        0
1004
2800000020000000200000000100040000000000000200000000000000000000000000000000000000000000000080000080000000808000800000008000800080800000C0C0C000808080000000FF0000FF000000FFFF00FF000000FF00FF00FFFF0000FFFFFF00FFFFFFFAAAAAAAAAAAAAAAAAAFFFFFFF
1004
FFFFFFFAFFFFFAFFFFFFFFFFAFFFFFFFFFFFFFFAFFFFFAFFFFFFFFFFAFFFFFFFFFFFFFFAFFFFFAFFFFFFFFFFAFFFFFFFFFFFFFFAFFFFFAFFFFFFFFFFAFFFFFFFFFFFFFFAFFFFFAFFFFFFFFFFAFFFFFFFFFFFFFFAFFFFFAFFFFFFFFFFAFFFFFFFFFFFFFFAFFFFFAFFFFFFFFFFAFFFFFFFFFFFFFFAFFFFFAFF
1004
FFFFFFFFAFFFFFFFFFFFFFFAFFFFFAFFFFFFFFFFAFFFFFFFFFFFFFFAFFFFFAFFFFFFFFFFAFFFFFFFFFFFFFFAFFFFFAFFFFFFFFFFAFFFFFFFFFFFFFFAFFFFFAFFFFFFFFFFAFFFFFFFFFFFFFFAFFFFFAFFFFFFFFFFAFFFFFFFFFFFFFFAFFFFFAFFFFFFFFFFAFFFFFFFFFFFFFFAFFFFFAFFFFFFFFFFAFFFFFFF
1004
FFFFFFFAFFFFFAFFFFFFFFFFFFFFFFFFFFFFFFFAFFFFFAFFFFFFFFFFAFFFFFFFFFFFFFFAFFFFFAFFFFFFFFFFAFFFFFFFFFFFFFFAFFFFFAFFFFFFFFFFAFFFFFFFFFFFFFFAFFFFFAFFFFFFFFFFAFFFFFFFFFFFFFFAFFFFFAFFFFFFFFFFAFFFFFFFFFFFFFFAFFFFFAFFFFFFFFFFAFFFFFFFFFFFFFFAFFFFFAFF
1004
FFFFFFFFAFFFFFFFFFFFFFFAFFFFFAFFFFFFFFFFAFFFFFFFFFFFFFFAFFFFFAFFFFFFFFFFAFFFFFFFFFFFFFFAFFFFFAFFFFFFFFFFAFFFFFFFFFFFFFFAFFFFFAFFFFFFFFFFAFFFFFFFFFFFFFFAFFFFFAFFFFFFFFFFAFFFFFFFFFFFFFFAFFFFFAFFFFFFFFFFAFFFFFFFFFFFFFFAFFFFFAFFFFFFFFFFAFFFFFFF
1004
FFFFFFFAAAAAAAAAAAAAAAAAAFFFFFFF
  0
BLOCK_RECORD
  5
26B3
100
AcDbSymbolTableRecord
100
AcDbBlockTableRecord
  2
ASVORKBOK
1001
CONTENTBLOCKICON
1071
        0
1004
2800000020000000200000000100040000000000000200000000000000000000000000000000000000000000000080000080000000808000800000008000800080800000C0C0C000808080000000FF0000FF000000FFFF00FF000000FF00FF00FFFF0000FFFFFF00FFFFFFFFFFFFFFFFFFFFFFFFFFFFFFFF
1004
FAAAAAAAAAAAAAAAAAAAAAAAAAAAAAAFFAFFFFFFFFFFFFFFFFFFFFFFFFFFFFFAAAFFFFFFFFFFFFFFFFFFFFFFFFFFFFAAAAAFAAFFFFFFFFFFFFFFFFFFFFAAAFFAFAFAAAFFFFFFFFFFFFFFFFFFFFAFAFFAFAFFAFFFFFFFFFFFFFFFFFFFFFFAFFFAFAFFFFFFFFFFFFFFFFFFFFFFFFFFFFFAFAFFFFFFFFFFFFFF
1004
FFFFFFFFFFFFFFFAFAFFFFFFFFFFFFFFFFFFFFFFFFFFFFFAFAFFFFFFFFFFFFFFFFFFFFFFFFFFFFFAFAFFFFFFFFFFFFFFFFFFFFFFFFFFFFFAFAFFFFFFFFFFFFFFFFFFFFFFFFFFFFFAFAFFFFFFFFFFFFFFFFFFFFFFFFFFFFFAFAFFFFFFFFFFFFFFFFFFFFFFFFFFFFFAFAFFFFFFFFFFFFFFFFFFFFFFFFFFFFFA
1004
FAFFFFFFFFFFFFFFBFFFFFFFFFFFFFFAFAFFFFFFFFFFFFFFFFFFFFFFFFFFFFFAFAFFFFFFFFFFFFFFFFFFFFFFFFFFFFFAFAFFFFFFFFFFFFFFFFFFFFFFFFFFFFFAFAFFFFFFFFFFFFFFFFFFFFFFFFFFFFFAFAFFFFFFFFFFFFFFFFFFFFFFFFFFFFFAFAFFFFFFFFFFFFFFFFFFFFFFFFFFFFFAFAFFFFFFFFFFFFFF
1004
FFFFFFFFFFFFFFFAFAFFFFFFFFFFFFFFFFFFFFFFFFFFFFFAFAFFFFFFFFFFFFFFFFFFFFFFFFFFFFFAFAFFAFFFFFFFFFFFFFFFFFFFFFFAFFFAFAFAAAFFFFFFFFFFFFFFFFFFFFAFAFFAFAFFAAFFFFFFFFFFFFFFFFFFFFAAAFFAFAFFFFFFFFFFFFFFFFFFFFFFFFFFFFFAFAFFFFFFFFFFFFFFFFFFFFFFFFFFFFFA
1004
FAAAAAAAAAAAAAAAAAAAAAAAAAAAAAAF
  0
BLOCK_RECORD
  5
3F44
100
AcDbSymbolTableRecord
100
AcDbBlockTableRecord
  2
*D13
  0
BLOCK_RECORD
  5
4036
100
AcDbSymbolTableRecord
100
AcDbBlockTableRecord
  2
*D14
  0
BLOCK_RECORD
  5
4076
100
AcDbSymbolTableRecord
100
AcDbBlockTableRecord
  2
*D15
  0
BLOCK_RECORD
  5
4092
100
AcDbSymbolTableRecord
100
AcDbBlockTableRecord
  2
*D16
  0
BLOCK_RECORD
  5
409F
100
AcDbSymbolTableRecord
100
AcDbBlockTableRecord
  2
*D17
  0
BLOCK_RECORD
  5
41F9
100
AcDbSymbolTableRecord
100
AcDbBlockTableRecord
  2
*D18
  0
BLOCK_RECORD
  5
4205
100
AcDbSymbolTableRecord
100
AcDbBlockTableRecord
  2
*D19
  0
ENDTAB
  0
ENDSEC
  0
SECTION
  2
BLOCKS
  0
BLOCK
  5
1B
100
AcDbEntity
  8
0
100
AcDbBlockBegin
  2
*MODEL_SPACE
 70
     0
 10
0.0
 20
0.0
 30
0.0
  3
*MODEL_SPACE
  1

  0
ENDBLK
  5
1C
100
AcDbEntity
  8
0
100
AcDbBlockEnd
  0
BLOCK
  5
18
100
AcDbEntity
 67
     1
  8
0
100
AcDbBlockBegin
  2
*PAPER_SPACE
 70
     0
 10
0.0
 20
0.0
 30
0.0
  3
*PAPER_SPACE
  1

  0
ENDBLK
  5
19
100
AcDbEntity
 67
     1
  8
0
100
AcDbBlockEnd
  0
BLOCK
  5
91
100
AcDbEntity
  8
0
100
AcDbBlockBegin
  2
_OPEN
 70
     0
 10
0.0
 20
0.0
 30
0.0
  3
_OPEN
  1

  0
LINE
  5
92
100
AcDbEntity
  8
0
  6
BYBLOCK
 62
     0
100
AcDbLine
 10
-1.0
 20
0.166667
 30
0.0
 11
0.0
 21
0.0
 31
0.0
  0
LINE
  5
93
100
AcDbEntity
  8
0
  6
BYBLOCK
 62
     0
100
AcDbLine
 10
0.0
 20
0.0
 30
0.0
 11
-1.0
 21
-0.166667
 31
0.0
  0
LINE
  5
94
100
AcDbEntity
  8
0
  6
BYBLOCK
 62
     0
100
AcDbLine
 10
0.0
 20
0.0
 30
0.0
 11
-1.0
 21
0.0
 31
0.0
  0
ENDBLK
  5
95
100
AcDbEntity
  8
0
100
AcDbBlockEnd
  0
BLOCK
  5
32CE
100
AcDbEntity
  8
0
100
AcDbBlockBegin
  2
ASVORK
 70
     0
 10
0.0
 20
0.0
 30
0.0
  3
ASVORK
  1

  0
LINE
  5
32CF
100
AcDbEntity
  8
V0-OBRYS
  6
CONTINUOUS
 62
    90
100
AcDbLine
 10
-44.999998
 20
-40.000011
 30
0.0
 11
0.000002
 21
-40.000011
 31
0.0
  0
LINE
  5
32D0
100
AcDbEntity
  8
V0-OBRYS
  6
CONTINUOUS
 62
    90
100
AcDbLine
 10
-44.999998
 20
39.999989
 30
0.0
 11
0.000002
 21
39.999989
 31
0.0
  0
LINE
  5
32D1
100
AcDbEntity
  8
V0-OBRYS
  6
CONTINUOUS
 62
    90
100
AcDbLine
 10
-44.999998
 20
-0.000011
 30
0.0
 11
-44.999998
 21
-40.000011
 31
0.0
  0
LINE
  5
32D2
100
AcDbEntity
  8
V0-OBRYS
  6
CONTINUOUS
 62
    90
100
AcDbLine
 10
-29.999998
 20
-0.000011
 30
0.0
 11
-29.999998
 21
-40.000011
 31
0.0
  0
LINE
  5
32D3
100
AcDbEntity
  8
V0-OBRYS
  6
CONTINUOUS
 62
    90
100
AcDbLine
 10
-44.999998
 20
-0.000011
 30
0.0
 11
-44.999998
 21
39.999989
 31
0.0
  0
LINE
  5
32D4
100
AcDbEntity
  8
V0-OBRYS
  6
CONTINUOUS
 62
    90
100
AcDbLine
 10
-29.999998
 20
-0.000011
 30
0.0
 11
-29.999998
 21
39.999989
 31
0.0
  0
LINE
  5
32D5
100
AcDbEntity
  8
V0-OBRYS
  6
CONTINUOUS
 62
    90
100
AcDbLine
 10
0.000002
 20
-40.000011
 30
0.0
 11
0.000002
 21
-0.000011
 31
0.0
  0
LINE
  5
32D6
100
AcDbEntity
  8
V0-OBRYS
  6
CONTINUOUS
 62
    90
100
AcDbLine
 10
0.000002
 20
39.999989
 30
0.0
 11
0.000002
 21
-0.000011
 31
0.0
  0
ENDBLK
  5
32D7
100
AcDbEntity
  8
0
100
AcDbBlockEnd
  0
BLOCK
  5
26B4
100
AcDbEntity
  8
0
100
AcDbBlockBegin
  2
ASVORKBOK
 70
     0
 10
0.0
 20
0.0
 30
0.0
  3
ASVORKBOK
  1

  0
POINT
  5
26B5
100
AcDbEntity
  8
V0-VYPLNE
  6
DASHED
 62
    52
100
AcDbPoint
 10
0.0
 20
0.0
 30
0.0
  0
LINE
  5
26B6
100
AcDbEntity
  8
V0-OBRYS
  6
CONTINUOUS
 62
    90
100
AcDbLine
 10
36.1584
 20
40.176
 30
0.0
 11
-36.1584
 21
40.176
 31
0.0
  0
LINE
  5
26B7
100
AcDbEntity
  8
V0-OBRYS
  6
CONTINUOUS
 62
    90
100
AcDbLine
 10
-36.1584
 20
-40.176
 30
0.0
 11
36.1584
 21
-40.176
 31
0.0
  0
LINE
  5
26B8
100
AcDbEntity
  8
V0-OBRYS
  6
CONTINUOUS
 62
    90
100
AcDbLine
 10
-40.176
 20
36.1584
 30
0.0
 11
-40.176
 21
-36.1584
 31
0.0
  0
CIRCLE
  5
26B9
100
AcDbEntity
  8
V0-OBRYS
  6
CONTINUOUS
 62
    90
100
AcDbCircle
 10
-30.132
 20
-30.132
 30
0.0
 40
2.6784
  0
LINE
  5
26BA
100
AcDbEntity
  8
V0-OBRYS
  6
CONTINUOUS
 62
    90
100
AcDbLine
 10
-41.176195
 20
-33.63873
 30
0.0
 11
-34.765679
 21
-32.743337
 31
0.0
  0
LINE
  5
26BB
100
AcDbEntity
  8
V0-OBRYS
  6
CONTINUOUS
 62
    90
100
AcDbLine
 10
-41.957903
 20
-32.6585
 30
0.0
 11
-39.658484
 21
-26.607953
 31
0.0
  0
ARC
  5
26BC
100
AcDbEntity
  8
V0-OBRYS
  6
CONTINUOUS
 62
    90
100
AcDbCircle
 10
-36.1584
 20
-36.1584
 30
0.0
 40
4.0176
100
AcDbArc
 50
180.0
 51
270.0
  0
CIRCLE
  5
26BD
100
AcDbEntity
  8
V0-OBRYS
  6
CONTINUOUS
 62
    90
100
AcDbCircle
 10
-30.132
 20
30.132
 30
0.0
 40
2.6784
  0
ARC
  5
26BE
100
AcDbEntity
  8
V0-OBRYS
  6
CONTINUOUS
 62
    90
100
AcDbCircle
 10
-36.1584
 20
36.1584
 30
0.0
 40
4.0176
100
AcDbArc
 50
90.0
 51
180.0
  0
LINE
  5
26BF
100
AcDbEntity
  8
V0-OBRYS
  6
CONTINUOUS
 62
    90
100
AcDbLine
 10
40.176
 20
-36.1584
 30
0.0
 11
40.176
 21
36.1584
 31
0.0
  0
LINE
  5
26C0
100
AcDbEntity
  8
V0-OBRYS
  6
CONTINUOUS
 62
    90
100
AcDbLine
 10
41.176195
 20
-33.63873
 30
0.0
 11
34.765679
 21
-32.743337
 31
0.0
  0
ARC
  5
26C1
100
AcDbEntity
  8
V0-OBRYS
  6
CONTINUOUS
 62
    90
100
AcDbCircle
 10
36.1584
 20
-36.1584
 30
0.0
 40
4.0176
100
AcDbArc
 50
270.0
 51
0.0
  0
CIRCLE
  5
26C2
100
AcDbEntity
  8
V0-OBRYS
  6
CONTINUOUS
 62
    90
100
AcDbCircle
 10
30.132
 20
-30.132
 30
0.0
 40
2.6784
  0
CIRCLE
  5
26C3
100
AcDbEntity
  8
V0-OBRYS
  6
CONTINUOUS
 62
    90
100
AcDbCircle
 10
30.132
 20
30.132
 30
0.0
 40
2.6784
  0
ARC
  5
26C4
100
AcDbEntity
  8
V0-OBRYS
  6
CONTINUOUS
 62
    90
100
AcDbCircle
 10
36.1584
 20
36.1584
 30
0.0
 40
4.0176
100
AcDbArc
 50
0.0
 51
90.0
  0
ENDBLK
  5
26C5
100
AcDbEntity
  8
0
100
AcDbBlockEnd
  0
BLOCK
  5
445F
100
AcDbEntity
  8
0
100
AcDbBlockBegin
  2
*D13
 70
     1
 10
0.0
 20
0.0
 30
0.0
  3
*D13
  1

  0
LINE
  5
4460
100
AcDbEntity
  8
0
  6
BYBLOCK
 62
    41
100
AcDbLine
 10
1345.878441
 20
238.998643
 30
0.0
 11
1423.14136
 21
238.998643
 31
0.0
  0
LINE
  5
4461
100
AcDbEntity
  8
0
  6
BYBLOCK
 62
    41
100
AcDbLine
 10
1345.878441
 20
-261.000457
 30
0.0
 11
1423.14136
 21
-261.000457
 31
0.0
  0
LINE
  5
4462
100
AcDbEntity
  8
0
  6
BYBLOCK
 62
    41
100
AcDbLine
 10
1421.89136
 20
208.998643
 30
0.0
 11
1421.89136
 21
-231.000457
 31
0.0
  0
INSERT
  5
4463
100
AcDbEntity
  8
0
  6
BYBLOCK
 62
    41
100
AcDbBlockReference
  2
_OPEN
 10
1421.89136
 20
238.998643
 30
0.0
 41
30.0
 42
30.0
 43
30.0
 50
90.0
  0
INSERT
  5
4464
100
AcDbEntity
  8
0
  6
BYBLOCK
 62
    41
100
AcDbBlockReference
  2
_OPEN
 10
1421.89136
 20
-261.000457
 30
0.0
 41
30.0
 42
30.0
 43
30.0
 50
270.0
  0
MTEXT
  5
4465
100
AcDbEntity
  8
0
  6
BYBLOCK
 62
    41
100
AcDbMText
 10
1404.89136
 20
-11.000907
 30
0.0
 40
30.0
 41
0.0
 71
     5
 72
     1
  1
\A1;\U+2205500
  7
ED30
 11
0.0
 21
1.0
 31
0.0
  0
POINT
  5
4466
100
AcDbEntity
  8
DEFPOINTS
  6
BYBLOCK
 62
     0
100
AcDbPoint
 10
1344.878441
 20
238.998643
 30
0.0
  0
POINT
  5
4467
100
AcDbEntity
  8
DEFPOINTS
  6
BYBLOCK
 62
     0
100
AcDbPoint
 10
1344.878441
 20
-261.000457
 30
0.0
  0
POINT
  5
4468
100
AcDbEntity
  8
DEFPOINTS
  6
BYBLOCK
 62
     0
100
AcDbPoint
 10
1421.89136
 20
-261.000457
 30
0.0
  0
ENDBLK
  5
4469
100
AcDbEntity
  8
0
100
AcDbBlockEnd
  0
BLOCK
  5
43E1
100
AcDbEntity
  8
0
100
AcDbBlockBegin
  2
*D14
 70
     1
 10
0.0
 20
0.0
 30
0.0
  3
*D14
  1

  0
LINE
  5
43E2
100
AcDbEntity
  8
0
  6
BYBLOCK
 62
    41
100
AcDbLine
 10
1220.51027
 20
78.999813
 30
0.0
 11
1113.944394
 21
78.999813
 31
0.0
  0
LINE
  5
43E3
100
AcDbEntity
  8
0
  6
BYBLOCK
 62
    41
100
AcDbLine
 10
1220.51027
 20
-101.001627
 30
0.0
 11
1113.944394
 21
-101.001627
 31
0.0
  0
LINE
  5
43E4
100
AcDbEntity
  8
0
  6
BYBLOCK
 62
    41
100
AcDbLine
 10
1115.194394
 20
48.999813
 30
0.0
 11
1115.194394
 21
-71.001627
 31
0.0
  0
INSERT
  5
43E5
100
AcDbEntity
  8
0
  6
BYBLOCK
 62
    41
100
AcDbBlockReference
  2
_OPEN
 10
1115.194394
 20
78.999813
 30
0.0
 41
30.0
 42
30.0
 43
30.0
 50
90.0
  0
INSERT
  5
43E6
100
AcDbEntity
  8
0
  6
BYBLOCK
 62
    41
100
AcDbBlockReference
  2
_OPEN
 10
1115.194394
 20
-101.001627
 30
0.0
 41
30.0
 42
30.0
 43
30.0
 50
270.0
  0
MTEXT
  5
43E7
100
AcDbEntity
  8
0
  6
BYBLOCK
 62
    41
100
AcDbMText
 10
1098.194394
 20
-11.000907
 30
0.0
 40
30.0
 41
0.0
 71
     5
 72
     1
  1
\A1;\U+2205180
  7
ED30
 11
0.0
 21
1.0
 31
0.0
  0
POINT
  5
43E8
100
AcDbEntity
  8
DEFPOINTS
  6
BYBLOCK
 62
     0
100
AcDbPoint
 10
1221.51027
 20
78.999813
 30
0.0
  0
POINT
  5
43E9
100
AcDbEntity
  8
DEFPOINTS
  6
BYBLOCK
 62
     0
100
AcDbPoint
 10
1221.51027
 20
-101.001627
 30
0.0
  0
POINT
  5
43EA
100
AcDbEntity
  8
DEFPOINTS
  6
BYBLOCK
 62
     0
100
AcDbPoint
 10
1115.194394
 20
-101.001627
 30
0.0
  0
ENDBLK
  5
43EB
100
AcDbEntity
  8
0
100
AcDbBlockEnd
  0
BLOCK
  5
458A
100
AcDbEntity
  8
0
100
AcDbBlockBegin
  2
*D15
 70
     1
 10
0.0
 20
0.0
 30
0.0
  3
*D15
  1

  0
LINE
  5
458B
100
AcDbEntity
  8
0
  6
BYBLOCK
 62
    41
100
AcDbLine
 10
1236.721191
 20
-327.000907
 30
0.0
 11
1236.721191
 21
-372.138425
 31
0.0
  0
LINE
  5
458C
100
AcDbEntity
  8
0
  6
BYBLOCK
 62
    41
100
AcDbLine
 10
1248.321191
 20
-327.000907
 30
0.0
 11
1248.321191
 21
-372.138425
 31
0.0
  0
LINE
  5
458D
100
AcDbEntity
  8
0
  6
BYBLOCK
 62
    41
100
AcDbLine
 10
1206.721191
 20
-370.888425
 30
0.0
 11
1176.721191
 21
-370.888425
 31
0.0
  0
LINE
  5
458E
100
AcDbEntity
  8
0
  6
BYBLOCK
 62
    41
100
AcDbLine
 10
1278.321191
 20
-370.888425
 30
0.0
 11
1341.122963
 21
-370.888425
 31
0.0
  0
LINE
  5
458F
100
AcDbEntity
  8
0
  6
BYBLOCK
 62
    41
100
AcDbLine
 10
1236.721191
 20
-370.888425
 30
0.0
 11
1248.321191
 21
-370.888425
 31
0.0
  0
INSERT
  5
4590
100
AcDbEntity
  8
0
  6
BYBLOCK
 62
    41
100
AcDbBlockReference
  2
_OPEN
 10
1236.721191
 20
-370.888425
 30
0.0
 41
30.0
 42
30.0
 43
30.0
  0
INSERT
  5
4591
100
AcDbEntity
  8
0
  6
BYBLOCK
 62
    41
100
AcDbBlockReference
  2
_OPEN
 10
1248.321191
 20
-370.888425
 30
0.0
 41
30.0
 42
30.0
 43
30.0
 50
180.0
  0
MTEXT
  5
4592
100
AcDbEntity
  8
0
  6
BYBLOCK
 62
    41
100
AcDbMText
 10
1324.722077
 20
-353.885473
 30
0.0
 40
30.0
 41
0.0
 71
     5
 72
     1
  1
\A1;12
  7
ED30
  0
POINT
  5
4593
100
AcDbEntity
  8
DEFPOINTS
  6
BYBLOCK
 62
     0
100
AcDbPoint
 10
1236.721191
 20
-326.000907
 30
0.0
  0
POINT
  5
4594
100
AcDbEntity
  8
DEFPOINTS
  6
BYBLOCK
 62
     0
100
AcDbPoint
 10
1248.321191
 20
-326.000907
 30
0.0
  0
POINT
  5
4595
100
AcDbEntity
  8
DEFPOINTS
  6
BYBLOCK
 62
     0
100
AcDbPoint
 10
1248.321191
 20
-370.888425
 30
0.0
  0
ENDBLK
  5
4596
100
AcDbEntity
  8
0
100
AcDbBlockEnd
  0
BLOCK
  5
457F
100
AcDbEntity
  8
0
100
AcDbBlockBegin
  2
*D16
 70
     1
 10
0.0
 20
0.0
 30
0.0
  3
*D16
  1

  0
LINE
  5
4580
100
AcDbEntity
  8
0
  6
BYBLOCK
 62
    41
100
AcDbLine
 10
1248.321191
 20
-327.000907
 30
0.0
 11
1248.321191
 21
-424.664698
 31
0.0
  0
LINE
  5
4581
100
AcDbEntity
  8
0
  6
BYBLOCK
 62
    41
100
AcDbLine
 10
1344.878441
 20
-262.000457
 30
0.0
 11
1344.878441
 21
-424.664698
 31
0.0
  0
LINE
  5
4582
100
AcDbEntity
  8
0
  6
BYBLOCK
 62
    41
100
AcDbLine
 10
1278.321191
 20
-423.414698
 30
0.0
 11
1314.878441
 21
-423.414698
 31
0.0
  0
INSERT
  5
4583
100
AcDbEntity
  8
0
  6
BYBLOCK
 62
    41
100
AcDbBlockReference
  2
_OPEN
 10
1248.321191
 20
-423.414698
 30
0.0
 41
30.0
 42
30.0
 43
30.0
 50
180.0
  0
INSERT
  5
4584
100
AcDbEntity
  8
0
  6
BYBLOCK
 62
    41
100
AcDbBlockReference
  2
_OPEN
 10
1344.878441
 20
-423.414698
 30
0.0
 41
30.0
 42
30.0
 43
30.0
  0
MTEXT
  5
4585
100
AcDbEntity
  8
0
  6
BYBLOCK
 62
    41
100
AcDbMText
 10
1296.599816
 20
-406.414698
 30
0.0
 40
30.0
 41
0.0
 71
     5
 72
     1
  1
\A1;97
  7
ED30
  0
POINT
  5
4586
100
AcDbEntity
  8
DEFPOINTS
  6
BYBLOCK
 62
     0
100
AcDbPoint
 10
1248.321191
 20
-326.000907
 30
0.0
  0
POINT
  5
4587
100
AcDbEntity
  8
DEFPOINTS
  6
BYBLOCK
 62
     0
100
AcDbPoint
 10
1344.878441
 20
-261.000457
 30
0.0
  0
POINT
  5
4588
100
AcDbEntity
  8
DEFPOINTS
  6
BYBLOCK
 62
     0
100
AcDbPoint
 10
1344.878441
 20
-423.414698
 30
0.0
  0
ENDBLK
  5
4589
100
AcDbEntity
  8
0
100
AcDbBlockEnd
  0
BLOCK
  5
4574
100
AcDbEntity
  8
0
100
AcDbBlockBegin
  2
*D17
 70
     1
 10
0.0
 20
0.0
 30
0.0
  3
*D17
  1

  0
LINE
  5
4575
100
AcDbEntity
  8
0
  6
BYBLOCK
 62
    41
100
AcDbLine
 10
1194.689883
 20
-74.519427
 30
0.0
 11
1194.689883
 21
-471.588171
 31
0.0
  0
LINE
  5
4576
100
AcDbEntity
  8
0
  6
BYBLOCK
 62
    41
100
AcDbLine
 10
1344.878441
 20
-262.000457
 30
0.0
 11
1344.878441
 21
-471.588171
 31
0.0
  0
LINE
  5
4577
100
AcDbEntity
  8
0
  6
BYBLOCK
 62
    41
100
AcDbLine
 10
1224.689883
 20
-470.338171
 30
0.0
 11
1314.878441
 21
-470.338171
 31
0.0
  0
INSERT
  5
4578
100
AcDbEntity
  8
0
  6
BYBLOCK
 62
    41
100
AcDbBlockReference
  2
_OPEN
 10
1194.689883
 20
-470.338171
 30
0.0
 41
30.0
 42
30.0
 43
30.0
 50
180.0
  0
INSERT
  5
4579
100
AcDbEntity
  8
0
  6
BYBLOCK
 62
    41
100
AcDbBlockReference
  2
_OPEN
 10
1344.878441
 20
-470.338171
 30
0.0
 41
30.0
 42
30.0
 43
30.0
  0
MTEXT
  5
457A
100
AcDbEntity
  8
0
  6
BYBLOCK
 62
    41
100
AcDbMText
 10
1269.784162
 20
-453.338171
 30
0.0
 40
30.0
 41
0.0
 71
     5
 72
     1
  1
\A1;150
  7
ED30
  0
POINT
  5
457B
100
AcDbEntity
  8
DEFPOINTS
  6
BYBLOCK
 62
     0
100
AcDbPoint
 10
1194.689883
 20
-73.519427
 30
0.0
  0
POINT
  5
457C
100
AcDbEntity
  8
DEFPOINTS
  6
BYBLOCK
 62
     0
100
AcDbPoint
 10
1344.878441
 20
-261.000457
 30
0.0
  0
POINT
  5
457D
100
AcDbEntity
  8
DEFPOINTS
  6
BYBLOCK
 62
     0
100
AcDbPoint
 10
1344.878441
 20
-470.338171
 30
0.0
  0
ENDBLK
  5
457E
100
AcDbEntity
  8
0
100
AcDbBlockEnd
  0
BLOCK
  5
44C6
100
AcDbEntity
  8
0
100
AcDbBlockBegin
  2
*D18
 70
     1
 10
0.0
 20
0.0
 30
0.0
  3
*D18
  1

  0
LINE
  5
44C7
100
AcDbEntity
  8
0
  6
BYBLOCK
 62
    41
100
AcDbLine
 10
1514.941011
 20
-319.982379
 30
0.0
 11
1514.941011
 21
-508.821592
 31
0.0
  0
LINE
  5
44C8
100
AcDbEntity
  8
0
  6
BYBLOCK
 62
    41
100
AcDbLine
 10
2144.501372
 20
-319.982379
 30
0.0
 11
2144.501372
 21
-508.821592
 31
0.0
  0
LINE
  5
44C9
100
AcDbEntity
  8
0
  6
BYBLOCK
 62
    41
100
AcDbLine
 10
1544.941011
 20
-507.571592
 30
0.0
 11
2114.501372
 21
-507.571592
 31
0.0
  0
INSERT
  5
44CA
100
AcDbEntity
  8
0
  6
BYBLOCK
 62
    41
100
AcDbBlockReference
  2
_OPEN
 10
1514.941011
 20
-507.571592
 30
0.0
 41
30.0
 42
30.0
 43
30.0
 50
180.0
  0
INSERT
  5
44CB
100
AcDbEntity
  8
0
  6
BYBLOCK
 62
    41
100
AcDbBlockReference
  2
_OPEN
 10
2144.501372
 20
-507.571592
 30
0.0
 41
30.0
 42
30.0
 43
30.0
  0
MTEXT
  5
44CC
100
AcDbEntity
  8
0
  6
BYBLOCK
 62
    41
100
AcDbMText
 10
1833.10827
 20
-490.571592
 30
0.0
 40
30.0
 41
0.0
 71
     5
 72
     1
  1
\A1;630
  7
ED30
  0
POINT
  5
44CD
100
AcDbEntity
  8
DEFPOINTS
  6
BYBLOCK
 62
     0
100
AcDbPoint
 10
1514.941011
 20
-318.982379
 30
0.0
  0
POINT
  5
44CE
100
AcDbEntity
  8
DEFPOINTS
  6
BYBLOCK
 62
     0
100
AcDbPoint
 10
2144.501372
 20
-318.982379
 30
0.0
  0
POINT
  5
44CF
100
AcDbEntity
  8
DEFPOINTS
  6
BYBLOCK
 62
     0
100
AcDbPoint
 10
2144.501372
 20
-507.571592
 30
0.0
  0
ENDBLK
  5
44D0
100
AcDbEntity
  8
0
100
AcDbBlockEnd
  0
BLOCK
  5
44DD
100
AcDbEntity
  8
0
100
AcDbBlockBegin
  2
*D19
 70
     1
 10
0.0
 20
0.0
 30
0.0
  3
*D19
  1

  0
LINE
  5
44DE
100
AcDbEntity
  8
0
  6
BYBLOCK
 62
    41
100
AcDbLine
 10
1549.731259
 20
-324.656291
 30
0.0
 11
1549.731259
 21
-464.943568
 31
0.0
  0
LINE
  5
44DF
100
AcDbEntity
  8
0
  6
BYBLOCK
 62
    41
100
AcDbLine
 10
2109.711075
 20
-324.65634
 30
0.0
 11
2109.711075
 21
-464.943568
 31
0.0
  0
LINE
  5
44E0
100
AcDbEntity
  8
0
  6
BYBLOCK
 62
    41
100
AcDbLine
 10
1579.731259
 20
-463.693568
 30
0.0
 11
2079.711075
 21
-463.693568
 31
0.0
  0
INSERT
  5
44E1
100
AcDbEntity
  8
0
  6
BYBLOCK
 62
    41
100
AcDbBlockReference
  2
_OPEN
 10
1549.731259
 20
-463.693568
 30
0.0
 41
30.0
 42
30.0
 43
30.0
 50
180.0
  0
INSERT
  5
44E2
100
AcDbEntity
  8
0
  6
BYBLOCK
 62
    41
100
AcDbBlockReference
  2
_OPEN
 10
2109.711075
 20
-463.693568
 30
0.0
 41
30.0
 42
30.0
 43
30.0
  0
MTEXT
  5
44E3
100
AcDbEntity
  8
0
  6
BYBLOCK
 62
    41
100
AcDbMText
 10
1826.113368
 20
-446.693568
 30
0.0
 40
30.0
 41
0.0
 71
     5
 72
     1
  1
\A1;560
  7
ED30
  0
POINT
  5
44E4
100
AcDbEntity
  8
DEFPOINTS
  6
BYBLOCK
 62
     0
100
AcDbPoint
 10
1549.731259
 20
-323.656291
 30
0.0
  0
POINT
  5
44E5
100
AcDbEntity
  8
DEFPOINTS
  6
BYBLOCK
 62
     0
100
AcDbPoint
 10
2109.711075
 20
-323.65634
 30
0.0
  0
POINT
  5
44E6
100
AcDbEntity
  8
DEFPOINTS
  6
BYBLOCK
 62
     0
100
AcDbPoint
 10
2109.711075
 20
-463.693568
 30
0.0
  0
ENDBLK
  5
44E7
100
AcDbEntity
  8
0
100
AcDbBlockEnd
  0
ENDSEC
  0
SECTION
  2
ENTITIES
  0
TEXT
  5
3152
100
AcDbEntity
  8
V0-VYPLNE
  6
CONTINUOUS
 62
    51
100
AcDbText
 10
1597.346972
 20
-918.969343
 30
0.0
 40
43.2
  1
AXIALNI VENTILATOR
  7
ED30
100
AcDbText
  0
TEXT
  5
3153
100
AcDbEntity
  8
V0-VYPLNE
  6
CONTINUOUS
 62
    51
100
AcDbText
 10
1717.555071
 20
-989.935892
 30
0.0
 40
43.2
  1
NA STENU
  7
ED30
100
AcDbText
  0
TEXT
  5
3154
100
AcDbEntity
  8
V0-VYPLNE
 62
     6
100
AcDbText
 10
1713.349829
 20
-838.810548
 30
0.0
 40
57.6
  1
HCF-500
  7
ED40
100
AcDbText
  0
LINE
  5
3F3A
100
AcDbEntity
  8
V0-OBRYS
  6
CONTINUOUS
 62
    90
 48
2.0
100
AcDbLine
 10
1344.878441
 20
-261.000457
 30
0.0
 11
1287.083015
 21
-261.000457
 31
0.0
  0
LINE
  5
3F3B
100
AcDbEntity
  8
V0-OBRYS
  6
CONTINUOUS
 62
    90
 48
2.0
100
AcDbLine
 10
1344.878441
 20
238.998643
 30
0.0
 11
1287.083015
 21
238.998643
 31
0.0
  0
ARC
  5
3F3C
100
AcDbEntity
  8
V0-OBRYS
  6
CONTINUOUS
 62
    90
 48
2.0
100
AcDbCircle
 10
1287.083015
 20
-287.575207
 30
0.0
 40
26.57475
100
AcDbArc
 50
90.0
 51
149.420799
  0
LINE
  5
3F3D
100
AcDbEntity
  8
V0-OBRYS
  6
CONTINUOUS
 62
    90
 48
2.0
100
AcDbLine
 10
1247.980991
 20
-296.433457
 30
0.0
 11
1264.204101
 21
-274.055863
 31
0.0
  0
ARC
  5
3F3F
100
AcDbEntity
  8
V0-OBRYS
  6
CONTINUOUS
 62
    90
 48
2.0
100
AcDbCircle
 10
1287.083015
 20
265.573393
 30
0.0
 40
26.57475
100
AcDbArc
 50
210.579201
 51
270.0
  0
LINE
  5
3F40
100
AcDbEntity
  8
V0-OBRYS
  6
CONTINUOUS
 62
    90
 48
2.0
100
AcDbLine
 10
1247.980991
 20
274.431643
 30
0.0
 11
1264.204101
 21
252.054049
 31
0.0
  0
DIMENSION
  5
3F41
100
AcDbEntity
  8
V0-VYPLNE
  6
CONTINUOUS
 62
    41
100
AcDbDimension
  2
*D13
 10
1421.89136
 20
-261.000457
 30
0.0
 11
1404.89136
 21
-11.000907
 31
0.0
 70
    32
  1
%%c<>
  3
ED30
100
AcDbAlignedDimension
 13
1344.878441
 23
238.998643
 33
0.0
 14
1344.878441
 24
-261.000457
 34
0.0
 50
90.0
100
AcDbRotatedDimension
  0
LINE
  5
3F42
100
AcDbEntity
  8
V0-OBRYS
  6
CONTINUOUS
 62
    90
 48
2.0
100
AcDbLine
 10
1344.878441
 20
-11.000907
 30
0.0
 11
1344.878441
 21
238.998643
 31
0.0
  0
LINE
  5
3F43
100
AcDbEntity
  8
V0-OBRYS
  6
CONTINUOUS
 62
    90
 48
2.0
100
AcDbLine
 10
1344.878441
 20
-11.000907
 30
0.0
 11
1344.878441
 21
-261.000457
 31
0.0
  0
LINE
  5
3F5C
100
AcDbEntity
  8
V0-VYPLNE
  6
DASHED
 62
    52
100
AcDbLine
 10
1263.681671
 20
-119.17372
 30
0.0
 11
1279.815098
 21
-255.621978
 31
0.0
  0
LINE
  5
3F5D
100
AcDbEntity
  8
V0-VYPLNE
  6
DASHED
 62
    52
100
AcDbLine
 10
1335.760398
 20
-119.17372
 30
0.0
 11
1319.62697
 21
-255.621978
 31
0.0
  0
LINE
  5
3F6B
100
AcDbEntity
  8
V0-VYPLNE
  6
DASHED
 62
    52
100
AcDbLine
 10
1279.815098
 20
-255.621978
 30
0.0
 11
1319.62697
 21
-255.621978
 31
0.0
  0
ELLIPSE
  5
3F6C
100
AcDbEntity
  8
V0-VYPLNE
  6
DASHED
 62
    52
100
AcDbEllipse
 10
272.99323
 20
-22.154234
 30
0.0
 11
-0.0000000000011424
 21
1174.336946726076
 31
0.0
210
0.0
220
0.0
230
-1.0
 40
0.909091
 41
1.480829966572604
 42
1.560998901912743
  0
LINE
  5
3F6D
100
AcDbEntity
  8
V0-VYPLNE
  6
DASHED
 62
    52
100
AcDbLine
 10
1263.721034
 20
-10.64894
 30
0.0
 11
1263.721034
 21
89.67106
 31
0.0
  0
LINE
  5
3F6E
100
AcDbEntity
  8
V0-VYPLNE
  6
DASHED
 62
    52
100
AcDbLine
 10
1299.721034
 20
94.700482
 30
0.0
 11
1299.721034
 21
-10.64894
 31
0.0
  0
LINE
  5
3F6F
100
AcDbEntity
  8
V0-VYPLNE
  6
DASHDOT
 62
    63
100
AcDbLine
 10
1220.917908
 20
-11.001013
 30
0.0
 11
1363.902694
 21
-11.001013
 31
0.0
  0
ELLIPSE
  5
3F70
100
AcDbEntity
  8
V0-VYPLNE
  6
DASHED
 62
    52
100
AcDbEllipse
 10
1299.721034
 20
42.414984
 30
0.0
 11
-0.0000000000005955
 21
158.4133457296311
 31
0.0
210
0.0
220
0.0
230
-1.0
 40
0.909091
 41
2.929991421004501
 42
3.394251156505874
  0
LINE
  5
3F71
100
AcDbEntity
  8
V0-VYPLNE
  6
DASHED
 62
    52
100
AcDbLine
 10
1264.356234
 20
-22.695027
 30
0.0
 11
1338.465076
 21
1.810408
 31
0.0
  0
LINE
  5
3F72
100
AcDbEntity
  8
V0-VYPLNE
  6
DASHED
 62
    52
100
AcDbLine
 10
1299.721034
 20
-115.998362
 30
0.0
 11
1299.721034
 21
-10.64894
 31
0.0
  0
LINE
  5
3F73
100
AcDbEntity
  8
V0-VYPLNE
  6
DASHED
 62
    52
100
AcDbLine
 10
1263.721034
 20
-10.64894
 30
0.0
 11
1263.721034
 21
-110.96894
 31
0.0
  0
LINE
  5
3F74
100
AcDbEntity
  8
V0-VYPLNE
  6
DASHED
 62
    52
100
AcDbLine
 10
1269.827739
 20
-112.41928
 30
0.0
 11
1263.681671
 21
-119.17372
 31
0.0
  0
ELLIPSE
  5
3F75
100
AcDbEntity
  8
V0-VYPLNE
  6
DASHED
 62
    52
100
AcDbEllipse
 10
1299.721034
 20
-11.001013
 30
0.0
 11
0.0000000000007164
 21
7.458195139447457
 31
0.0
210
0.0
220
0.0
230
-1.0
 40
0.909091
 41
0.0
 42
6.283185307179586
  0
ELLIPSE
  5
3F76
100
AcDbEntity
  8
V0-VYPLNE
  6
DASHED
 62
    52
100
AcDbEllipse
 10
272.99323
 20
0.856354
 30
0.0
 11
0.0
 21
1174.336946726076
 31
0.0
210
0.0
220
0.0
230
-1.0
 40
0.909091
 41
1.580593751677049
 42
1.660762687017188
  0
LINE
  5
3F77
100
AcDbEntity
  8
V0-VYPLNE
  6
DASHED
 62
    52
100
AcDbLine
 10
1329.614329
 20
-112.41928
 30
0.0
 11
1335.760398
 21
-119.17372
 31
0.0
  0
ELLIPSE
  5
3F78
100
AcDbEntity
  8
V0-VYPLNE
  6
DASHED
 62
    52
100
AcDbEllipse
 10
1328.287076
 20
-103.861366
 30
0.0
 11
0.0000000000004001
 21
8.799999999999997
 31
0.0
210
0.0
220
0.0
230
-1.0
 40
0.909091
 41
1.660762687017187
 42
2.929991421004503
  0
LINE
  5
3F79
100
AcDbEntity
  8
V0-VYPLNE
  6
DASHED
 62
    52
100
AcDbLine
 10
1279.815098
 20
234.324098
 30
0.0
 11
1319.62697
 21
234.324098
 31
0.0
  0
ELLIPSE
  5
3F7A
100
AcDbEntity
  8
V0-VYPLNE
  6
DASHED
 62
    52
100
AcDbEllipse
 10
1299.721034
 20
-63.712864
 30
0.0
 11
-0.0000000000005955
 21
158.4133457296311
 31
0.0
210
0.0
220
0.0
230
-1.0
 40
0.909091
 41
6.030526804263504
 42
6.494786539764878
  0
LINE
  5
3F7B
100
AcDbEntity
  8
V0-VYPLNE
  6
DASHED
 62
    52
100
AcDbLine
 10
1263.681671
 20
97.87584
 30
0.0
 11
1279.815098
 21
234.324098
 31
0.0
  0
LINE
  5
3F7C
100
AcDbEntity
  8
V0-VYPLNE
  6
DASHED
 62
    52
100
AcDbLine
 10
1269.827739
 20
91.1214
 30
0.0
 11
1263.681671
 21
97.87584
 31
0.0
  0
LINE
  5
3F7D
100
AcDbEntity
  8
V0-VYPLNE
  6
DASHED
 62
    52
100
AcDbLine
 10
1335.760398
 20
97.87584
 30
0.0
 11
1319.62697
 21
234.324098
 31
0.0
  0
LINE
  5
3F7E
100
AcDbEntity
  8
V0-VYPLNE
  6
DASHED
 62
    52
100
AcDbLine
 10
1329.614329
 20
91.1214
 30
0.0
 11
1335.760398
 21
97.87584
 31
0.0
  0
LINE
  5
3F8B
100
AcDbEntity
  8
V0-OBRYS
  6
CONTINUOUS
 62
    90
 48
2.0
100
AcDbLine
 10
1236.721191
 20
303.999093
 30
0.0
 11
1236.721191
 21
-11.000907
 31
0.0
  0
LINE
  5
3F91
100
AcDbEntity
  8
V0-OBRYS
  6
CONTINUOUS
 62
    90
 48
2.0
100
AcDbLine
 10
1236.721191
 20
-326.000907
 30
0.0
 11
1236.721191
 21
-11.000907
 31
0.0
  0
LINE
  5
3F92
100
AcDbEntity
  8
V0-OBRYS
  6
CONTINUOUS
 62
    90
 48
2.0
100
AcDbLine
 10
1219.090934
 20
-242.568871
 30
0.0
 11
1219.090934
 21
-139.25365
 31
0.0
  0
LINE
  5
3F93
100
AcDbEntity
  8
V0-OBRYS
  6
CONTINUOUS
 62
    90
 48
2.0
100
AcDbLine
 10
1221.901635
 20
-242.568871
 30
0.0
 11
1221.901635
 21
-139.25365
 31
0.0
  0
LINE
  5
3F94
100
AcDbEntity
  8
V0-OBRYS
  6
CONTINUOUS
 62
    90
 48
2.0
100
AcDbLine
 10
1248.321191
 20
-326.000907
 30
0.0
 11
1236.721191
 21
-326.000907
 31
0.0
  0
ARC
  5
3F95
100
AcDbEntity
  8
V0-OBRYS
  6
CONTINUOUS
 62
    90
 48
2.0
100
AcDbCircle
 10
1158.09928
 20
-287.745369
 30
0.0
 40
78.654444
100
AcDbArc
 50
2.178969
 51
29.949442
  0
ARC
  5
3F96
100
AcDbEntity
  8
V0-OBRYS
  6
CONTINUOUS
 62
    90
 48
2.0
100
AcDbCircle
 10
1147.438277
 20
-288.689819
 30
0.0
 40
86.537385
100
AcDbArc
 50
2.606215
 51
25.700174
  0
ARC
  5
3F97
100
AcDbEntity
  8
V0-OBRYS
  6
CONTINUOUS
 62
    90
 48
2.0
100
AcDbCircle
 10
1228.090934
 20
-242.568871
 30
0.0
 40
6.189299
100
AcDbArc
 50
180.0
 51
252.703019
  0
ARC
  5
3F98
100
AcDbEntity
  8
V0-OBRYS
  6
CONTINUOUS
 62
    90
 48
2.0
100
AcDbCircle
 10
1228.090934
 20
-242.568871
 30
0.0
 40
9.0
100
AcDbArc
 50
180.0
 51
252.703019
  0
CIRCLE
  5
3F99
100
AcDbEntity
  8
V0-OBRYS
  6
CONTINUOUS
 62
    90
 48
2.0
100
AcDbCircle
 10
1216.195912
 20
-235.42224
 30
0.0
 40
2.894689
  0
CIRCLE
  5
3F9A
100
AcDbEntity
  8
V0-OBRYS
  6
CONTINUOUS
 62
    90
 48
2.0
100
AcDbCircle
 10
1216.195912
 20
-213.82224
 30
0.0
 40
2.894689
  0
LINE
  5
3F9B
100
AcDbEntity
  8
V0-OBRYS
  6
CONTINUOUS
 62
    90
 48
2.0
100
AcDbLine
 10
1233.886152
 20
-301.546817
 30
0.0
 11
1233.886152
 21
-284.754848
 31
0.0
  0
ARC
  5
3F9C
100
AcDbEntity
  8
V0-OBRYS
  6
CONTINUOUS
 62
    90
 48
2.0
100
AcDbCircle
 10
1235.303672
 20
-301.546817
 30
0.0
 40
1.41752
100
AcDbArc
 50
180.0
 51
0.0
  0
ARC
  5
3F9D
100
AcDbEntity
  8
V0-OBRYS
  6
CONTINUOUS
 62
    90
 48
2.0
100
AcDbCircle
 10
1227.721191
 20
-120.257783
 30
0.0
 40
9.0
100
AcDbArc
 50
289.78203
 51
0.0
  0
LINE
  5
3F9E
100
AcDbEntity
  8
V0-OBRYS
  6
CONTINUOUS
 62
    90
 48
2.0
100
AcDbLine
 10
1225.044948
 20
-130.784767
 30
0.0
 11
1230.767177
 21
-128.726666
 31
0.0
  0
LINE
  5
3F9F
100
AcDbEntity
  8
V0-OBRYS
  6
CONTINUOUS
 62
    90
 48
2.0
100
AcDbLine
 10
1225.99621
 20
-133.4296
 30
0.0
 11
1231.718438
 21
-131.371498
 31
0.0
  0
ARC
  5
3FA0
100
AcDbEntity
  8
V0-OBRYS
  6
CONTINUOUS
 62
    90
 48
2.0
100
AcDbCircle
 10
1228.090934
 20
-139.25365
 30
0.0
 40
6.189299
100
AcDbArc
 50
109.78203
 51
180.0
  0
ARC
  5
3FA1
100
AcDbEntity
  8
V0-OBRYS
  6
CONTINUOUS
 62
    90
 48
2.0
100
AcDbCircle
 10
1228.090934
 20
-139.25365
 30
0.0
 40
9.0
100
AcDbArc
 50
109.78203
 51
180.0
  0
CIRCLE
  5
3FA2
100
AcDbEntity
  8
V0-OBRYS
  6
CONTINUOUS
 62
    90
 48
2.0
100
AcDbCircle
 10
1216.195912
 20
-192.22224
 30
0.0
 40
2.894689
  0
CIRCLE
  5
3FA3
100
AcDbEntity
  8
V0-OBRYS
  6
CONTINUOUS
 62
    90
 48
2.0
100
AcDbCircle
 10
1216.195912
 20
-170.62224
 30
0.0
 40
2.894689
  0
CIRCLE
  5
3FA4
100
AcDbEntity
  8
V0-OBRYS
  6
CONTINUOUS
 62
    90
 48
2.0
100
AcDbCircle
 10
1216.195912
 20
-149.02224
 30
0.0
 40
2.894689
  0
ARC
  5
3FA5
100
AcDbEntity
  8
V0-OBRYS
  6
CONTINUOUS
 62
    90
 48
2.0
100
AcDbCircle
 10
1227.721191
 20
-120.257783
 30
0.0
 40
11.810701
100
AcDbArc
 50
289.78203
 51
319.642674
  0
ARC
  5
3FA6
100
AcDbEntity
  8
V0-OBRYS
  6
CONTINUOUS
 62
    90
 48
2.0
100
AcDbCircle
 10
1228.090934
 20
117.251836
 30
0.0
 40
6.189299
100
AcDbArc
 50
180.0
 51
250.21797
  0
ARC
  5
3FA7
100
AcDbEntity
  8
V0-OBRYS
  6
CONTINUOUS
 62
    90
 48
2.0
100
AcDbCircle
 10
1228.090934
 20
117.251836
 30
0.0
 40
9.0
100
AcDbArc
 50
180.0
 51
250.21797
  0
LINE
  5
3FA8
100
AcDbEntity
  8
V0-OBRYS
  6
CONTINUOUS
 62
    90
 48
2.0
100
AcDbLine
 10
1225.99621
 20
111.427787
 30
0.0
 11
1231.718438
 21
109.369685
 31
0.0
  0
LINE
  5
3FA9
100
AcDbEntity
  8
V0-OBRYS
  6
CONTINUOUS
 62
    90
 48
2.0
100
AcDbLine
 10
1225.044948
 20
108.782954
 30
0.0
 11
1230.767177
 21
106.724852
 31
0.0
  0
ARC
  5
3FAA
100
AcDbEntity
  8
V0-OBRYS
  6
CONTINUOUS
 62
    90
 48
2.0
100
AcDbCircle
 10
1227.721191
 20
98.255969
 30
0.0
 40
11.810701
100
AcDbArc
 50
40.357326
 51
70.21797
  0
ARC
  5
3FAB
100
AcDbEntity
  8
V0-OBRYS
  6
CONTINUOUS
 62
    90
 48
2.0
100
AcDbCircle
 10
1227.721191
 20
98.255969
 30
0.0
 40
9.0
100
AcDbArc
 50
0.0
 51
70.21797
  0
CIRCLE
  5
3FAC
100
AcDbEntity
  8
V0-OBRYS
  6
CONTINUOUS
 62
    90
 48
2.0
100
AcDbCircle
 10
1216.32239
 20
191.820426
 30
0.0
 40
2.894689
  0
LINE
  5
3FAD
100
AcDbEntity
  8
V0-OBRYS
  6
CONTINUOUS
 62
    90
 48
2.0
100
AcDbLine
 10
1221.901635
 20
220.567058
 30
0.0
 11
1221.901635
 21
117.251836
 31
0.0
  0
LINE
  5
3FAE
100
AcDbEntity
  8
V0-OBRYS
  6
CONTINUOUS
 62
    90
 48
2.0
100
AcDbLine
 10
1219.090934
 20
220.567058
 30
0.0
 11
1219.090934
 21
117.251836
 31
0.0
  0
CIRCLE
  5
3FAF
100
AcDbEntity
  8
V0-OBRYS
  6
CONTINUOUS
 62
    90
 48
2.0
100
AcDbCircle
 10
1216.32239
 20
170.220426
 30
0.0
 40
2.894689
  0
CIRCLE
  5
3FB0
100
AcDbEntity
  8
V0-OBRYS
  6
CONTINUOUS
 62
    90
 48
2.0
100
AcDbCircle
 10
1216.32239
 20
127.020426
 30
0.0
 40
2.894689
  0
CIRCLE
  5
3FB1
100
AcDbEntity
  8
V0-OBRYS
  6
CONTINUOUS
 62
    90
 48
2.0
100
AcDbCircle
 10
1216.32239
 20
148.620426
 30
0.0
 40
2.894689
  0
ARC
  5
3FB2
100
AcDbEntity
  8
V0-OBRYS
  6
CONTINUOUS
 62
    90
 48
2.0
100
AcDbCircle
 10
1158.09928
 20
265.743555
 30
0.0
 40
78.654444
100
AcDbArc
 50
330.050558
 51
357.821031
  0
ARC
  5
3FB3
100
AcDbEntity
  8
V0-OBRYS
  6
CONTINUOUS
 62
    90
 48
2.0
100
AcDbCircle
 10
1147.438277
 20
266.688006
 30
0.0
 40
86.537385
100
AcDbArc
 50
334.299826
 51
357.393785
  0
ARC
  5
3FB4
100
AcDbEntity
  8
V0-OBRYS
  6
CONTINUOUS
 62
    90
 48
2.0
100
AcDbCircle
 10
1228.090934
 20
220.567058
 30
0.0
 40
6.189299
100
AcDbArc
 50
107.296981
 51
180.0
  0
CIRCLE
  5
3FB5
100
AcDbEntity
  8
V0-OBRYS
  6
CONTINUOUS
 62
    90
 48
2.0
100
AcDbCircle
 10
1216.32239
 20
213.420426
 30
0.0
 40
2.894689
  0
ARC
  5
3FB6
100
AcDbEntity
  8
V0-OBRYS
  6
CONTINUOUS
 62
    90
 48
2.0
100
AcDbCircle
 10
1228.090934
 20
220.567058
 30
0.0
 40
9.0
100
AcDbArc
 50
107.296981
 51
180.0
  0
ARC
  5
3FB7
100
AcDbEntity
  8
V0-OBRYS
  6
CONTINUOUS
 62
    90
 48
2.0
100
AcDbCircle
 10
1235.303672
 20
279.545004
 30
0.0
 40
1.41752
100
AcDbArc
 50
0.0
 51
180.0
  0
LINE
  5
3FB8
100
AcDbEntity
  8
V0-OBRYS
  6
CONTINUOUS
 62
    90
 48
2.0
100
AcDbLine
 10
1233.886152
 20
279.545004
 30
0.0
 11
1233.886152
 21
262.753034
 31
0.0
  0
LINE
  5
3FB9
100
AcDbEntity
  8
V0-OBRYS
  6
CONTINUOUS
 62
    90
 48
2.0
100
AcDbLine
 10
1248.321191
 20
303.999093
 30
0.0
 11
1236.721191
 21
303.999093
 31
0.0
  0
LINE
  5
4016
100
AcDbEntity
  8
V0-OBRYS
  6
CONTINUOUS
 62
    90
 48
2.0
100
AcDbLine
 10
1220.499806
 20
57.577264
 30
0.0
 11
1195.448036
 21
42.428131
 31
0.0
  0
LINE
  5
4017
100
AcDbEntity
  8
V0-OBRYS
  6
CONTINUOUS
 62
    90
 48
2.0
100
AcDbLine
 10
1221.257965
 20
73.483856
 30
0.0
 11
1194.689883
 21
51.517613
 31
0.0
  0
LINE
  5
4018
100
AcDbEntity
  8
V0-OBRYS
  6
CONTINUOUS
 62
    90
 48
2.0
100
AcDbLine
 10
1220.499806
 20
2.282927
 30
0.0
 11
1194.689883
 21
1.525471
 31
0.0
  0
LINE
  5
4019
100
AcDbEntity
  8
V0-OBRYS
  6
CONTINUOUS
 62
    90
 48
2.0
100
AcDbLine
 10
1220.499806
 20
20.461888
 30
0.0
 11
1194.689883
 21
17.43206
 31
0.0
  0
LINE
  5
401A
100
AcDbEntity
  8
V0-OBRYS
  6
CONTINUOUS
 62
    90
 48
2.0
100
AcDbLine
 10
1221.257965
 20
38.640846
 30
0.0
 11
1193.931724
 21
31.823736
 31
0.0
  0
LINE
  5
401B
100
AcDbEntity
  8
V0-OBRYS
  6
CONTINUOUS
 62
    90
 48
2.0
100
AcDbLine
 10
1220.499806
 20
-42.463702
 30
0.0
 11
1194.689883
 21
-39.433874
 31
0.0
  0
LINE
  5
401C
100
AcDbEntity
  8
V0-OBRYS
  6
CONTINUOUS
 62
    90
 48
2.0
100
AcDbLine
 10
1220.499806
 20
-24.284741
 30
0.0
 11
1194.689883
 21
-23.527285
 31
0.0
  0
LINE
  5
401D
100
AcDbEntity
  8
V0-OBRYS
  6
CONTINUOUS
 62
    90
 48
2.0
100
AcDbLine
 10
1221.257965
 20
-60.64266
 30
0.0
 11
1193.931724
 21
-53.82555
 31
0.0
  0
LINE
  5
401E
100
AcDbEntity
  8
V0-OBRYS
  6
CONTINUOUS
 62
    90
 48
2.0
100
AcDbLine
 10
1221.257965
 20
-95.48567
 30
0.0
 11
1194.689883
 21
-73.519427
 31
0.0
  0
LINE
  5
401F
100
AcDbEntity
  8
V0-OBRYS
  6
CONTINUOUS
 62
    90
 48
2.0
100
AcDbLine
 10
1220.499806
 20
-79.579078
 30
0.0
 11
1195.448036
 21
-64.429945
 31
0.0
  0
DIMENSION
  5
4020
100
AcDbEntity
  8
V0-VYPLNE
  6
CONTINUOUS
 62
    41
100
AcDbDimension
  2
*D14
 10
1115.194394
 20
-101.001627
 30
0.0
 11
1115.194394
 21
-11.000907
 31
0.0
 70
   160
  1
%%c<>
  3
ED30
100
AcDbAlignedDimension
 13
1221.51027
 23
78.999813
 33
0.0
 14
1221.51027
 24
-101.001627
 34
0.0
 50
90.0
100
AcDbRotatedDimension
  0
LINE
  5
4021
100
AcDbEntity
  8
V0-OBRYS
  6
CONTINUOUS
 62
    90
 48
2.0
100
AcDbLine
 10
1207.29963
 20
-101.001627
 30
0.0
 11
1236.72115
 21
-101.001627
 31
0.0
  0
LINE
  5
4022
100
AcDbEntity
  8
V0-OBRYS
  6
CONTINUOUS
 62
    90
 48
2.0
100
AcDbLine
 10
1207.29963
 20
78.999813
 30
0.0
 11
1236.72115
 21
78.999813
 31
0.0
  0
LINE
  5
4023
100
AcDbEntity
  8
V0-OBRYS
  6
CONTINUOUS
 62
    90
 48
2.0
100
AcDbLine
 10
1194.51003
 20
-11.000907
 30
0.0
 11
1194.51003
 21
-85.212027
 31
0.0
  0
ARC
  5
4024
100
AcDbEntity
  8
V0-OBRYS
  6
CONTINUOUS
 62
    90
 48
2.0
100
AcDbCircle
 10
1207.779924
 20
-87.53799
 30
0.0
 40
13.472201
100
AcDbArc
 50
170.05812
 51
267.95693
  0
LINE
  5
4025
100
AcDbEntity
  8
V0-OBRYS
  6
CONTINUOUS
 62
    90
 48
2.0
100
AcDbLine
 10
1194.51003
 20
-11.000907
 30
0.0
 11
1194.51003
 21
63.210213
 31
0.0
  0
ARC
  5
4026
100
AcDbEntity
  8
V0-OBRYS
  6
CONTINUOUS
 62
    90
 48
2.0
100
AcDbCircle
 10
1207.779924
 20
65.536177
 30
0.0
 40
13.472201
100
AcDbArc
 50
92.04307
 51
189.94188
  0
LINE
  5
4028
100
AcDbEntity
  8
V0-OBRYS
  6
CONTINUOUS
 62
    90
 48
2.0
100
AcDbLine
 10
1221.51027
 20
-11.000907
 30
0.0
 11
1221.51027
 21
-101.001627
 31
0.0
  0
LINE
  5
4029
100
AcDbEntity
  8
V0-OBRYS
  6
CONTINUOUS
 62
    90
 48
2.0
100
AcDbLine
 10
1221.257965
 20
-95.48567
 30
0.0
 11
1236.72115
 21
-95.48567
 31
0.0
  0
LINE
  5
402A
100
AcDbEntity
  8
V0-OBRYS
  6
CONTINUOUS
 62
    90
 48
2.0
100
AcDbLine
 10
1225.048742
 20
-42.463702
 30
0.0
 11
1236.72115
 21
-42.463702
 31
0.0
  0
LINE
  5
402B
100
AcDbEntity
  8
V0-OBRYS
  6
CONTINUOUS
 62
    90
 48
2.0
100
AcDbLine
 10
1221.257965
 20
-60.64266
 30
0.0
 11
1236.72115
 21
-60.64266
 31
0.0
  0
LINE
  5
402C
100
AcDbEntity
  8
V0-OBRYS
  6
CONTINUOUS
 62
    90
 48
2.0
100
AcDbLine
 10
1220.499806
 20
-79.579078
 30
0.0
 11
1236.72115
 21
-79.579078
 31
0.0
  0
LINE
  5
402D
100
AcDbEntity
  8
V0-OBRYS
  6
CONTINUOUS
 62
    90
 48
2.0
100
AcDbLine
 10
1220.499806
 20
-42.463702
 30
0.0
 11
1225.048742
 21
-42.463702
 31
0.0
  0
LINE
  5
402E
100
AcDbEntity
  8
V0-OBRYS
  6
CONTINUOUS
 62
    90
 48
2.0
100
AcDbLine
 10
1221.51027
 20
-11.000907
 30
0.0
 11
1221.51027
 21
78.999813
 31
0.0
  0
LINE
  5
402F
100
AcDbEntity
  8
V0-OBRYS
  6
CONTINUOUS
 62
    90
 48
2.0
100
AcDbLine
 10
1225.048742
 20
20.461888
 30
0.0
 11
1236.72115
 21
20.461888
 31
0.0
  0
LINE
  5
4030
100
AcDbEntity
  8
V0-OBRYS
  6
CONTINUOUS
 62
    90
 48
2.0
100
AcDbLine
 10
1220.499806
 20
-24.284741
 30
0.0
 11
1236.72115
 21
-24.284741
 31
0.0
  0
LINE
  5
4031
100
AcDbEntity
  8
V0-OBRYS
  6
CONTINUOUS
 62
    90
 48
2.0
100
AcDbLine
 10
1220.499806
 20
2.282927
 30
0.0
 11
1236.72115
 21
2.282927
 31
0.0
  0
LINE
  5
4032
100
AcDbEntity
  8
V0-OBRYS
  6
CONTINUOUS
 62
    90
 48
2.0
100
AcDbLine
 10
1221.257965
 20
38.640846
 30
0.0
 11
1236.72115
 21
38.640846
 31
0.0
  0
LINE
  5
4033
100
AcDbEntity
  8
V0-OBRYS
  6
CONTINUOUS
 62
    90
 48
2.0
100
AcDbLine
 10
1220.499806
 20
20.461888
 30
0.0
 11
1225.048742
 21
20.461888
 31
0.0
  0
LINE
  5
4034
100
AcDbEntity
  8
V0-OBRYS
  6
CONTINUOUS
 62
    90
 48
2.0
100
AcDbLine
 10
1220.499806
 20
57.577264
 30
0.0
 11
1236.72115
 21
57.577264
 31
0.0
  0
LINE
  5
4035
100
AcDbEntity
  8
V0-OBRYS
  6
CONTINUOUS
 62
    90
 48
2.0
100
AcDbLine
 10
1221.257965
 20
73.483856
 30
0.0
 11
1236.72115
 21
73.483856
 31
0.0
  0
LINE
  5
404E
100
AcDbEntity
  8
V0-VYPLNE
  6
DASHED
 62
    52
100
AcDbLine
 10
1255.992166
 20
-93.106827
 30
0.0
 11
1255.992166
 21
-11.000907
 31
0.0
  0
LINE
  5
4050
100
AcDbEntity
  8
V0-VYPLNE
  6
DASHED
 62
    52
100
AcDbLine
 10
1236.721237
 20
-95.48567
 30
0.0
 11
1255.992166
 21
-95.48567
 31
0.0
  0
LINE
  5
4051
100
AcDbEntity
  8
V0-VYPLNE
  6
DASHED
 62
    52
100
AcDbLine
 10
1236.721237
 20
-101.001627
 30
0.0
 11
1248.097366
 21
-101.001627
 31
0.0
  0
LINE
  5
4052
100
AcDbEntity
  8
V0-VYPLNE
  6
DASHED
 62
    52
100
AcDbLine
 10
1236.721237
 20
-79.579078
 30
0.0
 11
1255.992166
 21
-79.579078
 31
0.0
  0
LINE
  5
4053
100
AcDbEntity
  8
V0-VYPLNE
  6
DASHED
 62
    52
100
AcDbLine
 10
1236.721237
 20
-60.64266
 30
0.0
 11
1255.234013
 21
-60.64266
 31
0.0
  0
LINE
  5
4054
100
AcDbEntity
  8
V0-VYPLNE
  6
DASHED
 62
    52
100
AcDbLine
 10
1236.721237
 20
-42.463702
 30
0.0
 11
1255.992166
 21
-42.463702
 31
0.0
  0
ARC
  5
4055
100
AcDbEntity
  8
V0-VYPLNE
  6
DASHED
 62
    52
 48
2.0
100
AcDbCircle
 10
1248.097366
 20
-93.106827
 30
0.0
 40
7.8948
100
AcDbArc
 50
270.0
 51
0.0
  0
LINE
  5
4056
100
AcDbEntity
  8
V0-VYPLNE
  6
DASHED
 62
    52
100
AcDbLine
 10
1236.721237
 20
2.282927
 30
0.0
 11
1255.234013
 21
2.282927
 31
0.0
  0
LINE
  5
4057
100
AcDbEntity
  8
V0-VYPLNE
  6
DASHED
 62
    52
100
AcDbLine
 10
1236.721237
 20
20.461888
 30
0.0
 11
1255.992166
 21
20.461888
 31
0.0
  0
LINE
  5
4058
100
AcDbEntity
  8
V0-VYPLNE
  6
DASHED
 62
    52
100
AcDbLine
 10
1236.721237
 20
38.640846
 30
0.0
 11
1255.234013
 21
38.640846
 31
0.0
  0
LINE
  5
4059
100
AcDbEntity
  8
V0-VYPLNE
  6
DASHED
 62
    52
100
AcDbLine
 10
1236.721237
 20
57.577264
 30
0.0
 11
1255.992166
 21
57.577264
 31
0.0
  0
LINE
  5
405A
100
AcDbEntity
  8
V0-VYPLNE
  6
DASHED
 62
    52
100
AcDbLine
 10
1236.721237
 20
73.483856
 30
0.0
 11
1255.992166
 21
73.483856
 31
0.0
  0
LINE
  5
405B
100
AcDbEntity
  8
V0-VYPLNE
  6
DASHED
 62
    52
100
AcDbLine
 10
1236.721237
 20
78.999813
 30
0.0
 11
1248.097366
 21
78.999813
 31
0.0
  0
LINE
  5
405C
100
AcDbEntity
  8
V0-VYPLNE
  6
DASHED
 62
    52
100
AcDbLine
 10
1236.721237
 20
-24.284741
 30
0.0
 11
1255.234013
 21
-24.284741
 31
0.0
  0
LINE
  5
405D
100
AcDbEntity
  8
V0-VYPLNE
  6
DASHED
 62
    52
100
AcDbLine
 10
1255.992166
 20
71.105013
 30
0.0
 11
1255.992166
 21
-11.000907
 31
0.0
  0
ARC
  5
405E
100
AcDbEntity
  8
V0-VYPLNE
  6
DASHED
 62
    52
 48
2.0
100
AcDbCircle
 10
1248.097366
 20
71.105013
 30
0.0
 40
7.8948
100
AcDbArc
 50
0.0
 51
90.0
  0
DIMENSION
  5
4084
100
AcDbEntity
  8
V0-OBRYS
  6
CONTINUOUS
 62
    90
100
AcDbDimension
  2
*D15
 10
1248.321191
 20
-370.888425
 30
0.0
 11
1324.722077
 21
-370.888425
 31
0.0
 70
   160
  3
ED30
100
AcDbAlignedDimension
 13
1236.721191
 23
-326.000907
 33
0.0
 14
1248.321191
 24
-326.000907
 34
0.0
100
AcDbRotatedDimension
  0
DIMENSION
  5
409E
100
AcDbEntity
  8
V0-OBRYS
  6
CONTINUOUS
 62
    90
100
AcDbDimension
  2
*D16
 10
1344.878441
 20
-423.414698
 30
0.0
 11
1296.599816
 21
-423.414698
 31
0.0
 70
   160
  3
ED30
100
AcDbAlignedDimension
 13
1248.321191
 23
-326.000907
 33
0.0
 14
1344.878441
 24
-261.000457
 34
0.0
100
AcDbRotatedDimension
  0
DIMENSION
  5
40AB
100
AcDbEntity
  8
V0-OBRYS
  6
CONTINUOUS
 62
    90
100
AcDbDimension
  2
*D17
 10
1344.878441
 20
-470.338171
 30
0.0
 11
1269.784162
 21
-470.338171
 31
0.0
 70
   160
  3
ED30
100
AcDbAlignedDimension
 13
1194.689883
 23
-73.519427
 33
0.0
 14
1344.878441
 24
-261.000457
 34
0.0
100
AcDbRotatedDimension
  0
INSERT
  5
40EE
100
AcDbEntity
  8
V0-OBRYS
  6
CONTINUOUS
 62
    90
100
AcDbBlockReference
  2
ASVORK
 10
1194.51003
 20
-11.000907
 30
0.0
  0
DIMENSION
  5
41E1
100
AcDbEntity
  8
V0-VYPLNE
  6
CONTINUOUS
 62
    41
100
AcDbDimension
  2
*D18
 10
2144.501372
 20
-507.571592
 30
0.0
 11
1833.10827
 21
-507.571592
 31
0.0
 70
   160
  3
ED30
100
AcDbAlignedDimension
 13
1514.941011
 23
-318.982379
 33
0.0
 14
2144.501372
 24
-318.982379
 34
0.0
100
AcDbRotatedDimension
  0
DIMENSION
  5
41E2
100
AcDbEntity
  8
V0-OBRYS
  6
CONTINUOUS
 62
    90
100
AcDbDimension
  2
*D19
 10
2109.711075
 20
-463.693568
 30
0.0
 11
1826.113368
 21
-463.693568
 31
0.0
 70
   160
  3
ED30
100
AcDbAlignedDimension
 13
1549.731259
 23
-323.656291
 33
0.0
 14
2109.711075
 24
-323.65634
 34
0.0
100
AcDbRotatedDimension
  0
LINE
  5
41E4
100
AcDbEntity
  8
V0-OBRYS
  6
CONTINUOUS
100
AcDbLine
 10
2144.501372
 20
283.783074
 30
0.0
 11
2144.501372
 21
-305.784887
 31
0.0
  0
LINE
  5
41E5
100
AcDbEntity
  8
V0-OBRYS
  6
CONTINUOUS
100
AcDbLine
 10
1514.941011
 20
-305.784887
 30
0.0
 11
1514.941011
 21
283.783074
 31
0.0
  0
LINE
  5
41E6
100
AcDbEntity
  8
V0-OBRYS
  6
CONTINUOUS
100
AcDbLine
 10
2124.505172
 20
-325.781087
 30
0.0
 11
1534.937211
 21
-325.781087
 31
0.0
  0
ARC
  5
41E7
100
AcDbEntity
  8
V0-OBRYS
  6
CONTINUOUS
100
AcDbCircle
 10
1534.937211
 20
-305.784887
 30
0.0
 40
19.9962
100
AcDbArc
 50
180.0
 51
270.0
  0
LINE
  5
41E8
100
AcDbEntity
  8
V0-VYPLNE
  6
DASHDOT
 62
    63
100
AcDbLine
 10
1549.731259
 20
-323.656291
 30
0.0
 11
1549.731259
 21
-219.912764
 31
0.0
  0
CIRCLE
  5
41E9
100
AcDbEntity
  8
V0-OBRYS
  6
CONTINUOUS
 62
    90
100
AcDbCircle
 10
1549.731259
 20
-290.990791
 30
0.0
 40
8.166375
  0
LINE
  5
41EA
100
AcDbEntity
  8
V0-VYPLNE
  6
DASHDOT
 62
    63
100
AcDbLine
 10
1517.065759
 20
-290.990791
 30
0.0
 11
1586.489782
 21
-290.990791
 31
0.0
  0
LINE
  5
41EB
100
AcDbEntity
  8
V0-VYPLNE
  6
DASHDOT
 62
    63
100
AcDbLine
 10
2109.711075
 20
-323.65634
 30
0.0
 11
2109.711075
 21
-219.233566
 31
0.0
  0
LINE
  5
41EC
100
AcDbEntity
  8
V0-VYPLNE
  6
DASHDOT
 62
    63
100
AcDbLine
 10
2142.376575
 20
-290.99084
 30
0.0
 11
2073.631798
 21
-290.99084
 31
0.0
  0
CIRCLE
  5
41ED
100
AcDbEntity
  8
V0-OBRYS
  6
CONTINUOUS
 62
    90
100
AcDbCircle
 10
2109.711075
 20
-290.99084
 30
0.0
 40
8.166375
  0
ARC
  5
41EE
100
AcDbEntity
  8
V0-OBRYS
  6
CONTINUOUS
100
AcDbCircle
 10
2124.505172
 20
-305.784887
 30
0.0
 40
19.9962
100
AcDbArc
 50
270.0
 51
0.0
  0
TEXT
  5
41EF
100
AcDbEntity
  8
V0-VYPLNE
 62
     6
100
AcDbText
 10
1714.148077
 20
338.011092
 30
0.0
 40
42.0
  1
HCF- 500
  7
ED30
100
AcDbText
  0
LINE
  5
41F0
100
AcDbEntity
  8
V0-OBRYS
  6
CONTINUOUS
100
AcDbLine
 10
1534.937211
 20
303.779274
 30
0.0
 11
2124.505172
 21
303.779274
 31
0.0
  0
LINE
  5
41F1
100
AcDbEntity
  8
V0-VYPLNE
  6
DASHDOT
 62
    63
100
AcDbLine
 10
1517.065808
 20
268.989026
 30
0.0
 11
1585.810585
 21
268.989026
 31
0.0
  0
CIRCLE
  5
41F2
100
AcDbEntity
  8
V0-OBRYS
  6
CONTINUOUS
 62
    90
100
AcDbCircle
 10
1549.731308
 20
268.989026
 30
0.0
 40
8.166375
  0
LINE
  5
41F3
100
AcDbEntity
  8
V0-VYPLNE
  6
DASHDOT
 62
    63
100
AcDbLine
 10
1549.731308
 20
301.654526
 30
0.0
 11
1549.731308
 21
232.230503
 31
0.0
  0
ARC
  5
41F4
100
AcDbEntity
  8
V0-OBRYS
  6
CONTINUOUS
100
AcDbCircle
 10
1534.937211
 20
283.783074
 30
0.0
 40
19.9962
100
AcDbArc
 50
90.0
 51
180.0
  0
LINE
  5
41F5
100
AcDbEntity
  8
V0-VYPLNE
  6
DASHDOT
 62
    63
100
AcDbLine
 10
2142.376624
 20
268.988977
 30
0.0
 11
2072.952601
 21
268.988977
 31
0.0
  0
LINE
  5
41F6
100
AcDbEntity
  8
V0-VYPLNE
  6
DASHDOT
 62
    63
100
AcDbLine
 10
2109.711124
 20
301.654477
 30
0.0
 11
2109.711124
 21
232.9097
 31
0.0
  0
CIRCLE
  5
41F7
100
AcDbEntity
  8
V0-OBRYS
  6
CONTINUOUS
 62
    90
100
AcDbCircle
 10
2109.711124
 20
268.988977
 30
0.0
 40
8.166375
  0
ARC
  5
41F8
100
AcDbEntity
  8
V0-OBRYS
  6
CONTINUOUS
100
AcDbCircle
 10
2124.505172
 20
283.783074
 30
0.0
 40
19.9962
100
AcDbArc
 50
0.0
 51
90.0
  0
CIRCLE
  5
424A
100
AcDbEntity
  8
V0-OBRYS
  6
CONTINUOUS
 62
    90
100
AcDbCircle
 10
1829.721191
 20
-11.000907
 30
0.0
 40
243.71814
  0
CIRCLE
  5
424B
100
AcDbEntity
  8
V0-OBRYS
  6
CONTINUOUS
 62
    90
100
AcDbCircle
 10
1829.721191
 20
-11.000907
 30
0.0
 40
277.014418
  0
LINE
  5
424C
100
AcDbEntity
  8
V0-OBRYS
  6
CONTINUOUS
 62
    90
100
AcDbLine
 10
1709.71713
 20
-20.127319
 30
0.0
 11
1756.076409
 21
-16.601656
 31
0.0
  0
LINE
  5
424D
100
AcDbEntity
  8
V0-OBRYS
  6
CONTINUOUS
 62
    90
100
AcDbLine
 10
1709.71713
 20
-1.874495
 30
0.0
 11
1756.076409
 21
-5.400158
 31
0.0
  0
LINE
  5
424E
100
AcDbEntity
  8
V0-OBRYS
  6
CONTINUOUS
 62
    90
100
AcDbLine
 10
1757.934196
 20
6.364279
 30
0.0
 11
1711.928518
 21
17.492996
 31
0.0
  0
LINE
  5
424F
100
AcDbEntity
  8
V0-OBRYS
  6
CONTINUOUS
 62
    90
100
AcDbLine
 10
1718.00983
 20
34.647062
 30
0.0
 11
1761.351481
 21
16.936614
 31
0.0
  0
LINE
  5
4250
100
AcDbEntity
  8
V0-OBRYS
  6
CONTINUOUS
 62
    90
100
AcDbLine
 10
1748.364791
 20
37.623795
 30
0.0
 11
1724.643991
 21
51.801129
 31
0.0
  0
LINE
  5
4252
100
AcDbEntity
  8
V0-OBRYS
  6
CONTINUOUS
 62
    90
100
AcDbLine
 10
1735.886427
 20
-104.875478
 30
0.0
 11
1746.339397
 21
-79.119336
 31
0.0
  0
LINE
  5
4253
100
AcDbEntity
  8
V0-OBRYS
  6
CONTINUOUS
 62
    90
100
AcDbLine
 10
1748.364791
 20
-59.625609
 30
0.0
 11
1724.643991
 21
-73.802943
 31
0.0
  0
LINE
  5
4254
100
AcDbEntity
  8
V0-OBRYS
  6
CONTINUOUS
 62
    90
100
AcDbLine
 10
1718.00983
 20
-56.648876
 30
0.0
 11
1761.351481
 21
-38.938427
 31
0.0
  0
LINE
  5
4255
100
AcDbEntity
  8
V0-OBRYS
  6
CONTINUOUS
 62
    90
100
AcDbLine
 10
1757.934196
 20
-28.366093
 30
0.0
 11
1711.928518
 21
-39.49481
 31
0.0
  0
ARC
  5
4256
100
AcDbEntity
  8
V0-OBRYS
  6
CONTINUOUS
 62
    90
100
AcDbCircle
 10
1829.721191
 20
-11.000907
 30
0.0
 40
95.197135
100
AcDbArc
 50
148.716649
 51
211.283351
  0
ARC
  5
4257
100
AcDbEntity
  8
V0-OBRYS
  6
CONTINUOUS
 62
    90
100
AcDbCircle
 10
1829.721191
 20
-11.000907
 30
0.0
 40
253.125
100
AcDbArc
 50
236.13779
 51
252.433638
  0
LINE
  5
4258
100
AcDbEntity
  8
VO-OBRYS
  6
CONTINUOUS
100
AcDbLine
 10
1764.342183
 20
-45.359424
 30
0.0
 11
1603.980519
 21
-205.721088
 31
0.0
  0
LINE
  5
4259
100
AcDbEntity
  8
VO-OBRYS
  6
CONTINUOUS
100
AcDbLine
 10
1795.362675
 20
-76.379915
 30
0.0
 11
1635.00101
 21
-236.74158
 31
0.0
  0
LINE
  5
425A
100
AcDbEntity
  8
VO-OBRYS
  6
CONTINUOUS
100
AcDbLine
 10
1765.936916
 20
-48.236489
 30
0.0
 11
1606.216418
 21
-207.956987
 31
0.0
  0
LINE
  5
425B
100
AcDbEntity
  8
VO-OBRYS
  6
CONTINUOUS
100
AcDbLine
 10
1792.485609
 20
-74.785183
 30
0.0
 11
1632.765111
 21
-234.505681
 31
0.0
  0
LINE
  5
425C
100
AcDbEntity
  8
VO-OBRYS
  6
CONTINUOUS
100
AcDbLine
 10
1764.342183
 20
23.35761
 30
0.0
 11
1603.980519
 21
183.719274
 31
0.0
  0
LINE
  5
425D
100
AcDbEntity
  8
VO-OBRYS
  6
CONTINUOUS
100
AcDbLine
 10
1795.362675
 20
54.378101
 30
0.0
 11
1635.00101
 21
214.739766
 31
0.0
  0
LINE
  5
425E
100
AcDbEntity
  8
VO-OBRYS
  6
CONTINUOUS
100
AcDbLine
 10
1765.936916
 20
26.234675
 30
0.0
 11
1606.216418
 21
185.955173
 31
0.0
  0
LINE
  5
425F
100
AcDbEntity
  8
VO-OBRYS
  6
CONTINUOUS
100
AcDbLine
 10
1792.485609
 20
52.783369
 30
0.0
 11
1632.765111
 21
212.503867
 31
0.0
  0
LINE
  5
4260
100
AcDbEntity
  8
V0-OBRYS
  6
CONTINUOUS
 62
    90
100
AcDbLine
 10
1727.84041
 20
123.201438
 30
0.0
 11
1756.272666
 21
103.332417
 31
0.0
  0
CIRCLE
  5
4261
100
AcDbEntity
  8
V0-OBRYS
  6
CONTINUOUS
 62
    90
100
AcDbCircle
 10
1829.721191
 20
-11.000907
 30
0.0
 40
135.892585
  0
CIRCLE
  5
4262
100
AcDbEntity
  8
V0-OBRYS
  6
CONTINUOUS
 62
    90
100
AcDbCircle
 10
1829.721191
 20
-11.000907
 30
0.0
 40
171.655252
  0
CIRCLE
  5
4263
100
AcDbEntity
  8
V0-OBRYS
  6
CONTINUOUS
 62
    90
100
AcDbCircle
 10
1829.721191
 20
-11.000907
 30
0.0
 40
208.651116
  0
CIRCLE
  5
4264
100
AcDbEntity
  8
V0-OBRYS
  6
CONTINUOUS
 62
    90
100
AcDbCircle
 10
1829.721191
 20
-11.000907
 30
0.0
 40
205.489078
  0
CIRCLE
  5
4265
100
AcDbEntity
  8
V0-OBRYS
  6
CONTINUOUS
 62
    90
100
AcDbCircle
 10
1829.721191
 20
-11.000907
 30
0.0
 40
168.493213
  0
CIRCLE
  5
4266
100
AcDbEntity
  8
V0-OBRYS
  6
CONTINUOUS
 62
    90
100
AcDbCircle
 10
1829.721191
 20
-11.000907
 30
0.0
 40
132.730547
  0
LINE
  5
4267
100
AcDbEntity
  8
V0-OBRYS
  6
CONTINUOUS
 62
    90
100
AcDbLine
 10
1611.449984
 20
117.178443
 30
0.0
 11
1616.178461
 21
112.891486
 31
0.0
  0
LINE
  5
4268
100
AcDbEntity
  8
V0-OBRYS
  6
CONTINUOUS
 62
    90
100
AcDbLine
 10
1707.072282
 20
-175.873603
 30
0.0
 11
1720.306151
 21
-143.265318
 31
0.0
  0
ARC
  5
4269
100
AcDbEntity
  8
VO-OBRYS
  6
CONTINUOUS
100
AcDbCircle
 10
1619.490765
 20
-221.231334
 30
0.0
 40
21.9348
100
AcDbArc
 50
135.0
 51
315.0
  0
ARC
  5
426A
100
AcDbEntity
  8
VO-OBRYS
  6
CONTINUOUS
100
AcDbCircle
 10
1619.490765
 20
-221.231334
 30
0.0
 40
18.772761
100
AcDbArc
 50
135.0
 51
315.0
  0
LINE
  5
426B
100
AcDbEntity
  8
V0-OBRYS
  6
CONTINUOUS
 62
    90
100
AcDbLine
 10
1692.297097
 20
-212.279694
 30
0.0
 11
1705.844378
 21
-178.89916
 31
0.0
  0
LINE
  5
426C
100
AcDbEntity
  8
V0-OBRYS
  6
CONTINUOUS
 62
    90
100
AcDbLine
 10
1688.680564
 20
-221.190838
 30
0.0
 11
1691.080734
 21
-215.276814
 31
0.0
  0
LINE
  5
426D
100
AcDbEntity
  8
V0-OBRYS
  6
CONTINUOUS
 62
    90
100
AcDbLine
 10
1586.672577
 20
-29.053694
 30
0.0
 11
1621.217121
 21
-18.832963
 31
0.0
  0
ARC
  5
426E
100
AcDbEntity
  8
V0-OBRYS
  6
CONTINUOUS
 62
    90
100
AcDbCircle
 10
1829.721191
 20
-11.000907
 30
0.0
 40
253.125
100
AcDbArc
 50
184.709219
 51
201.005067
  0
LINE
  5
426F
100
AcDbEntity
  8
V0-OBRYS
  6
CONTINUOUS
 62
    90
100
AcDbLine
 10
1593.416669
 20
-101.733691
 30
0.0
 11
1599.716504
 21
-100.709693
 31
0.0
  0
LINE
  5
4270
100
AcDbEntity
  8
V0-OBRYS
  6
CONTINUOUS
 62
    90
100
AcDbLine
 10
1577.450693
 20
-31.782183
 30
0.0
 11
1583.570945
 21
-29.971378
 31
0.0
  0
LINE
  5
4271
100
AcDbEntity
  8
V0-OBRYS
  6
CONTINUOUS
 62
    90
100
AcDbLine
 10
1641.690248
 20
-93.887126
 30
0.0
 11
1676.425789
 21
-88.241084
 31
0.0
  0
LINE
  5
4272
100
AcDbEntity
  8
V0-OBRYS
  6
CONTINUOUS
 62
    90
100
AcDbLine
 10
1602.909146
 20
-100.190749
 30
0.0
 11
1638.467314
 21
-94.410994
 31
0.0
  0
LINE
  5
4273
100
AcDbEntity
  8
V0-OBRYS
  6
CONTINUOUS
 62
    90
100
AcDbLine
 10
1721.554186
 20
-140.190155
 30
0.0
 11
1734.598278
 21
-108.049483
 31
0.0
  0
LINE
  5
4274
100
AcDbEntity
  8
V0-OBRYS
  6
CONTINUOUS
 62
    90
100
AcDbLine
 10
1679.701564
 20
-87.708627
 30
0.0
 11
1713.938986
 21
-82.143551
 31
0.0
  0
LINE
  5
4275
100
AcDbEntity
  8
V0-OBRYS
  6
CONTINUOUS
 62
    90
100
AcDbLine
 10
1717.320052
 20
-81.59398
 30
0.0
 11
1744.756439
 21
-77.134369
 31
0.0
  0
LINE
  5
4276
100
AcDbEntity
  8
V0-OBRYS
  6
CONTINUOUS
 62
    90
100
AcDbLine
 10
1661.275945
 20
-6.980716
 30
0.0
 11
1694.537393
 21
2.860385
 31
0.0
  0
LINE
  5
4277
100
AcDbEntity
  8
V0-OBRYS
  6
CONTINUOUS
 62
    90
100
AcDbLine
 10
1647.68276
 20
84.328892
 30
0.0
 11
1673.754269
 21
60.691803
 31
0.0
  0
LINE
  5
4278
100
AcDbEntity
  8
V0-OBRYS
  6
CONTINUOUS
 62
    90
100
AcDbLine
 10
1624.348182
 20
-17.906573
 30
0.0
 11
1658.093549
 21
-7.922295
 31
0.0
  0
LINE
  5
4279
100
AcDbEntity
  8
V0-OBRYS
  6
CONTINUOUS
 62
    90
100
AcDbLine
 10
1618.574768
 20
110.718934
 30
0.0
 11
1645.263717
 21
86.522057
 31
0.0
  0
LINE
  5
427A
100
AcDbEntity
  8
V0-OBRYS
  6
CONTINUOUS
 62
    90
100
AcDbLine
 10
1676.212973
 20
58.462679
 30
0.0
 11
1701.910609
 21
35.164553
 31
0.0
  0
LINE
  5
427B
100
AcDbEntity
  8
V0-OBRYS
  6
CONTINUOUS
 62
    90
100
AcDbLine
 10
1704.44834
 20
32.863781
 30
0.0
 11
1725.041312
 21
14.193672
 31
0.0
  0
LINE
  5
427C
100
AcDbEntity
  8
V0-OBRYS
  6
CONTINUOUS
 62
    90
100
AcDbLine
 10
1697.822078
 20
3.832228
 30
0.0
 11
1724.476361
 21
11.718459
 31
0.0
  0
LINE
  5
427D
100
AcDbEntity
  8
V0-OBRYS
  6
CONTINUOUS
 62
    90
100
AcDbLine
 10
1724.476361
 20
11.718459
 30
0.0
 11
1733.98766
 21
2.699768
 31
0.0
  0
LINE
  5
427E
100
AcDbEntity
  8
V0-OBRYS
  6
CONTINUOUS
 62
    90
100
AcDbLine
 10
1725.041312
 20
14.193672
 30
0.0
 11
1737.52376
 21
18.192434
 31
0.0
  0
ARC
  5
427F
100
AcDbEntity
  8
VO-OBRYS
  6
CONTINUOUS
100
AcDbCircle
 10
1619.490765
 20
199.22952
 30
0.0
 40
21.9348
100
AcDbArc
 50
45.0
 51
225.0
  0
ARC
  5
4280
100
AcDbEntity
  8
VO-OBRYS
  6
CONTINUOUS
100
AcDbCircle
 10
1619.490765
 20
199.22952
 30
0.0
 40
18.772761
100
AcDbArc
 50
45.0
 51
225.0
  0
LINE
  5
4281
100
AcDbEntity
  8
V0-OBRYS
  6
CONTINUOUS
 62
    90
100
AcDbLine
 10
1664.068622
 20
167.766422
 30
0.0
 11
1693.597682
 21
147.130932
 31
0.0
  0
ARC
  5
4282
100
AcDbEntity
  8
V0-OBRYS
  6
CONTINUOUS
 62
    90
100
AcDbCircle
 10
1829.721191
 20
-11.000907
 30
0.0
 40
253.125
100
AcDbArc
 50
133.280648
 51
149.576495
  0
LINE
  5
4283
100
AcDbEntity
  8
V0-OBRYS
  6
CONTINUOUS
 62
    90
100
AcDbLine
 10
1656.185653
 20
173.275197
 30
0.0
 11
1661.417312
 21
169.61921
 31
0.0
  0
LINE
  5
4284
100
AcDbEntity
  8
V0-OBRYS
  6
CONTINUOUS
 62
    90
100
AcDbLine
 10
1696.274148
 20
145.260565
 30
0.0
 11
1725.120063
 21
125.10247
 31
0.0
  0
LINE
  5
4285
100
AcDbEntity
  8
V0-OBRYS
  6
CONTINUOUS
 62
    90
100
AcDbLine
 10
2047.992399
 20
117.178443
 30
0.0
 11
2043.263922
 21
112.891486
 31
0.0
  0
LINE
  5
4286
100
AcDbEntity
  8
V0-OBRYS
  6
CONTINUOUS
 62
    90
100
AcDbLine
 10
1931.601973
 20
123.201438
 30
0.0
 11
1903.169717
 21
103.332417
 31
0.0
  0
LINE
  5
4287
100
AcDbEntity
  8
VO-OBRYS
  6
CONTINUOUS
100
AcDbLine
 10
1895.1002
 20
23.35761
 30
0.0
 11
2055.461864
 21
183.719274
 31
0.0
  0
LINE
  5
4288
100
AcDbEntity
  8
VO-OBRYS
  6
CONTINUOUS
100
AcDbLine
 10
1864.079708
 20
54.378101
 30
0.0
 11
2024.441372
 21
214.739766
 31
0.0
  0
LINE
  5
4289
100
AcDbEntity
  8
VO-OBRYS
  6
CONTINUOUS
100
AcDbLine
 10
1866.956773
 20
52.783369
 30
0.0
 11
2026.677271
 21
212.503867
 31
0.0
  0
LINE
  5
428A
100
AcDbEntity
  8
VO-OBRYS
  6
CONTINUOUS
100
AcDbLine
 10
1893.505467
 20
26.234675
 30
0.0
 11
2053.225965
 21
185.955173
 31
0.0
  0
LINE
  5
428B
100
AcDbEntity
  8
V0-OBRYS
  6
CONTINUOUS
 62
    90
100
AcDbLine
 10
2040.867615
 20
110.718934
 30
0.0
 11
2014.178666
 21
86.522057
 31
0.0
  0
LINE
  5
428C
100
AcDbEntity
  8
V0-OBRYS
  6
CONTINUOUS
 62
    90
100
AcDbLine
 10
2056.533237
 20
-100.190749
 30
0.0
 11
2020.975069
 21
-94.410994
 31
0.0
  0
ARC
  5
428D
100
AcDbEntity
  8
VO-OBRYS
  6
CONTINUOUS
100
AcDbCircle
 10
2039.951618
 20
-221.231334
 30
0.0
 40
18.772761
100
AcDbArc
 50
225.0
 51
45.0
  0
ARC
  5
428E
100
AcDbEntity
  8
VO-OBRYS
  6
CONTINUOUS
100
AcDbCircle
 10
2039.951618
 20
-221.231334
 30
0.0
 40
21.9348
100
AcDbArc
 50
225.0
 51
45.0
  0
LINE
  5
428F
100
AcDbEntity
  8
VO-OBRYS
  6
CONTINUOUS
100
AcDbLine
 10
1895.1002
 20
-45.359424
 30
0.0
 11
2055.461864
 21
-205.721088
 31
0.0
  0
LINE
  5
4290
100
AcDbEntity
  8
VO-OBRYS
  6
CONTINUOUS
100
AcDbLine
 10
1893.505467
 20
-48.236489
 30
0.0
 11
2053.225965
 21
-207.956987
 31
0.0
  0
LINE
  5
4291
100
AcDbEntity
  8
V0-OBRYS
  6
CONTINUOUS
 62
    90
100
AcDbLine
 10
1796.157995
 20
-176.117456
 30
0.0
 11
1813.153726
 21
-145.879793
 31
0.0
  0
LINE
  5
4292
100
AcDbEntity
  8
V0-OBRYS
  6
CONTINUOUS
 62
    90
100
AcDbLine
 10
1863.284388
 20
-176.117456
 30
0.0
 11
1846.288657
 21
-145.879793
 31
0.0
  0
LINE
  5
4293
100
AcDbEntity
  8
VO-OBRYS
  6
CONTINUOUS
100
AcDbLine
 10
1864.079708
 20
-76.379915
 30
0.0
 11
2024.441372
 21
-236.74158
 31
0.0
  0
LINE
  5
4294
100
AcDbEntity
  8
VO-OBRYS
  6
CONTINUOUS
100
AcDbLine
 10
1866.956773
 20
-74.785183
 30
0.0
 11
2026.677271
 21
-234.505681
 31
0.0
  0
LINE
  5
4295
100
AcDbEntity
  8
V0-OBRYS
  6
CONTINUOUS
 62
    90
100
AcDbLine
 10
1952.370101
 20
-175.873603
 30
0.0
 11
1939.136232
 21
-143.265318
 31
0.0
  0
LINE
  5
4296
100
AcDbEntity
  8
V0-OBRYS
  6
CONTINUOUS
 62
    90
100
AcDbLine
 10
1901.404762
 20
-243.938662
 30
0.0
 11
1883.753402
 21
-212.534548
 31
0.0
  0
LINE
  5
4297
100
AcDbEntity
  8
V0-OBRYS
  6
CONTINUOUS
 62
    90
100
AcDbLine
 10
1758.037621
 20
-243.938662
 30
0.0
 11
1775.688981
 21
-212.534548
 31
0.0
  0
LINE
  5
4298
100
AcDbEntity
  8
V0-OBRYS
  6
CONTINUOUS
 62
    90
100
AcDbLine
 10
1753.325478
 20
-252.322188
 30
0.0
 11
1756.452767
 21
-246.758326
 31
0.0
  0
LINE
  5
4299
100
AcDbEntity
  8
V0-OBRYS
  6
CONTINUOUS
 62
    90
100
AcDbLine
 10
1777.288871
 20
-209.688131
 30
0.0
 11
1794.531873
 21
-179.010542
 31
0.0
  0
LINE
  5
429A
100
AcDbEntity
  8
V0-OBRYS
  6
CONTINUOUS
 62
    90
100
AcDbLine
 10
1882.153511
 20
-209.688131
 30
0.0
 11
1864.91051
 21
-179.010542
 31
0.0
  0
LINE
  5
429B
100
AcDbEntity
  8
V0-OBRYS
  6
CONTINUOUS
 62
    90
100
AcDbLine
 10
1967.145286
 20
-212.279694
 30
0.0
 11
1953.598005
 21
-178.89916
 31
0.0
  0
ARC
  5
429C
100
AcDbEntity
  8
V0-OBRYS
  6
CONTINUOUS
 62
    90
100
AcDbCircle
 10
1829.721191
 20
-11.000907
 30
0.0
 40
253.125
100
AcDbArc
 50
287.566362
 51
303.86221
  0
LINE
  5
429D
100
AcDbEntity
  8
V0-OBRYS
  6
CONTINUOUS
 62
    90
100
AcDbLine
 10
1906.116904
 20
-252.322188
 30
0.0
 11
1902.989616
 21
-246.758326
 31
0.0
  0
LINE
  5
429E
100
AcDbEntity
  8
V0-OBRYS
  6
CONTINUOUS
 62
    90
100
AcDbLine
 10
1970.761818
 20
-221.190838
 30
0.0
 11
1968.361649
 21
-215.276814
 31
0.0
  0
LINE
  5
429F
100
AcDbEntity
  8
V0-OBRYS
  6
CONTINUOUS
 62
    90
100
AcDbLine
 10
1900.361932
 20
101.370281
 30
0.0
 11
1877.577554
 21
85.448108
 31
0.0
  0
LINE
  5
42A0
100
AcDbEntity
  8
V0-OBRYS
  6
CONTINUOUS
 62
    90
100
AcDbLine
 10
1878.345893
 20
70.355493
 30
0.0
 11
1892.523227
 21
94.076294
 31
0.0
  0
LINE
  5
42A3
100
AcDbEntity
  8
V0-OBRYS
  6
CONTINUOUS
 62
    90
100
AcDbLine
 10
1878.345893
 20
-92.357307
 30
0.0
 11
1892.523227
 21
-116.078108
 31
0.0
  0
LINE
  5
42A8
100
AcDbEntity
  8
V0-OBRYS
  6
CONTINUOUS
 62
    90
100
AcDbLine
 10
1814.832114
 20
-142.893717
 30
0.0
 11
1828.451757
 21
-118.662565
 31
0.0
  0
ARC
  5
42A9
100
AcDbEntity
  8
V0-OBRYS
  6
CONTINUOUS
 62
    90
100
AcDbCircle
 10
1829.721191
 20
-11.000907
 30
0.0
 40
95.197135
100
AcDbArc
 50
238.716649
 51
301.283351
  0
LINE
  5
42AA
100
AcDbEntity
  8
V0-OBRYS
  6
CONTINUOUS
 62
    90
100
AcDbLine
 10
1812.356005
 20
-82.787902
 30
0.0
 11
1801.227288
 21
-128.79358
 31
0.0
  0
LINE
  5
42AB
100
AcDbEntity
  8
V0-OBRYS
  6
CONTINUOUS
 62
    90
100
AcDbLine
 10
1784.073222
 20
-122.712269
 30
0.0
 11
1801.783671
 21
-79.370618
 31
0.0
  0
LINE
  5
42AC
100
AcDbEntity
  8
V0-OBRYS
  6
CONTINUOUS
 62
    90
100
AcDbLine
 10
1781.09649
 20
-92.357307
 30
0.0
 11
1766.919156
 21
-116.078108
 31
0.0
  0
LINE
  5
42B0
100
AcDbEntity
  8
V0-OBRYS
  6
CONTINUOUS
 62
    90
100
AcDbLine
 10
1847.086377
 20
-82.787902
 30
0.0
 11
1858.215094
 21
-128.79358
 31
0.0
  0
LINE
  5
42B1
100
AcDbEntity
  8
V0-OBRYS
  6
CONTINUOUS
 62
    90
100
AcDbLine
 10
1838.847603
 20
-131.004968
 30
0.0
 11
1835.32194
 21
-84.64569
 31
0.0
  0
LINE
  5
42B2
100
AcDbEntity
  8
V0-OBRYS
  6
CONTINUOUS
 62
    90
100
AcDbLine
 10
1820.59478
 20
-131.004968
 30
0.0
 11
1824.120442
 21
-84.64569
 31
0.0
  0
LINE
  5
42B3
100
AcDbEntity
  8
V0-OBRYS
  6
CONTINUOUS
 62
    90
100
AcDbLine
 10
1875.369161
 20
-122.712269
 30
0.0
 11
1857.658712
 21
-79.370618
 31
0.0
  0
LINE
  5
42B4
100
AcDbEntity
  8
V0-OBRYS
  6
CONTINUOUS
 62
    90
100
AcDbLine
 10
1844.610268
 20
-142.893717
 30
0.0
 11
1830.990625
 21
-118.662565
 31
0.0
  0
LINE
  5
42B5
100
AcDbEntity
  8
V0-OBRYS
  6
CONTINUOUS
 62
    90
100
AcDbLine
 10
1830.990625
 20
-118.662565
 30
0.0
 11
1837.666735
 21
-107.382886
 31
0.0
  0
LINE
  5
42B6
100
AcDbEntity
  8
V0-OBRYS
  6
CONTINUOUS
 62
    90
100
AcDbLine
 10
1828.451757
 20
-118.662565
 30
0.0
 11
1821.775647
 21
-107.382886
 31
0.0
  0
ARC
  5
42B7
100
AcDbEntity
  8
V0-OBRYS
  6
CONTINUOUS
 62
    90
100
AcDbCircle
 10
1829.721191
 20
-11.000907
 30
0.0
 40
95.197135
100
AcDbArc
 50
58.716649
 51
121.283351
  0
LINE
  5
42B9
100
AcDbEntity
  8
V0-OBRYS
  6
CONTINUOUS
 62
    90
100
AcDbLine
 10
1781.09649
 20
70.355493
 30
0.0
 11
1766.919156
 21
94.076294
 31
0.0
  0
LINE
  5
42BA
100
AcDbEntity
  8
V0-OBRYS
  6
CONTINUOUS
 62
    90
100
AcDbLine
 10
1781.09649
 20
70.355493
 30
0.0
 11
1766.919156
 21
94.076294
 31
0.0
  0
LINE
  5
42BB
100
AcDbEntity
  8
V0-OBRYS
  6
CONTINUOUS
 62
    90
100
AcDbLine
 10
1781.864828
 20
85.448108
 30
0.0
 11
1780.74393
 21
72.388813
 31
0.0
  0
LINE
  5
42BD
100
AcDbEntity
  8
V0-OBRYS
  6
CONTINUOUS
 62
    90
100
AcDbLine
 10
1759.080451
 20
101.370281
 30
0.0
 11
1781.864828
 21
85.448108
 31
0.0
  0
LINE
  5
42BE
100
AcDbEntity
  8
V0-OBRYS
  6
CONTINUOUS
 62
    90
100
AcDbLine
 10
1810.041178
 20
70.355493
 30
0.0
 11
1801.227288
 21
106.791766
 31
0.0
  0
LINE
  5
42BF
100
AcDbEntity
  8
V0-OBRYS
  6
CONTINUOUS
 62
    90
100
AcDbLine
 10
1812.356005
 20
60.786089
 30
0.0
 11
1801.227288
 21
106.791766
 31
0.0
  0
LINE
  5
42C0
100
AcDbEntity
  8
V0-OBRYS
  6
CONTINUOUS
 62
    90
100
AcDbLine
 10
1784.073222
 20
100.710455
 30
0.0
 11
1796.476995
 21
70.355493
 31
0.0
  0
LINE
  5
42C1
100
AcDbEntity
  8
V0-OBRYS
  6
CONTINUOUS
 62
    90
100
AcDbLine
 10
1784.073222
 20
100.710455
 30
0.0
 11
1801.783671
 21
57.368804
 31
0.0
  0
LINE
  5
42C2
100
AcDbEntity
  8
V0-OBRYS
  6
CONTINUOUS
 62
    90
100
AcDbLine
 10
1784.152269
 20
86.549682
 30
0.0
 11
1795.061306
 21
79.283698
 31
0.0
  0
LINE
  5
42C3
100
AcDbEntity
  8
V0-OBRYS
  6
CONTINUOUS
 62
    90
100
AcDbLine
 10
1785.90964
 20
114.290538
 30
0.0
 11
1784.152269
 21
86.549682
 31
0.0
  0
LINE
  5
42C4
100
AcDbEntity
  8
V0-OBRYS
  6
CONTINUOUS
 62
    90
100
AcDbLine
 10
1847.086377
 20
60.786089
 30
0.0
 11
1858.215094
 21
106.791766
 31
0.0
  0
LINE
  5
42C5
100
AcDbEntity
  8
V0-OBRYS
  6
CONTINUOUS
 62
    90
100
AcDbLine
 10
1820.59478
 20
109.003155
 30
0.0
 11
1823.533967
 21
70.355493
 31
0.0
  0
LINE
  5
42C6
100
AcDbEntity
  8
V0-OBRYS
  6
CONTINUOUS
 62
    90
100
AcDbLine
 10
1820.59478
 20
109.003155
 30
0.0
 11
1824.120442
 21
62.643876
 31
0.0
  0
LINE
  5
42C7
100
AcDbEntity
  8
V0-OBRYS
  6
CONTINUOUS
 62
    90
100
AcDbLine
 10
1838.847603
 20
109.003155
 30
0.0
 11
1835.32194
 21
62.643876
 31
0.0
  0
LINE
  5
42C8
100
AcDbEntity
  8
V0-OBRYS
  6
CONTINUOUS
 62
    90
100
AcDbLine
 10
1877.577554
 20
85.448108
 30
0.0
 11
1878.698452
 21
72.388813
 31
0.0
  0
LINE
  5
42C9
100
AcDbEntity
  8
V0-OBRYS
  6
CONTINUOUS
 62
    90
100
AcDbLine
 10
1875.369161
 20
100.710455
 30
0.0
 11
1857.658712
 21
57.368804
 31
0.0
  0
LINE
  5
42CA
100
AcDbEntity
  8
V0-OBRYS
  6
CONTINUOUS
 62
    90
100
AcDbLine
 10
1875.290114
 20
86.549682
 30
0.0
 11
1864.381077
 21
79.283698
 31
0.0
  0
LINE
  5
42CB
100
AcDbEntity
  8
V0-OBRYS
  6
CONTINUOUS
 62
    90
100
AcDbLine
 10
1873.532742
 20
114.290538
 30
0.0
 11
1875.290114
 21
86.549682
 31
0.0
  0
ARC
  5
42CD
100
AcDbEntity
  8
V0-OBRYS
  6
CONTINUOUS
 62
    90
100
AcDbCircle
 10
1829.721191
 20
-11.000907
 30
0.0
 40
95.197135
100
AcDbArc
 50
328.716649
 51
31.283351
  0
LINE
  5
42CE
100
AcDbEntity
  8
V0-OBRYS
  6
CONTINUOUS
 62
    90
100
AcDbLine
 10
1979.740819
 20
-87.708627
 30
0.0
 11
1945.503396
 21
-82.143551
 31
0.0
  0
LINE
  5
42CF
100
AcDbEntity
  8
V0-OBRYS
  6
CONTINUOUS
 62
    90
100
AcDbLine
 10
1923.555955
 20
-104.875478
 30
0.0
 11
1913.102986
 21
-79.119336
 31
0.0
  0
LINE
  5
42D0
100
AcDbEntity
  8
V0-OBRYS
  6
CONTINUOUS
 62
    90
100
AcDbLine
 10
1937.888197
 20
-140.190155
 30
0.0
 11
1924.844105
 21
-108.049483
 31
0.0
  0
LINE
  5
42D1
100
AcDbEntity
  8
V0-OBRYS
  6
CONTINUOUS
 62
    90
100
AcDbLine
 10
1941.432553
 20
-56.648876
 30
0.0
 11
1898.090902
 21
-38.938427
 31
0.0
  0
LINE
  5
42D2
100
AcDbEntity
  8
V0-OBRYS
  6
CONTINUOUS
 62
    90
100
AcDbLine
 10
1942.122331
 20
-81.59398
 30
0.0
 11
1914.685944
 21
-77.134369
 31
0.0
  0
LINE
  5
42D3
100
AcDbEntity
  8
V0-OBRYS
  6
CONTINUOUS
 62
    90
100
AcDbLine
 10
1911.077591
 20
-59.625609
 30
0.0
 11
1934.798392
 21
-73.802943
 31
0.0
  0
LINE
  5
42D4
100
AcDbEntity
  8
V0-OBRYS
  6
CONTINUOUS
 62
    90
100
AcDbLine
 10
1901.508187
 20
-28.366093
 30
0.0
 11
1947.513865
 21
-39.49481
 31
0.0
  0
LINE
  5
42D8
100
AcDbEntity
  8
V0-OBRYS
  6
CONTINUOUS
 62
    90
100
AcDbLine
 10
2017.752135
 20
-93.887126
 30
0.0
 11
1983.016594
 21
-88.241084
 31
0.0
  0
LINE
  5
42D9
100
AcDbEntity
  8
V0-OBRYS
  6
CONTINUOUS
 62
    90
100
AcDbLine
 10
1983.22941
 20
58.462679
 30
0.0
 11
1957.531774
 21
35.164553
 31
0.0
  0
LINE
  5
42DA
100
AcDbEntity
  8
V0-OBRYS
  6
CONTINUOUS
 62
    90
100
AcDbLine
 10
1911.077591
 20
37.623795
 30
0.0
 11
1934.798392
 21
51.801129
 31
0.0
  0
LINE
  5
42DB
100
AcDbEntity
  8
V0-OBRYS
  6
CONTINUOUS
 62
    90
100
AcDbLine
 10
1941.432553
 20
34.647062
 30
0.0
 11
1898.090902
 21
16.936614
 31
0.0
  0
LINE
  5
42DC
100
AcDbEntity
  8
V0-OBRYS
  6
CONTINUOUS
 62
    90
100
AcDbLine
 10
1934.401071
 20
14.193672
 30
0.0
 11
1921.918623
 21
18.192434
 31
0.0
  0
LINE
  5
42DD
100
AcDbEntity
  8
V0-OBRYS
  6
CONTINUOUS
 62
    90
100
AcDbLine
 10
1934.966022
 20
11.718459
 30
0.0
 11
1925.454722
 21
2.699768
 31
0.0
  0
LINE
  5
42DE
100
AcDbEntity
  8
V0-OBRYS
  6
CONTINUOUS
 62
    90
100
AcDbLine
 10
1901.508187
 20
6.364279
 30
0.0
 11
1947.513865
 21
17.492996
 31
0.0
  0
LINE
  5
42DF
100
AcDbEntity
  8
V0-OBRYS
  6
CONTINUOUS
 62
    90
100
AcDbLine
 10
1949.725253
 20
-1.874495
 30
0.0
 11
1903.365974
 21
-5.400158
 31
0.0
  0
LINE
  5
42E0
100
AcDbEntity
  8
V0-OBRYS
  6
CONTINUOUS
 62
    90
100
AcDbLine
 10
1949.725253
 20
-20.127319
 30
0.0
 11
1903.365974
 21
-16.601656
 31
0.0
  0
LINE
  5
42E1
100
AcDbEntity
  8
V0-OBRYS
  6
CONTINUOUS
 62
    90
100
AcDbLine
 10
1961.620305
 20
3.832228
 30
0.0
 11
1934.966022
 21
11.718459
 31
0.0
  0
LINE
  5
42E2
100
AcDbEntity
  8
V0-OBRYS
  6
CONTINUOUS
 62
    90
100
AcDbLine
 10
1954.994042
 20
32.863781
 30
0.0
 11
1934.401071
 21
14.193672
 31
0.0
  0
LINE
  5
42E4
100
AcDbEntity
  8
V0-OBRYS
  6
CONTINUOUS
 62
    90
100
AcDbLine
 10
1998.166438
 20
-6.980716
 30
0.0
 11
1964.90499
 21
2.860385
 31
0.0
  0
LINE
  5
42E5
100
AcDbEntity
  8
V0-OBRYS
  6
CONTINUOUS
 62
    90
100
AcDbLine
 10
2035.0942
 20
-17.906573
 30
0.0
 11
2001.348834
 21
-7.922295
 31
0.0
  0
LINE
  5
42E6
100
AcDbEntity
  8
V0-OBRYS
  6
CONTINUOUS
 62
    90
100
AcDbLine
 10
2011.759623
 20
84.328892
 30
0.0
 11
1985.688114
 21
60.691803
 31
0.0
  0
LINE
  5
42E7
100
AcDbEntity
  8
V0-OBRYS
  6
CONTINUOUS
 62
    90
100
AcDbLine
 10
2072.769805
 20
-29.053694
 30
0.0
 11
2038.225261
 21
-18.832963
 31
0.0
  0
ARC
  5
42E8
100
AcDbEntity
  8
V0-OBRYS
  6
CONTINUOUS
 62
    90
100
AcDbCircle
 10
1829.721191
 20
-11.000907
 30
0.0
 40
253.125
100
AcDbArc
 50
338.994933
 51
355.290781
  0
LINE
  5
42E9
100
AcDbEntity
  8
V0-OBRYS
  6
CONTINUOUS
 62
    90
100
AcDbLine
 10
2066.025714
 20
-101.733691
 30
0.0
 11
2059.725879
 21
-100.709693
 31
0.0
  0
LINE
  5
42EA
100
AcDbEntity
  8
V0-OBRYS
  6
CONTINUOUS
 62
    90
100
AcDbLine
 10
2081.991689
 20
-31.782183
 30
0.0
 11
2075.871438
 21
-29.971378
 31
0.0
  0
ARC
  5
42EB
100
AcDbEntity
  8
VO-OBRYS
  6
CONTINUOUS
100
AcDbCircle
 10
2039.951618
 20
199.22952
 30
0.0
 40
21.9348
100
AcDbArc
 50
315.0
 51
135.0
  0
ARC
  5
42EC
100
AcDbEntity
  8
VO-OBRYS
  6
CONTINUOUS
100
AcDbCircle
 10
2039.951618
 20
199.22952
 30
0.0
 40
18.772761
100
AcDbArc
 50
315.0
 51
135.0
  0
ARC
  5
42ED
100
AcDbEntity
  8
V0-OBRYS
  6
CONTINUOUS
 62
    90
100
AcDbCircle
 10
1829.721191
 20
-11.000907
 30
0.0
 40
253.125
100
AcDbArc
 50
30.423505
 51
46.719352
  0
LINE
  5
42EF
100
AcDbEntity
  8
V0-OBRYS
  6
CONTINUOUS
 62
    90
100
AcDbLine
 10
1790.753924
 20
190.759627
 30
0.0
 11
1788.529023
 21
155.638616
 31
0.0
  0
LINE
  5
42F0
100
AcDbEntity
  8
V0-OBRYS
  6
CONTINUOUS
 62
    90
100
AcDbLine
 10
1788.319201
 20
152.326489
 30
0.0
 11
1786.126206
 21
117.709124
 31
0.0
  0
LINE
  5
42F1
100
AcDbEntity
  8
V0-OBRYS
  6
CONTINUOUS
 62
    90
100
AcDbLine
 10
1793.237953
 20
229.971094
 30
0.0
 11
1790.960361
 21
194.018327
 31
0.0
  0
LINE
  5
42F2
100
AcDbEntity
  8
V0-OBRYS
  6
CONTINUOUS
 62
    90
100
AcDbLine
 10
1793.845971
 20
239.568912
 30
0.0
 11
1793.44245
 21
233.199166
 31
0.0
  0
LINE
  5
42F3
100
AcDbEntity
  8
V0-OBRYS
  6
CONTINUOUS
 62
    90
100
AcDbLine
 10
1868.688459
 20
190.759627
 30
0.0
 11
1870.91336
 21
155.638616
 31
0.0
  0
LINE
  5
42F4
100
AcDbEntity
  8
V0-OBRYS
  6
CONTINUOUS
 62
    90
100
AcDbLine
 10
1871.123182
 20
152.326489
 30
0.0
 11
1873.316176
 21
117.709124
 31
0.0
  0
LINE
  5
42F5
100
AcDbEntity
  8
V0-OBRYS
  6
CONTINUOUS
 62
    90
100
AcDbLine
 10
1866.20443
 20
229.971094
 30
0.0
 11
1868.482022
 21
194.018327
 31
0.0
  0
LINE
  5
42F6
100
AcDbEntity
  8
V0-OBRYS
  6
CONTINUOUS
 62
    90
100
AcDbLine
 10
1865.596412
 20
239.568912
 30
0.0
 11
1865.999933
 21
233.199166
 31
0.0
  0
LINE
  5
42F7
100
AcDbEntity
  8
V0-OBRYS
  6
CONTINUOUS
 62
    90
100
AcDbLine
 10
1963.168235
 20
145.260565
 30
0.0
 11
1934.32232
 21
125.10247
 31
0.0
  0
LINE
  5
42F8
100
AcDbEntity
  8
V0-OBRYS
  6
CONTINUOUS
 62
    90
100
AcDbLine
 10
2003.25673
 20
173.275197
 30
0.0
 11
1998.025071
 21
169.61921
 31
0.0
  0
LINE
  5
42F9
100
AcDbEntity
  8
V0-OBRYS
  6
CONTINUOUS
 62
    90
100
AcDbLine
 10
1995.373761
 20
167.766422
 30
0.0
 11
1965.844701
 21
147.130932
 31
0.0
  0
CIRCLE
  5
42FA
100
AcDbEntity
  8
V0-OBRYS
  6
CONTINUOUS
 62
    90
100
AcDbCircle
 10
1619.490765
 20
199.22952
 30
0.0
 40
10.146818
  0
LINE
  5
42FB
100
AcDbEntity
  8
V0-VYPLNE
  6
DASHDOT
 62
    63
100
AcDbLine
 10
1829.721191
 20
-11.000907
 30
0.0
 11
1593.195193
 21
225.525091
 31
0.0
  0
CIRCLE
  5
42FC
100
AcDbEntity
  8
V0-OBRYS
  6
CONTINUOUS
 62
    90
100
AcDbCircle
 10
1619.490765
 20
-221.231334
 30
0.0
 40
10.146818
  0
LINE
  5
42FD
100
AcDbEntity
  8
V0-VYPLNE
  6
DASHDOT
 62
    63
100
AcDbLine
 10
1829.721191
 20
-11.000907
 30
0.0
 11
1593.195193
 21
-247.526905
 31
0.0
  0
CIRCLE
  5
42FE
100
AcDbEntity
  8
V0-OBRYS
  6
CONTINUOUS
 62
    90
100
AcDbCircle
 10
2039.951618
 20
-221.231334
 30
0.0
 40
10.146818
  0
LINE
  5
42FF
100
AcDbEntity
  8
V0-VYPLNE
  6
DASHDOT
 62
    63
100
AcDbLine
 10
1829.721191
 20
-11.000907
 30
0.0
 11
2066.24719
 21
-247.526905
 31
0.0
  0
CIRCLE
  5
4300
100
AcDbEntity
  8
V0-OBRYS
  6
CONTINUOUS
 62
    90
100
AcDbCircle
 10
2039.951618
 20
199.22952
 30
0.0
 40
10.146818
  0
LINE
  5
4301
100
AcDbEntity
  8
V0-VYPLNE
  6
DASHDOT
 62
    63
100
AcDbLine
 10
1829.721191
 20
-11.000907
 30
0.0
 11
2066.24719
 21
225.525091
 31
0.0
  0
INSERT
  5
4324
100
AcDbEntity
  8
V0-OBRYS
  6
CONTINUOUS
 62
    90
100
AcDbBlockReference
  2
ASVORKBOK
 10
1829.721191
 20
-11.000907
 30
0.0
  0
CIRCLE
  5
4325
100
AcDbEntity
  8
V0-OBRYS
  6
CONTINUOUS
 62
    90
100
AcDbCircle
 10
1829.721191
 20
-11.000907
 30
0.0
 40
73.857446
  0
LEADER
  5
4326
100
AcDbEntity
  8
V0-OBRYS
  6
CONTINUOUS
 62
    41
100
AcDbLeader
  3
ED30
 73
     0
 75
     1
 40
33.75
 41
283.526575
 76
     3
 10
2105.582343
 20
-298.283402
 30
0.0
 10
2031.079682
 20
-386.985102
 30
0.0
 10
2001.079682
 20
-386.985102
 30
0.0
 77
    90
340
4327
  0
MTEXT
  5
4327
102
{ACAD_REACTORS
330
4326
102
}
100
AcDbEntity
  8
V0-OBRYS
  6
CONTINUOUS
 62
    41
100
AcDbMText
 10
1999.079682
 20
-368.110102
 30
0.0
 40
33.75
 41
0.0
 71
     6
 72
     1
  1
4 OTVORY %%c10
  7
ED30
  0
TEXT
  5
4354
100
AcDbEntity
  8
V0-VYPLNE
 62
     6
100
AcDbText
 10
1195.064865
 20
344.414295
 30
0.0
 40
42.0
  1
HCF- 500
  7
ED30
100
AcDbText
  0
LINE
  5
43F7
100
AcDbEntity
  8
V0-OBRYS
  6
CONTINUOUS
 62
    90
100
AcDbLine
 10
1248.321191
 20
303.999093
 30
0.0
 11
1248.321191
 21
-326.000907
 31
0.0
  0
ARC
  5
44E8
100
AcDbEntity
  8
V0-OBRYS
  6
CONTINUOUS
 62
    90
100
AcDbCircle
 10
1829.721191
 20
35.597551
 30
0.0
 40
207.102264
100
AcDbArc
 50
80.024639
 51
99.975361
  0
CIRCLE
  5
44EA
100
AcDbEntity
  8
V0-OBRYS
  6
CONTINUOUS
 62
    90
 48
2.0
100
AcDbCircle
 10
1216.195912
 20
-1144.677053
 30
0.0
 40
2.894689
  0
CIRCLE
  5
44EB
100
AcDbEntity
  8
V0-OBRYS
  6
CONTINUOUS
 62
    90
 48
2.0
100
AcDbCircle
 10
1216.195912
 20
-1123.077053
 30
0.0
 40
2.894689
  0
CIRCLE
  5
44EC
100
AcDbEntity
  8
V0-OBRYS
  6
CONTINUOUS
 62
    90
 48
2.0
100
AcDbCircle
 10
1216.195912
 20
-1101.477053
 30
0.0
 40
2.894689
  0
CIRCLE
  5
44ED
100
AcDbEntity
  8
V0-OBRYS
  6
CONTINUOUS
 62
    90
 48
2.0
100
AcDbCircle
 10
1216.195912
 20
-1079.877053
 30
0.0
 40
2.894689
  0
CIRCLE
  5
44EE
100
AcDbEntity
  8
V0-OBRYS
  6
CONTINUOUS
 62
    90
 48
2.0
100
AcDbCircle
 10
1216.195912
 20
-1058.277053
 30
0.0
 40
2.894689
  0
CIRCLE
  5
44EF
100
AcDbEntity
  8
V0-OBRYS
  6
CONTINUOUS
 62
    90
 48
2.0
100
AcDbCircle
 10
1216.32239
 20
-782.234387
 30
0.0
 40
2.894689
  0
CIRCLE
  5
44F0
100
AcDbEntity
  8
V0-OBRYS
  6
CONTINUOUS
 62
    90
 48
2.0
100
AcDbCircle
 10
1216.32239
 20
-760.634387
 30
0.0
 40
2.894689
  0
CIRCLE
  5
44F1
100
AcDbEntity
  8
V0-OBRYS
  6
CONTINUOUS
 62
    90
 48
2.0
100
AcDbCircle
 10
1216.32239
 20
-739.034387
 30
0.0
 40
2.894689
  0
CIRCLE
  5
44F2
100
AcDbEntity
  8
V0-OBRYS
  6
CONTINUOUS
 62
    90
 48
2.0
100
AcDbCircle
 10
1216.32239
 20
-717.434387
 30
0.0
 40
2.894689
  0
CIRCLE
  5
44F3
100
AcDbEntity
  8
V0-OBRYS
  6
CONTINUOUS
 62
    90
 48
2.0
100
AcDbCircle
 10
1216.32239
 20
-695.834387
 30
0.0
 40
2.894689
  0
LINE
  5
44F4
100
AcDbEntity
  8
V0-OBRYS
  6
CONTINUOUS
 62
    90
 48
2.0
100
AcDbLine
 10
1207.29963
 20
-1010.25644
 30
0.0
 11
1236.72115
 21
-1010.25644
 31
0.0
  0
LINE
  5
44F5
100
AcDbEntity
  8
V0-OBRYS
  6
CONTINUOUS
 62
    90
 48
2.0
100
AcDbLine
 10
1207.29963
 20
-830.255
 30
0.0
 11
1236.72115
 21
-830.255
 31
0.0
  0
LINE
  5
44F6
100
AcDbEntity
  8
V0-OBRYS
  6
CONTINUOUS
 62
    90
 48
2.0
100
AcDbLine
 10
1221.257965
 20
-969.897473
 30
0.0
 11
1193.931724
 21
-963.080363
 31
0.0
  0
LINE
  5
44F7
100
AcDbEntity
  8
V0-OBRYS
  6
CONTINUOUS
 62
    90
 48
2.0
100
AcDbLine
 10
1221.257965
 20
-1004.740483
 30
0.0
 11
1194.689883
 21
-982.77424
 31
0.0
  0
LINE
  5
44F8
100
AcDbEntity
  8
V0-OBRYS
  6
CONTINUOUS
 62
    90
 48
2.0
100
AcDbLine
 10
1220.499806
 20
-988.83389
 30
0.0
 11
1195.448036
 21
-973.684758
 31
0.0
  0
LINE
  5
44F9
100
AcDbEntity
  8
V0-OBRYS
  6
CONTINUOUS
 62
    90
 48
2.0
100
AcDbLine
 10
1220.499806
 20
-951.718515
 30
0.0
 11
1194.689883
 21
-948.688686
 31
0.0
  0
LINE
  5
44FA
100
AcDbEntity
  8
V0-OBRYS
  6
CONTINUOUS
 62
    90
 48
2.0
100
AcDbLine
 10
1220.499806
 20
-933.539554
 30
0.0
 11
1194.689883
 21
-932.782097
 31
0.0
  0
LINE
  5
44FB
100
AcDbEntity
  8
V0-OBRYS
  6
CONTINUOUS
 62
    90
 48
2.0
100
AcDbLine
 10
1220.499806
 20
-906.971885
 30
0.0
 11
1194.689883
 21
-907.729342
 31
0.0
  0
LINE
  5
44FC
100
AcDbEntity
  8
V0-OBRYS
  6
CONTINUOUS
 62
    90
 48
2.0
100
AcDbLine
 10
1220.499806
 20
-888.792924
 30
0.0
 11
1194.689883
 21
-891.822753
 31
0.0
  0
LINE
  5
44FD
100
AcDbEntity
  8
V0-OBRYS
  6
CONTINUOUS
 62
    90
 48
2.0
100
AcDbLine
 10
1221.257965
 20
-870.613966
 30
0.0
 11
1193.931724
 21
-877.431076
 31
0.0
  0
LINE
  5
44FE
100
AcDbEntity
  8
V0-OBRYS
  6
CONTINUOUS
 62
    90
 48
2.0
100
AcDbLine
 10
1220.499806
 20
-851.677549
 30
0.0
 11
1195.448036
 21
-866.826681
 31
0.0
  0
LINE
  5
44FF
100
AcDbEntity
  8
V0-OBRYS
  6
CONTINUOUS
 62
    90
 48
2.0
100
AcDbLine
 10
1221.257965
 20
-835.770956
 30
0.0
 11
1194.689883
 21
-857.737199
 31
0.0
  0
LINE
  5
4500
100
AcDbEntity
  8
V0-OBRYS
  6
CONTINUOUS
 62
    90
 48
2.0
100
AcDbLine
 10
1194.51003
 20
-920.25572
 30
0.0
 11
1194.51003
 21
-994.46684
 31
0.0
  0
ARC
  5
4501
100
AcDbEntity
  8
V0-OBRYS
  6
CONTINUOUS
 62
    90
 48
2.0
100
AcDbCircle
 10
1207.779924
 20
-996.792803
 30
0.0
 40
13.472201
100
AcDbArc
 50
170.05812
 51
267.95693
  0
LINE
  5
4502
100
AcDbEntity
  8
V0-OBRYS
  6
CONTINUOUS
 62
    90
 48
2.0
100
AcDbLine
 10
1194.51003
 20
-920.25572
 30
0.0
 11
1194.51003
 21
-846.0446
 31
0.0
  0
INSERT
  5
4503
100
AcDbEntity
  8
V0-OBRYS
  6
CONTINUOUS
 62
    90
100
AcDbBlockReference
  2
ASVORK
 10
1194.51003
 20
-920.25572
 30
0.0
  0
ARC
  5
4504
100
AcDbEntity
  8
V0-OBRYS
  6
CONTINUOUS
 62
    90
 48
2.0
100
AcDbCircle
 10
1207.779924
 20
-843.718636
 30
0.0
 40
13.472201
100
AcDbArc
 50
92.04307
 51
189.94188
  0
LINE
  5
4505
100
AcDbEntity
  8
V0-OBRYS
  6
CONTINUOUS
 62
    90
 48
2.0
100
AcDbLine
 10
1236.721191
 20
-1235.25572
 30
0.0
 11
1236.721191
 21
-920.25572
 31
0.0
  0
LINE
  5
4506
100
AcDbEntity
  8
V0-OBRYS
  6
CONTINUOUS
 62
    90
100
AcDbLine
 10
1248.321191
 20
-605.25572
 30
0.0
 11
1248.321191
 21
-1235.25572
 31
0.0
  0
LINE
  5
4507
100
AcDbEntity
  8
V0-VYPLNE
  6
DASHED
 62
    52
100
AcDbLine
 10
1263.681671
 20
-1028.428533
 30
0.0
 11
1279.815098
 21
-1164.876791
 31
0.0
  0
LINE
  5
4508
100
AcDbEntity
  8
V0-VYPLNE
  6
DASHED
 62
    52
100
AcDbLine
 10
1335.760398
 20
-1028.428533
 30
0.0
 11
1319.62697
 21
-1164.876791
 31
0.0
  0
LINE
  5
4509
100
AcDbEntity
  8
V0-OBRYS
  6
CONTINUOUS
 62
    90
 48
2.0
100
AcDbLine
 10
1344.878441
 20
-920.25572
 30
0.0
 11
1344.878441
 21
-1170.25527
 31
0.0
  0
ARC
  5
450A
100
AcDbEntity
  8
V0-OBRYS
  6
CONTINUOUS
 62
    90
 48
2.0
100
AcDbCircle
 10
1158.09928
 20
-1197.000182
 30
0.0
 40
78.654444
100
AcDbArc
 50
2.178969
 51
29.949442
  0
ARC
  5
450B
100
AcDbEntity
  8
V0-OBRYS
  6
CONTINUOUS
 62
    90
 48
2.0
100
AcDbCircle
 10
1228.090934
 20
-1151.823684
 30
0.0
 40
9.0
100
AcDbArc
 50
180.0
 51
252.703019
  0
LINE
  5
450C
100
AcDbEntity
  8
V0-OBRYS
  6
CONTINUOUS
 62
    90
 48
2.0
100
AcDbLine
 10
1344.878441
 20
-1170.25527
 30
0.0
 11
1287.083015
 21
-1170.25527
 31
0.0
  0
LINE
  5
450D
100
AcDbEntity
  8
V0-VYPLNE
  6
DASHED
 62
    52
100
AcDbLine
 10
1279.815098
 20
-1164.876791
 30
0.0
 11
1319.62697
 21
-1164.876791
 31
0.0
  0
LINE
  5
450E
100
AcDbEntity
  8
V0-OBRYS
  6
CONTINUOUS
 62
    90
 48
2.0
100
AcDbLine
 10
1233.886152
 20
-1210.80163
 30
0.0
 11
1233.886152
 21
-1194.00966
 31
0.0
  0
LINE
  5
450F
100
AcDbEntity
  8
V0-OBRYS
  6
CONTINUOUS
 62
    90
 48
2.0
100
AcDbLine
 10
1248.321191
 20
-1235.25572
 30
0.0
 11
1236.721191
 21
-1235.25572
 31
0.0
  0
ARC
  5
4510
100
AcDbEntity
  8
V0-OBRYS
  6
CONTINUOUS
 62
    90
 48
2.0
100
AcDbCircle
 10
1235.303672
 20
-1210.80163
 30
0.0
 40
1.41752
100
AcDbArc
 50
180.0
 51
0.0
  0
ARC
  5
4511
100
AcDbEntity
  8
V0-OBRYS
  6
CONTINUOUS
 62
    90
 48
2.0
100
AcDbCircle
 10
1287.083015
 20
-1196.83002
 30
0.0
 40
26.57475
100
AcDbArc
 50
90.0
 51
149.420799
  0
ARC
  5
4512
100
AcDbEntity
  8
V0-OBRYS
  6
CONTINUOUS
 62
    90
 48
2.0
100
AcDbCircle
 10
1147.438277
 20
-1197.944632
 30
0.0
 40
86.537385
100
AcDbArc
 50
2.606215
 51
25.700174
  0
LINE
  5
4513
100
AcDbEntity
  8
V0-OBRYS
  6
CONTINUOUS
 62
    90
 48
2.0
100
AcDbLine
 10
1247.980991
 20
-1205.68827
 30
0.0
 11
1264.204101
 21
-1183.310676
 31
0.0
  0
LINE
  5
4514
100
AcDbEntity
  8
V0-OBRYS
  6
CONTINUOUS
 62
    90
 48
2.0
100
AcDbLine
 10
1236.721191
 20
-605.25572
 30
0.0
 11
1236.721191
 21
-920.25572
 31
0.0
  0
LINE
  5
4515
100
AcDbEntity
  8
V0-OBRYS
  6
CONTINUOUS
 62
    90
 48
2.0
100
AcDbLine
 10
1344.878441
 20
-920.25572
 30
0.0
 11
1344.878441
 21
-670.25617
 31
0.0
  0
LINE
  5
4516
100
AcDbEntity
  8
V0-VYPLNE
  6
DASHED
 62
    52
100
AcDbLine
 10
1263.681671
 20
-811.378972
 30
0.0
 11
1279.815098
 21
-674.930714
 31
0.0
  0
LINE
  5
4517
100
AcDbEntity
  8
V0-VYPLNE
  6
DASHED
 62
    52
100
AcDbLine
 10
1335.760398
 20
-811.378972
 30
0.0
 11
1319.62697
 21
-674.930714
 31
0.0
  0
LINE
  5
4518
100
AcDbEntity
  8
V0-OBRYS
  6
CONTINUOUS
 62
    90
 48
2.0
100
AcDbLine
 10
1219.090934
 20
-688.687755
 30
0.0
 11
1219.090934
 21
-792.002976
 31
0.0
  0
LINE
  5
4519
100
AcDbEntity
  8
V0-OBRYS
  6
CONTINUOUS
 62
    90
 48
2.0
100
AcDbLine
 10
1221.901635
 20
-688.687755
 30
0.0
 11
1221.901635
 21
-792.002976
 31
0.0
  0
LINE
  5
451A
100
AcDbEntity
  8
V0-VYPLNE
  6
DASHED
 62
    52
100
AcDbLine
 10
1255.992166
 20
-1002.36164
 30
0.0
 11
1255.992166
 21
-920.25572
 31
0.0
  0
LINE
  5
451B
100
AcDbEntity
  8
V0-OBRYS
  6
CONTINUOUS
 62
    90
 48
2.0
100
AcDbLine
 10
1221.51027
 20
-920.25572
 30
0.0
 11
1221.51027
 21
-1010.25644
 31
0.0
  0
ELLIPSE
  5
451C
100
AcDbEntity
  8
V0-VYPLNE
  6
DASHED
 62
    52
100
AcDbEllipse
 10
272.99323
 20
-908.398459
 30
0.0
 11
0.0
 21
1174.336946726076
 31
0.0
210
0.0
220
0.0
230
-1.0
 40
0.909091
 41
1.580593751677049
 42
1.660762687017188
  0
LINE
  5
451D
100
AcDbEntity
  8
V0-VYPLNE
  6
DASHED
 62
    52
100
AcDbLine
 10
1263.721034
 20
-919.903753
 30
0.0
 11
1263.721034
 21
-1020.223753
 31
0.0
  0
LINE
  5
451E
100
AcDbEntity
  8
V0-VYPLNE
  6
DASHED
 62
    52
100
AcDbLine
 10
1299.721034
 20
-1025.253174
 30
0.0
 11
1299.721034
 21
-919.903753
 31
0.0
  0
LINE
  5
451F
100
AcDbEntity
  8
V0-OBRYS
  6
CONTINUOUS
 62
    90
 48
2.0
100
AcDbLine
 10
1221.901635
 20
-1151.823684
 30
0.0
 11
1221.901635
 21
-1048.508463
 31
0.0
  0
LINE
  5
4520
100
AcDbEntity
  8
V0-OBRYS
  6
CONTINUOUS
 62
    90
 48
2.0
100
AcDbLine
 10
1219.090934
 20
-1151.823684
 30
0.0
 11
1219.090934
 21
-1048.508463
 31
0.0
  0
ARC
  5
4521
100
AcDbEntity
  8
V0-OBRYS
  6
CONTINUOUS
 62
    90
 48
2.0
100
AcDbCircle
 10
1228.090934
 20
-1151.823684
 30
0.0
 40
6.189299
100
AcDbArc
 50
180.0
 51
252.703019
  0
ELLIPSE
  5
4522
100
AcDbEntity
  8
V0-VYPLNE
  6
DASHED
 62
    52
100
AcDbEllipse
 10
1299.721034
 20
-866.839829
 30
0.0
 11
-0.0000000000005955
 21
158.4133457296311
 31
0.0
210
0.0
220
0.0
230
-1.0
 40
0.909091
 41
2.929991421004501
 42
3.394251156505874
  0
LINE
  5
4523
100
AcDbEntity
  8
V0-VYPLNE
  6
DASHED
 62
    52
100
AcDbLine
 10
1269.827739
 20
-1021.674093
 30
0.0
 11
1263.681671
 21
-1028.428533
 31
0.0
  0
ARC
  5
4524
100
AcDbEntity
  8
V0-OBRYS
  6
CONTINUOUS
 62
    90
 48
2.0
100
AcDbCircle
 10
1227.721191
 20
-1029.512595
 30
0.0
 40
11.810701
100
AcDbArc
 50
289.78203
 51
319.642674
  0
ARC
  5
4525
100
AcDbEntity
  8
V0-OBRYS
  6
CONTINUOUS
 62
    90
 48
2.0
100
AcDbCircle
 10
1227.721191
 20
-1029.512595
 30
0.0
 40
9.0
100
AcDbArc
 50
289.78203
 51
0.0
  0
ARC
  5
4526
100
AcDbEntity
  8
V0-OBRYS
  6
CONTINUOUS
 62
    90
 48
2.0
100
AcDbCircle
 10
1228.090934
 20
-1048.508463
 30
0.0
 40
9.0
100
AcDbArc
 50
109.78203
 51
180.0
  0
ARC
  5
4527
100
AcDbEntity
  8
V0-OBRYS
  6
CONTINUOUS
 62
    90
 48
2.0
100
AcDbCircle
 10
1228.090934
 20
-1048.508463
 30
0.0
 40
6.189299
100
AcDbArc
 50
109.78203
 51
180.0
  0
LINE
  5
4528
100
AcDbEntity
  8
V0-OBRYS
  6
CONTINUOUS
 62
    90
 48
2.0
100
AcDbLine
 10
1225.99621
 20
-1042.684413
 30
0.0
 11
1231.718438
 21
-1040.626311
 31
0.0
  0
LINE
  5
4529
100
AcDbEntity
  8
V0-OBRYS
  6
CONTINUOUS
 62
    90
 48
2.0
100
AcDbLine
 10
1225.044948
 20
-1040.03958
 30
0.0
 11
1230.767177
 21
-1037.981478
 31
0.0
  0
LINE
  5
452A
100
AcDbEntity
  8
V0-VYPLNE
  6
DASHED
 62
    52
100
AcDbLine
 10
1236.721237
 20
-1004.740483
 30
0.0
 11
1255.992166
 21
-1004.740483
 31
0.0
  0
LINE
  5
452B
100
AcDbEntity
  8
V0-VYPLNE
  6
DASHED
 62
    52
100
AcDbLine
 10
1236.721237
 20
-1010.25644
 30
0.0
 11
1248.097366
 21
-1010.25644
 31
0.0
  0
LINE
  5
452C
100
AcDbEntity
  8
V0-OBRYS
  6
CONTINUOUS
 62
    90
 48
2.0
100
AcDbLine
 10
1221.257965
 20
-1004.740483
 30
0.0
 11
1236.72115
 21
-1004.740483
 31
0.0
  0
ARC
  5
452D
100
AcDbEntity
  8
V0-VYPLNE
  6
DASHED
 62
    52
 48
2.0
100
AcDbCircle
 10
1248.097366
 20
-1002.36164
 30
0.0
 40
7.8948
100
AcDbArc
 50
270.0
 51
0.0
  0
LINE
  5
452E
100
AcDbEntity
  8
V0-VYPLNE
  6
DASHED
 62
    52
100
AcDbLine
 10
1236.721237
 20
-988.83389
 30
0.0
 11
1255.992166
 21
-988.83389
 31
0.0
  0
LINE
  5
452F
100
AcDbEntity
  8
V0-VYPLNE
  6
DASHED
 62
    52
100
AcDbLine
 10
1236.721237
 20
-969.897473
 30
0.0
 11
1255.234013
 21
-969.897473
 31
0.0
  0
LINE
  5
4530
100
AcDbEntity
  8
V0-OBRYS
  6
CONTINUOUS
 62
    90
 48
2.0
100
AcDbLine
 10
1221.257965
 20
-969.897473
 30
0.0
 11
1236.72115
 21
-969.897473
 31
0.0
  0
LINE
  5
4531
100
AcDbEntity
  8
V0-OBRYS
  6
CONTINUOUS
 62
    90
 48
2.0
100
AcDbLine
 10
1220.499806
 20
-988.83389
 30
0.0
 11
1236.72115
 21
-988.83389
 31
0.0
  0
ELLIPSE
  5
4532
100
AcDbEntity
  8
V0-VYPLNE
  6
DASHED
 62
    52
100
AcDbEllipse
 10
1328.287076
 20
-1013.116179
 30
0.0
 11
0.0000000000004001
 21
8.799999999999997
 31
0.0
210
0.0
220
0.0
230
-1.0
 40
0.909091
 41
1.660762687017187
 42
2.929991421004503
  0
LINE
  5
4533
100
AcDbEntity
  8
V0-VYPLNE
  6
DASHED
 62
    52
100
AcDbLine
 10
1329.614329
 20
-1021.674093
 30
0.0
 11
1335.760398
 21
-1028.428533
 31
0.0
  0
LINE
  5
4534
100
AcDbEntity
  8
V0-VYPLNE
  6
DASHED
 62
    52
100
AcDbLine
 10
1255.992166
 20
-838.1498
 30
0.0
 11
1255.992166
 21
-920.25572
 31
0.0
  0
LINE
  5
4535
100
AcDbEntity
  8
V0-OBRYS
  6
CONTINUOUS
 62
    90
 48
2.0
100
AcDbLine
 10
1221.51027
 20
-920.25572
 30
0.0
 11
1221.51027
 21
-830.255
 31
0.0
  0
LINE
  5
4536
100
AcDbEntity
  8
V0-VYPLNE
  6
DASHED
 62
    52
100
AcDbLine
 10
1299.721034
 20
-814.554331
 30
0.0
 11
1299.721034
 21
-919.903753
 31
0.0
  0
LINE
  5
4537
100
AcDbEntity
  8
V0-VYPLNE
  6
DASHED
 62
    52
100
AcDbLine
 10
1263.721034
 20
-919.903753
 30
0.0
 11
1263.721034
 21
-819.583753
 31
0.0
  0
ELLIPSE
  5
4538
100
AcDbEntity
  8
V0-VYPLNE
  6
DASHED
 62
    52
100
AcDbEllipse
 10
272.99323
 20
-931.409047
 30
0.0
 11
-0.0000000000011424
 21
1174.336946726076
 31
0.0
210
0.0
220
0.0
230
-1.0
 40
0.909091
 41
1.480829966572604
 42
1.560998901912743
  0
LINE
  5
4539
100
AcDbEntity
  8
V0-VYPLNE
  6
DASHDOT
 62
    63
100
AcDbLine
 10
1220.917908
 20
-920.255826
 30
0.0
 11
1363.902694
 21
-920.255826
 31
0.0
  0
LINE
  5
453A
100
AcDbEntity
  8
V0-VYPLNE
  6
DASHED
 62
    52
100
AcDbLine
 10
1264.356234
 20
-931.949839
 30
0.0
 11
1338.465076
 21
-907.444404
 31
0.0
  0
ELLIPSE
  5
453E
100
AcDbEntity
  8
V0-VYPLNE
  6
DASHED
 62
    52
100
AcDbEllipse
 10
1299.721034
 20
-920.255826
 30
0.0
 11
0.0000000000007164
 21
7.458195139447457
 31
0.0
210
0.0
220
0.0
230
-1.0
 40
0.909091
 41
0.0
 42
6.283185307179586
  0
LINE
  5
453F
100
AcDbEntity
  8
V0-VYPLNE
  6
DASHED
 62
    52
100
AcDbLine
 10
1236.721237
 20
-951.718515
 30
0.0
 11
1255.992166
 21
-951.718515
 31
0.0
  0
LINE
  5
4540
100
AcDbEntity
  8
V0-OBRYS
  6
CONTINUOUS
 62
    90
 48
2.0
100
AcDbLine
 10
1225.048742
 20
-951.718515
 30
0.0
 11
1236.72115
 21
-951.718515
 31
0.0
  0
LINE
  5
4541
100
AcDbEntity
  8
V0-OBRYS
  6
CONTINUOUS
 62
    90
 48
2.0
100
AcDbLine
 10
1220.499806
 20
-951.718515
 30
0.0
 11
1225.048742
 21
-951.718515
 31
0.0
  0
LINE
  5
4542
100
AcDbEntity
  8
V0-VYPLNE
  6
DASHED
 62
    52
100
AcDbLine
 10
1236.721237
 20
-933.539554
 30
0.0
 11
1255.234013
 21
-933.539554
 31
0.0
  0
LINE
  5
4543
100
AcDbEntity
  8
V0-OBRYS
  6
CONTINUOUS
 62
    90
 48
2.0
100
AcDbLine
 10
1220.499806
 20
-933.539554
 30
0.0
 11
1236.72115
 21
-933.539554
 31
0.0
  0
LINE
  5
4544
100
AcDbEntity
  8
V0-VYPLNE
  6
DASHED
 62
    52
100
AcDbLine
 10
1236.721237
 20
-906.971885
 30
0.0
 11
1255.234013
 21
-906.971885
 31
0.0
  0
LINE
  5
4545
100
AcDbEntity
  8
V0-OBRYS
  6
CONTINUOUS
 62
    90
 48
2.0
100
AcDbLine
 10
1220.499806
 20
-906.971885
 30
0.0
 11
1236.72115
 21
-906.971885
 31
0.0
  0
LINE
  5
4546
100
AcDbEntity
  8
V0-VYPLNE
  6
DASHED
 62
    52
100
AcDbLine
 10
1236.721237
 20
-888.792924
 30
0.0
 11
1255.992166
 21
-888.792924
 31
0.0
  0
LINE
  5
4547
100
AcDbEntity
  8
V0-VYPLNE
  6
DASHED
 62
    52
100
AcDbLine
 10
1236.721237
 20
-870.613966
 30
0.0
 11
1255.234013
 21
-870.613966
 31
0.0
  0
LINE
  5
4548
100
AcDbEntity
  8
V0-OBRYS
  6
CONTINUOUS
 62
    90
 48
2.0
100
AcDbLine
 10
1225.048742
 20
-888.792924
 30
0.0
 11
1236.72115
 21
-888.792924
 31
0.0
  0
LINE
  5
4549
100
AcDbEntity
  8
V0-OBRYS
  6
CONTINUOUS
 62
    90
 48
2.0
100
AcDbLine
 10
1221.257965
 20
-870.613966
 30
0.0
 11
1236.72115
 21
-870.613966
 31
0.0
  0
LINE
  5
454A
100
AcDbEntity
  8
V0-OBRYS
  6
CONTINUOUS
 62
    90
 48
2.0
100
AcDbLine
 10
1220.499806
 20
-888.792924
 30
0.0
 11
1225.048742
 21
-888.792924
 31
0.0
  0
ELLIPSE
  5
454B
100
AcDbEntity
  8
V0-VYPLNE
  6
DASHED
 62
    52
100
AcDbEllipse
 10
1299.721034
 20
-972.967677
 30
0.0
 11
-0.0000000000005955
 21
158.4133457296311
 31
0.0
210
0.0
220
0.0
230
-1.0
 40
0.909091
 41
6.030526804263504
 42
6.494786539764878
  0
LINE
  5
454C
100
AcDbEntity
  8
V0-VYPLNE
  6
DASHED
 62
    52
100
AcDbLine
 10
1236.721237
 20
-851.677549
 30
0.0
 11
1255.992166
 21
-851.677549
 31
0.0
  0
LINE
  5
454D
100
AcDbEntity
  8
V0-OBRYS
  6
CONTINUOUS
 62
    90
 48
2.0
100
AcDbLine
 10
1220.499806
 20
-851.677549
 30
0.0
 11
1236.72115
 21
-851.677549
 31
0.0
  0
LINE
  5
454E
100
AcDbEntity
  8
V0-VYPLNE
  6
DASHED
 62
    52
100
AcDbLine
 10
1236.721237
 20
-835.770956
 30
0.0
 11
1255.992166
 21
-835.770956
 31
0.0
  0
LINE
  5
454F
100
AcDbEntity
  8
V0-VYPLNE
  6
DASHED
 62
    52
100
AcDbLine
 10
1236.721237
 20
-830.255
 30
0.0
 11
1248.097366
 21
-830.255
 31
0.0
  0
LINE
  5
4550
100
AcDbEntity
  8
V0-OBRYS
  6
CONTINUOUS
 62
    90
 48
2.0
100
AcDbLine
 10
1221.257965
 20
-835.770956
 30
0.0
 11
1236.72115
 21
-835.770956
 31
0.0
  0
ARC
  5
4551
100
AcDbEntity
  8
V0-VYPLNE
  6
DASHED
 62
    52
 48
2.0
100
AcDbCircle
 10
1248.097366
 20
-838.1498
 30
0.0
 40
7.8948
100
AcDbArc
 50
0.0
 51
90.0
  0
LINE
  5
4552
100
AcDbEntity
  8
V0-VYPLNE
  6
DASHED
 62
    52
100
AcDbLine
 10
1269.827739
 20
-818.133412
 30
0.0
 11
1263.681671
 21
-811.378972
 31
0.0
  0
ARC
  5
4553
100
AcDbEntity
  8
V0-OBRYS
  6
CONTINUOUS
 62
    90
 48
2.0
100
AcDbCircle
 10
1228.090934
 20
-792.002976
 30
0.0
 40
9.0
100
AcDbArc
 50
180.0
 51
250.21797
  0
ARC
  5
4554
100
AcDbEntity
  8
V0-OBRYS
  6
CONTINUOUS
 62
    90
 48
2.0
100
AcDbCircle
 10
1228.090934
 20
-792.002976
 30
0.0
 40
6.189299
100
AcDbArc
 50
180.0
 51
250.21797
  0
ARC
  5
4555
100
AcDbEntity
  8
V0-OBRYS
  6
CONTINUOUS
 62
    90
 48
2.0
100
AcDbCircle
 10
1227.721191
 20
-810.998844
 30
0.0
 40
11.810701
100
AcDbArc
 50
40.357326
 51
70.21797
  0
LINE
  5
4556
100
AcDbEntity
  8
V0-OBRYS
  6
CONTINUOUS
 62
    90
 48
2.0
100
AcDbLine
 10
1225.044948
 20
-800.471859
 30
0.0
 11
1230.767177
 21
-802.529961
 31
0.0
  0
LINE
  5
4557
100
AcDbEntity
  8
V0-OBRYS
  6
CONTINUOUS
 62
    90
 48
2.0
100
AcDbLine
 10
1225.99621
 20
-797.827026
 30
0.0
 11
1231.718438
 21
-799.885128
 31
0.0
  0
ARC
  5
4558
100
AcDbEntity
  8
V0-OBRYS
  6
CONTINUOUS
 62
    90
 48
2.0
100
AcDbCircle
 10
1227.721191
 20
-810.998844
 30
0.0
 40
9.0
100
AcDbArc
 50
0.0
 51
70.21797
  0
LINE
  5
4559
100
AcDbEntity
  8
V0-VYPLNE
  6
DASHED
 62
    52
100
AcDbLine
 10
1329.614329
 20
-818.133412
 30
0.0
 11
1335.760398
 21
-811.378972
 31
0.0
  0
ARC
  5
455A
100
AcDbEntity
  8
V0-OBRYS
  6
CONTINUOUS
 62
    90
 48
2.0
100
AcDbCircle
 10
1158.09928
 20
-643.511257
 30
0.0
 40
78.654444
100
AcDbArc
 50
330.050558
 51
357.821031
  0
ARC
  5
455B
100
AcDbEntity
  8
V0-OBRYS
  6
CONTINUOUS
 62
    90
 48
2.0
100
AcDbCircle
 10
1147.438277
 20
-642.566807
 30
0.0
 40
86.537385
100
AcDbArc
 50
334.299826
 51
357.393785
  0
ARC
  5
455C
100
AcDbEntity
  8
V0-OBRYS
  6
CONTINUOUS
 62
    90
 48
2.0
100
AcDbCircle
 10
1228.090934
 20
-688.687755
 30
0.0
 40
9.0
100
AcDbArc
 50
107.296981
 51
180.0
  0
ARC
  5
455D
100
AcDbEntity
  8
V0-OBRYS
  6
CONTINUOUS
 62
    90
 48
2.0
100
AcDbCircle
 10
1228.090934
 20
-688.687755
 30
0.0
 40
6.189299
100
AcDbArc
 50
107.296981
 51
180.0
  0
LINE
  5
455E
100
AcDbEntity
  8
V0-OBRYS
  6
CONTINUOUS
 62
    90
 48
2.0
100
AcDbLine
 10
1344.878441
 20
-670.25617
 30
0.0
 11
1287.083015
 21
-670.25617
 31
0.0
  0
LINE
  5
455F
100
AcDbEntity
  8
V0-VYPLNE
  6
DASHED
 62
    52
100
AcDbLine
 10
1279.815098
 20
-674.930714
 30
0.0
 11
1319.62697
 21
-674.930714
 31
0.0
  0
ARC
  5
4560
100
AcDbEntity
  8
V0-OBRYS
  6
CONTINUOUS
 62
    90
 48
2.0
100
AcDbCircle
 10
1287.083015
 20
-643.68142
 30
0.0
 40
26.57475
100
AcDbArc
 50
210.579201
 51
270.0
  0
LINE
  5
4561
100
AcDbEntity
  8
V0-OBRYS
  6
CONTINUOUS
 62
    90
 48
2.0
100
AcDbLine
 10
1247.980991
 20
-634.82317
 30
0.0
 11
1264.204101
 21
-657.200763
 31
0.0
  0
ARC
  5
4562
100
AcDbEntity
  8
V0-OBRYS
  6
CONTINUOUS
 62
    90
 48
2.0
100
AcDbCircle
 10
1235.303672
 20
-629.709809
 30
0.0
 40
1.41752
100
AcDbArc
 50
0.0
 51
180.0
  0
LINE
  5
4563
100
AcDbEntity
  8
V0-OBRYS
  6
CONTINUOUS
 62
    90
 48
2.0
100
AcDbLine
 10
1233.886152
 20
-629.709809
 30
0.0
 11
1233.886152
 21
-646.501779
 31
0.0
  0
LINE
  5
4564
100
AcDbEntity
  8
V0-OBRYS
  6
CONTINUOUS
 62
    90
 48
2.0
100
AcDbLine
 10
1248.321191
 20
-605.25572
 30
0.0
 11
1236.721191
 21
-605.25572
 31
0.0
  0
TEXT
  5
4573
100
AcDbEntity
  8
V0-VYPLNE
 62
     6
100
AcDbText
 10
1195.064865
 20
-574.445323
 30
0.0
 40
42.0
  1
HCF- 500
  7
ED30
100
AcDbText
  0
POINT
  5
459D
100
AcDbEntity
  8
V0-VYPLNE
  6
CONTINUOUS
 62
    41
100
AcDbPoint
 10
1344.878441
 20
-11.000907
 30
0.0
  0
POINT
  5
459E
100
AcDbEntity
  8
V0-VYPLNE
  6
CONTINUOUS
 62
    41
100
AcDbPoint
 10
1344.878441
 20
-920.25572
 30
0.0
  0
VIEWPORT
  5
22
100
AcDbEntity
 67
     1
  8
0
100
AcDbViewport
 10
261.517699
 20
148.5
 30
0.0
 40
523.035398
 41
297.0
 68
    -1
 69
     1
1001
ACAD
1000
MVIEW
1002
{
1070
    16
1010
0.0
1020
0.0
1030
0.0
1010
0.0
1020
0.0
1030
1.0
1040
0.0
1040
297.0
1040
261.517699
1040
148.5
1040
50.0
1040
0.0
1040
0.0
1070
     0
1070
   100
1070
     1
1070
     1
1070
     0
1070
     0
1070
     0
1070
     0
1040
0.0
1040
0.0
1040
0.0
1040
1.0
1040
1.0
1040
10.0
1040
10.0
1070
     0
1002
{
1002
}
1002
}
  0
ENDSEC
  0
SECTION
  2
OBJECTS
  0
DICTIONARY
  5
C
100
AcDbDictionary
  3
ACAD_GROUP
350
D
  3
ACAD_MLINESTYLE
350
E
  3
ACDBVARIABLEDICTIONARY
350
5D
  0
DICTIONARY
  5
D
102
{ACAD_REACTORS
330
C
102
}
100
AcDbDictionary
  0
DICTIONARY
  5
E
102
{ACAD_REACTORS
330
C
102
}
100
AcDbDictionary
  3
STANDARD
350
13
  0
DICTIONARY
  5
5D
102
{ACAD_REACTORS
330
C
102
}
100
AcDbDictionary
  3
DIMADEC
350
5E
  3
SORTENTS
350
3D8
  0
MLINESTYLE
  5
13
102
{ACAD_REACTORS
330
E
102
}
100
AcDbMlineStyle
  2
STANDARD
 70
     0
  3

 62
     0
 51
90.0
 52
90.0
 71
     2
 49
0.5
 62
   256
  6
BYLAYER
 49
-0.5
 62
   256
  6
BYLAYER
  0
DICTIONARYVAR
  5
5E
102
{ACAD_REACTORS
330
5D
102
}
100
DictionaryVariables
280
     0
  1
0
  0
DICTIONARYVAR
  5
3D8
102
{ACAD_REACTORS
330
5D
102
}
100
DictionaryVariables
280
     0
  1
96
  0
ENDSEC
  0
EOF
