  0
SECTION
  2
HEADER
  9
$ACADVER
  1
AC1014
  9
$ACADMAINTVER
 70
     0
  9
$DWGCODEPAGE
  3
ANSI_1250
  9
$INSBASE
 10
0.0
 20
0.0
 30
0.0
  9
$EXTMIN
 10
-163.887652
 20
-286.84389
 30
-0.001526
  9
$EXTMAX
 10
710.368312
 20
393.407919
 30
0.0
  9
$LIMMIN
 10
0.0
 20
0.0
  9
$LIMMAX
 10
420.0
 20
297.0
  9
$ORTHOMODE
 70
     0
  9
$REGENMODE
 70
     1
  9
$FILLMODE
 70
     1
  9
$QTEXTMODE
 70
     0
  9
$MIRRTEXT
 70
     1
  9
$DRAGMODE
 70
     2
  9
$LTSCALE
 40
1.0
  9
$OSMODE
 70
    36
  9
$ATTMODE
 70
     1
  9
$TEXTSIZE
 40
20.0
  9
$TRACEWID
 40
1.0
  9
$TEXTSTYLE
  7
ED20
  9
$CLAYER
  8
V0-ZBYTEK
  9
$CELTYPE
  6
CONTINUOUS
  9
$CECOLOR
 62
    41
  9
$CELTSCALE
 40
3.0
  9
$DELOBJ
 70
     1
  9
$DISPSILH
 70
     0
  9
$DIMSCALE
 40
1.0
  9
$DIMASZ
 40
20.0
  9
$DIMEXO
 40
1.0
  9
$DIMDLI
 40
3.75
  9
$DIMRND
 40
0.0
  9
$DIMDLE
 40
0.0
  9
$DIMEXE
 40
1.25
  9
$DIMTP
 40
0.0
  9
$DIMTM
 40
0.0
  9
$DIMTXT
 40
20.0
  9
$DIMCEN
 40
3.0
  9
$DIMTSZ
 40
0.0
  9
$DIMTOL
 70
     0
  9
$DIMLIM
 70
     0
  9
$DIMTIH
 70
     0
  9
$DIMTOH
 70
     0
  9
$DIMSE1
 70
     0
  9
$DIMSE2
 70
     0
  9
$DIMTAD
 70
     1
  9
$DIMZIN
 70
     8
  9
$DIMBLK
  1

  9
$DIMASO
 70
     1
  9
$DIMSHO
 70
     1
  9
$DIMPOST
  1

  9
$DIMAPOST
  1

  9
$DIMALT
 70
     0
  9
$DIMALTD
 70
     4
  9
$DIMALTF
 40
0.0394
  9
$DIMLFAC
 40
1.0
  9
$DIMTOFL
 70
     1
  9
$DIMTVP
 40
0.0
  9
$DIMTIX
 70
     0
  9
$DIMSOXD
 70
     0
  9
$DIMSAH
 70
     1
  9
$DIMBLK1
  1
_OPEN
  9
$DIMBLK2
  1
_OPEN
  9
$DIMSTYLE
  2
ED20
  9
$DIMCLRD
 70
     0
  9
$DIMCLRE
 70
     0
  9
$DIMCLRT
 70
     0
  9
$DIMTFAC
 40
1.0
  9
$DIMGAP
 40
2.0
  9
$DIMJUST
 70
     0
  9
$DIMSD1
 70
     0
  9
$DIMSD2
 70
     0
  9
$DIMTOLJ
 70
     1
  9
$DIMTZIN
 70
     8
  9
$DIMALTZ
 70
     0
  9
$DIMALTTZ
 70
     0
  9
$DIMFIT
 70
     3
  9
$DIMUPT
 70
     0
  9
$DIMUNIT
 70
     2
  9
$DIMDEC
 70
     0
  9
$DIMTDEC
 70
     1
  9
$DIMALTU
 70
     8
  9
$DIMALTTD
 70
     4
  9
$DIMTXSTY
  7
ED20
  9
$DIMAUNIT
 70
     0
  9
$LUNITS
 70
     2
  9
$LUPREC
 70
     4
  9
$SKETCHINC
 40
1.0
  9
$FILLETRAD
 40
10.0
  9
$AUNITS
 70
     0
  9
$AUPREC
 70
     0
  9
$MENU
  1
.
  9
$ELEVATION
 40
0.0
  9
$PELEVATION
 40
0.0
  9
$THICKNESS
 40
0.0
  9
$LIMCHECK
 70
     0
  9
$BLIPMODE
 70
     0
  9
$CHAMFERA
 40
0.0
  9
$CHAMFERB
 40
0.0
  9
$CHAMFERC
 40
20.0
  9
$CHAMFERD
 40
0.0
  9
$SKPOLY
 70
     1
  9
$TDCREATE
 40
2451196.643769328
  9
$TDUPDATE
 40
2453309.911977882
  9
$TDINDWG
 40
0.4436593866
  9
$TDUSRTIMER
 40
0.4436593866
  9
$USRTIMER
 70
     1
  9
$ANGBASE
 50
0.0
  9
$ANGDIR
 70
     0
  9
$PDMODE
 70
     3
  9
$PDSIZE
 40
20.0
  9
$PLINEWID
 40
0.0
  9
$COORDS
 70
     1
  9
$SPLFRAME
 70
     0
  9
$SPLINETYPE
 70
     6
  9
$SPLINESEGS
 70
     8
  9
$ATTDIA
 70
     0
  9
$ATTREQ
 70
     1
  9
$HANDLING
 70
     1
  9
$HANDSEED
  5
218E
  9
$SURFTAB1
 70
     6
  9
$SURFTAB2
 70
     6
  9
$SURFTYPE
 70
     6
  9
$SURFU
 70
     6
  9
$SURFV
 70
     6
  9
$UCSNAME
  2

  9
$UCSORG
 10
0.0
 20
0.0
 30
0.0
  9
$UCSXDIR
 10
1.0
 20
0.0
 30
0.0
  9
$UCSYDIR
 10
0.0
 20
1.0
 30
0.0
  9
$PUCSNAME
  2

  9
$PUCSORG
 10
0.0
 20
0.0
 30
0.0
  9
$PUCSXDIR
 10
1.0
 20
0.0
 30
0.0
  9
$PUCSYDIR
 10
0.0
 20
1.0
 30
0.0
  9
$USERI1
 70
     0
  9
$USERI2
 70
     0
  9
$USERI3
 70
     0
  9
$USERI4
 70
     0
  9
$USERI5
 70
     0
  9
$USERR1
 40
0.0
  9
$USERR2
 40
0.0
  9
$USERR3
 40
0.0
  9
$USERR4
 40
0.0
  9
$USERR5
 40
0.0
  9
$WORLDVIEW
 70
     1
  9
$SHADEDGE
 70
     3
  9
$SHADEDIF
 70
    70
  9
$TILEMODE
 70
     1
  9
$MAXACTVP
 70
    48
  9
$PINSBASE
 10
0.0
 20
0.0
 30
0.0
  9
$PLIMCHECK
 70
     0
  9
$PEXTMIN
 10
1.000000E+20
 20
1.000000E+20
 30
1.000000E+20
  9
$PEXTMAX
 10
-1.000000E+20
 20
-1.000000E+20
 30
-1.000000E+20
  9
$PLIMMIN
 10
0.0
 20
0.0
  9
$PLIMMAX
 10
420.0
 20
297.0
  9
$UNITMODE
 70
     0
  9
$VISRETAIN
 70
     1
  9
$PLINEGEN
 70
     0
  9
$PSLTSCALE
 70
     0
  9
$TREEDEPTH
 70
  3020
  9
$PICKSTYLE
 70
     1
  9
$CMLSTYLE
  2
STANDARD
  9
$CMLJUST
 70
     0
  9
$CMLSCALE
 40
1.0
  9
$PROXYGRAPHICS
 70
     1
  9
$MEASUREMENT
 70
     1
  0
ENDSEC
  0
SECTION
  2
CLASSES
  0
CLASS
  1
DICTIONARYVAR
  2
AcDbDictionaryVar
  3
"AutoCAD"
 90
        0
280
     0
281
     0
  0
CLASS
  1
LWPOLYLINE
  2
AcDbPolyline
  3
"AutoCAD"
 90
        0
280
     0
281
     1
  0
CLASS
  1
HATCH
  2
AcDbHatch
  3
"ACAD_SEDONA"
 90
        0
280
     0
281
     1
  0
ENDSEC
  0
SECTION
  2
TABLES
  0
TABLE
  2
VPORT
  5
8
100
AcDbSymbolTable
 70
    10
  0
VPORT
  5
218D
100
AcDbSymbolTableRecord
100
AcDbViewportTableRecord
  2
*ACTIVE
 70
     0
 10
0.0
 20
0.0
 11
1.0
 21
1.0
 12
222.778032
 22
39.833452
 13
0.0
 23
0.0
 14
10.0
 24
10.0
 15
10.0
 25
10.0
 16
0.0
 26
0.0
 36
1.0
 17
0.0
 27
0.0
 37
0.0
 40
863.7429
 41
1.650104
 42
50.0
 43
0.0
 44
0.0
 50
0.0
 51
0.0
 71
     0
 72
   100
 73
     1
 74
     1
 75
     0
 76
     0
 77
     0
 78
     0
  0
ENDTAB
  0
TABLE
  2
LTYPE
  5
5
100
AcDbSymbolTable
 70
     3
  0
LTYPE
  5
14
100
AcDbSymbolTableRecord
100
AcDbLinetypeTableRecord
  2
BYBLOCK
 70
     0
  3

 72
    65
 73
     0
 40
0.0
  0
LTYPE
  5
15
100
AcDbSymbolTableRecord
100
AcDbLinetypeTableRecord
  2
BYLAYER
 70
     0
  3

 72
    65
 73
     0
 40
0.0
  0
LTYPE
  5
16
100
AcDbSymbolTableRecord
100
AcDbLinetypeTableRecord
  2
CONTINUOUS
 70
     0
  3
Solid line
 72
    65
 73
     0
 40
0.0
  0
LTYPE
  5
7F
100
AcDbSymbolTableRecord
100
AcDbLinetypeTableRecord
  2
DASHDOT
 70
     0
  3
Dash dot __ . __ . __ . __ . __ . __ . __ . __
 72
    65
 73
     4
 40
25.4
 49
12.7
 74
     0
 49
-6.35
 74
     0
 49
0.0
 74
     0
 49
-6.35
 74
     0
  0
LTYPE
  5
80
100
AcDbSymbolTableRecord
100
AcDbLinetypeTableRecord
  2
DASHED
 70
     0
  3
Dashed __ __ __ __ __ __ __ __ __ __ __ __ __ _
 72
    65
 73
     2
 40
19.05
 49
12.7
 74
     0
 49
-6.35
 74
     0
  0
ENDTAB
  0
TABLE
  2
LAYER
  5
2
100
AcDbSymbolTable
 70
     6
  0
LAYER
  5
F
100
AcDbSymbolTableRecord
100
AcDbLayerTableRecord
  2
0
 70
     0
 62
     7
  6
CONTINUOUS
  0
LAYER
  5
9E
100
AcDbSymbolTableRecord
100
AcDbLayerTableRecord
  2
DEFPOINTS
 70
     0
 62
     7
  6
CONTINUOUS
  0
LAYER
  5
377
100
AcDbSymbolTableRecord
100
AcDbLayerTableRecord
  2
V0-OBRYS
 70
     0
 62
    90
  6
CONTINUOUS
  0
LAYER
  5
378
100
AcDbSymbolTableRecord
100
AcDbLayerTableRecord
  2
V0-VYPLNE
 70
     0
 62
    63
  6
DASHDOT
  0
LAYER
  5
37A
100
AcDbSymbolTableRecord
100
AcDbLayerTableRecord
  2
V0-NAZVY
 70
     0
 62
   210
  6
CONTINUOUS
  0
LAYER
  5
559
100
AcDbSymbolTableRecord
100
AcDbLayerTableRecord
  2
V0-ZBYTEK
 70
     0
 62
    51
  6
CONTINUOUS
  0
ENDTAB
  0
TABLE
  2
STYLE
  5
3
100
AcDbSymbolTable
 70
     5
  0
STYLE
  5
10
100
AcDbSymbolTableRecord
100
AcDbTextStyleTableRecord
  2
STANDARD
 70
     0
 40
7.0
 41
1.0
 50
0.0
 71
     0
 42
20.0
  3
ISOCP.shx
  4

  0
STYLE
  5
331
100
AcDbSymbolTableRecord
100
AcDbTextStyleTableRecord
  2
ED30
 70
     0
 40
30.0
 41
1.0
 50
0.0
 71
     0
 42
2.5
  3
ISOCP.shx
  4

  0
STYLE
  5
5D2
100
AcDbSymbolTableRecord
100
AcDbTextStyleTableRecord
  2
ED20
 70
     0
 40
20.0
 41
1.0
 50
0.0
 71
     0
 42
20.0
  3
isocp.shx
  4

  0
STYLE
  5
64F
100
AcDbSymbolTableRecord
100
AcDbTextStyleTableRecord
  2
ED40
 70
     0
 40
40.0
 41
1.0
 50
0.0
 71
     0
 42
20.0
  3
isocp.shx
  4

  0
STYLE
  5
650
100
AcDbSymbolTableRecord
100
AcDbTextStyleTableRecord
  2
ED10
 70
     0
 40
10.0
 41
1.0
 50
0.0
 71
     0
 42
20.0
  3
isocp.shx
  4

  0
ENDTAB
  0
TABLE
  2
VIEW
  5
6
100
AcDbSymbolTable
 70
     0
  0
ENDTAB
  0
TABLE
  2
UCS
  5
7
100
AcDbSymbolTable
 70
     0
  0
ENDTAB
  0
TABLE
  2
APPID
  5
9
100
AcDbSymbolTable
 70
     3
  0
APPID
  5
11
100
AcDbSymbolTableRecord
100
AcDbRegAppTableRecord
  2
ACAD
 70
     0
  0
APPID
  5
FAA
100
AcDbSymbolTableRecord
100
AcDbRegAppTableRecord
  2
CONTENTBLOCKICON
 70
     0
  0
APPID
  5
FAB
100
AcDbSymbolTableRecord
100
AcDbRegAppTableRecord
  2
CONTENTBLOCKDESCRIPTION
 70
     0
  0
ENDTAB
  0
TABLE
  2
DIMSTYLE
  5
A
100
AcDbSymbolTable
 70
     5
  0
DIMSTYLE
105
1D
100
AcDbSymbolTableRecord
100
AcDbDimStyleTableRecord
  2
STANDARD
 70
     0
  3

  4

  5

  6
_OPEN
  7
_OPEN
 40
0.0
 41
15.0
 42
0.625
 43
3.75
 44
1.25
 45
0.0
 46
0.0
 47
0.0
 48
0.0
140
15.0
141
2.5
142
0.0
143
0.0394
144
1.0
145
0.0
146
1.0
147
3.0
 71
     0
 72
     0
 73
     0
 74
     0
 75
     0
 76
     0
 77
     1
 78
     8
170
     0
171
     4
172
     1
173
     1
174
     0
175
     0
176
     0
177
     0
178
     0
270
     2
271
     0
272
     1
273
     8
274
     4
340
331
275
     0
280
     0
281
     0
282
     0
283
     1
284
     8
285
     0
286
     0
287
     3
288
     0
  0
DIMSTYLE
105
397
100
AcDbSymbolTableRecord
100
AcDbDimStyleTableRecord
  2
ED40
 70
     0
  3

  4

  5

  6
_OPEN
  7
_OPEN
 40
0.0
 41
35.0
 42
1.0
 43
3.75
 44
1.25
 45
0.0
 46
0.0
 47
0.0
 48
0.0
140
40.0
141
3.0
142
0.0
143
0.0394
144
1.0
145
0.0
146
1.0
147
4.0
 71
     0
 72
     0
 73
     0
 74
     0
 75
     0
 76
     0
 77
     1
 78
     8
170
     0
171
     4
172
     1
173
     1
174
     0
175
     0
176
     0
177
     0
178
     0
270
     2
271
     0
272
     1
273
     8
274
     4
340
64F
275
     0
280
     0
281
     0
282
     0
283
     1
284
     8
285
     0
286
     0
287
     3
288
     0
  0
DIMSTYLE
105
656
102
{ACAD_REACTORS
330
1160
330
1162
330
1165
330
13FB
330
15DF
330
1746
330
1760
330
176F
330
1977
330
198F
330
19A7
102
}
100
AcDbSymbolTableRecord
100
AcDbDimStyleTableRecord
  2
ED30
 70
     0
  3

  4

  5

  6
_OPEN
  7
_OPEN
 40
1.0
 41
25.0
 42
1.0
 43
3.75
 44
1.25
 45
0.0
 46
0.0
 47
0.0
 48
0.0
140
30.0
141
3.0
142
0.0
143
0.0394
144
1.0
145
0.0
146
1.0
147
4.0
 71
     0
 72
     0
 73
     0
 74
     0
 75
     0
 76
     0
 77
     1
 78
     8
170
     0
171
     4
172
     1
173
     1
174
     0
175
     0
176
     0
177
     0
178
     0
270
     2
271
     0
272
     1
273
     8
274
     4
340
331
275
     0
280
     0
281
     0
282
     0
283
     1
284
     8
285
     0
286
     0
287
     3
288
     0
  0
DIMSTYLE
105
657
102
{ACAD_REACTORS
330
2071
330
207E
330
208D
102
}
100
AcDbSymbolTableRecord
100
AcDbDimStyleTableRecord
  2
ED20
 70
     0
  3

  4

  5

  6
_OPEN
  7
_OPEN
 40
0.0
 41
20.0
 42
1.0
 43
3.75
 44
1.25
 45
0.0
 46
0.0
 47
0.0
 48
0.0
140
20.0
141
3.0
142
0.0
143
0.0394
144
1.0
145
0.0
146
1.0
147
2.0
 71
     0
 72
     0
 73
     0
 74
     0
 75
     0
 76
     0
 77
     1
 78
     8
170
     0
171
     4
172
     1
173
     1
174
     0
175
     0
176
     0
177
     0
178
     0
270
     2
271
     0
272
     1
273
     8
274
     4
340
5D2
275
     0
280
     0
281
     0
282
     0
283
     1
284
     8
285
     0
286
     0
287
     3
288
     0
  0
DIMSTYLE
105
658
100
AcDbSymbolTableRecord
100
AcDbDimStyleTableRecord
  2
ED10
 70
     0
  3

  4

  5

  6
_OPEN
  7
_OPEN
 40
0.0
 41
15.0
 42
1.0
 43
3.75
 44
1.25
 45
0.0
 46
0.0
 47
0.0
 48
0.0
140
10.0
141
3.0
142
0.0
143
0.0394
144
1.0
145
0.0
146
1.0
147
1.5
 71
     0
 72
     0
 73
     0
 74
     0
 75
     0
 76
     0
 77
     1
 78
     8
170
     0
171
     4
172
     1
173
     1
174
     0
175
     0
176
     0
177
     0
178
     0
270
     2
271
     0
272
     1
273
     8
274
     4
340
5D2
275
     0
280
     0
281
     0
282
     0
283
     1
284
     8
285
     0
286
     0
287
     3
288
     0
  0
ENDTAB
  0
TABLE
  2
BLOCK_RECORD
  5
1
100
AcDbSymbolTable
 70
    20
  0
BLOCK_RECORD
  5
1A
100
AcDbSymbolTableRecord
100
AcDbBlockTableRecord
  2
*MODEL_SPACE
  0
BLOCK_RECORD
  5
17
100
AcDbSymbolTableRecord
100
AcDbBlockTableRecord
  2
*PAPER_SPACE
  0
BLOCK_RECORD
  5
90
100
AcDbSymbolTableRecord
100
AcDbBlockTableRecord
  2
_OPEN
  0
BLOCK_RECORD
  5
108E
100
AcDbSymbolTableRecord
100
AcDbBlockTableRecord
  2
*D1
  0
BLOCK_RECORD
  5
10A6
100
AcDbSymbolTableRecord
100
AcDbBlockTableRecord
  2
*D2
  0
BLOCK_RECORD
  5
10CA
100
AcDbSymbolTableRecord
100
AcDbBlockTableRecord
  2
*D3
  0
BLOCK_RECORD
  5
13EF
100
AcDbSymbolTableRecord
100
AcDbBlockTableRecord
  2
*D4
  0
BLOCK_RECORD
  5
15D3
100
AcDbSymbolTableRecord
100
AcDbBlockTableRecord
  2
*D5
  0
BLOCK_RECORD
  5
173A
100
AcDbSymbolTableRecord
100
AcDbBlockTableRecord
  2
*D6
  0
BLOCK_RECORD
  5
1752
100
AcDbSymbolTableRecord
100
AcDbBlockTableRecord
  2
*D7
  0
BLOCK_RECORD
  5
1761
100
AcDbSymbolTableRecord
100
AcDbBlockTableRecord
  2
*D8
  0
BLOCK_RECORD
  5
189E
100
AcDbSymbolTableRecord
100
AcDbBlockTableRecord
  2
AZAVER-B
1001
CONTENTBLOCKICON
1071
        0
1004
2800000020000000200000000100040000000000000200000000000000000000000000000000000000000000000080000080000000808000800000008000800080800000C0C0C000808080000000FF0000FF000000FFFF00FF000000FF00FF00FFFF0000FFFFFF00FFFFFFFFFFFFFFFFFFFFFFFFFFFFFFFF
1004
FFFFFFFFFFFFFFAFFFFFFFFFFFFFFFFFFFFFFFFFFFFFFFAFFFFFFFFFFFFFFFFFFFFFFFFFFFFFFFAFFFFFFFFFFFFFFFFFFFFFFFFFFFFFFFAFFFFFFFFFFFFFFFFFFFFFFFFFFFFFFFAFFFFFFFFFFFFFFFFFFFFFFFFFFFFFFFAFFFFFFFFFFFFFFFFFFFFFFFFFFFFFFFAFFFFFFFFFFFFFFFFFFFFFFFFFFFFFFFAF
1004
FAFFFFFFFFFFFFFFFFFFFFFFFFFFFFAFFAFFFFFFFFFFFFFFFFFFFFFFFFFFFFAAAAFFFFFFFFFFFFFFFFFFFFFFFFFFFFAAAAFFFFFFFFFFFFFFFFFFFFFFFFFFFFAAAAFFFFFFFFFFFFFFFFFFFFFFFFFFFFAAAAFFFFFFFFFFFFFFFFFFFFFFFFFFFFFAAFFFFFFFFFFFFFFFFFFFFFFFFFFFFFFAAFFFFFFFFFFFFFFF
1004
FFFFFFFFFFFFFFFAAFFFFFFFFFFFFFFFFFFFFFFFFFFFFFFAAFFFFFFFFFFFFFFFFFFFFFFFFFFFFFFAAFFFFFFFFFFFFFFFFFFFFFFFFFFFFFFAAFFFFFFFFFFFFFFFFFFFFFFFFFFFFFAAAAFFFFFFFFFFFFFFFFFFFFFFFFFFFFAAAAFFFFFFFFFFFFFFFFFFFFFFFFFFFFAAAAFFFFFFFFFFFFFFFFFFFFFFFFFFFFFF
1004
FAFFFFFFFFFFFFFFFFFFFFFFFFFFFFFFFAFFFFFFFFFFFFFFFFFFFFFFFFFFFFFFFAFFFFFFFFFFFFFFFFFFFFFFFFFFFFFFFAFFFFFFFFFFFFFFFFFFFFFFFFFFFFFFFAFFFFFFFFFFFFFFFFFFFFFFFFFFFFFFFAFFFFFFFFFFFFFFFFFFFFFFFFFFFFFFFAFFFFFFFFFFFFFFFFFFFFFFFFFFFFFFFAFFFFFFFFFFFFFF
1004
FFFFFFFFFFFFFFFFFAFFFFFFFFFFFFFF
  0
BLOCK_RECORD
  5
196B
100
AcDbSymbolTableRecord
100
AcDbBlockTableRecord
  2
*D10
  0
BLOCK_RECORD
  5
1983
100
AcDbSymbolTableRecord
100
AcDbBlockTableRecord
  2
*D11
  0
BLOCK_RECORD
  5
199B
100
AcDbSymbolTableRecord
100
AcDbBlockTableRecord
  2
*D12
  0
BLOCK_RECORD
  5
1FAF
100
AcDbSymbolTableRecord
100
AcDbBlockTableRecord
  2
*D13
  0
BLOCK_RECORD
  5
1FBC
100
AcDbSymbolTableRecord
100
AcDbBlockTableRecord
  2
*D14
  0
BLOCK_RECORD
  5
1FFA
100
AcDbSymbolTableRecord
100
AcDbBlockTableRecord
  2
*D15
  0
BLOCK_RECORD
  5
2058
100
AcDbSymbolTableRecord
100
AcDbBlockTableRecord
  2
*D16
  0
BLOCK_RECORD
  5
2065
100
AcDbSymbolTableRecord
100
AcDbBlockTableRecord
  2
*D17
  0
BLOCK_RECORD
  5
2072
100
AcDbSymbolTableRecord
100
AcDbBlockTableRecord
  2
*D18
  0
BLOCK_RECORD
  5
207F
100
AcDbSymbolTableRecord
100
AcDbBlockTableRecord
  2
*D19
  0
ENDTAB
  0
ENDSEC
  0
SECTION
  2
BLOCKS
  0
BLOCK
  5
1B
100
AcDbEntity
  8
0
100
AcDbBlockBegin
  2
*MODEL_SPACE
 70
     0
 10
0.0
 20
0.0
 30
0.0
  3
*MODEL_SPACE
  1

  0
ENDBLK
  5
1C
100
AcDbEntity
  8
0
100
AcDbBlockEnd
  0
BLOCK
  5
18
100
AcDbEntity
 67
     1
  8
0
100
AcDbBlockBegin
  2
*PAPER_SPACE
 70
     0
 10
0.0
 20
0.0
 30
0.0
  3
*PAPER_SPACE
  1

  0
ENDBLK
  5
19
100
AcDbEntity
 67
     1
  8
0
100
AcDbBlockEnd
  0
BLOCK
  5
91
100
AcDbEntity
  8
0
100
AcDbBlockBegin
  2
_OPEN
 70
     0
 10
0.0
 20
0.0
 30
0.0
  3
_OPEN
  1

  0
LINE
  5
92
100
AcDbEntity
  8
0
  6
BYBLOCK
 62
     0
100
AcDbLine
 10
-1.0
 20
0.166667
 30
0.0
 11
0.0
 21
0.0
 31
0.0
  0
LINE
  5
93
100
AcDbEntity
  8
0
  6
BYBLOCK
 62
     0
100
AcDbLine
 10
0.0
 20
0.0
 30
0.0
 11
-1.0
 21
-0.166667
 31
0.0
  0
LINE
  5
94
100
AcDbEntity
  8
0
  6
BYBLOCK
 62
     0
100
AcDbLine
 10
0.0
 20
0.0
 30
0.0
 11
-1.0
 21
0.0
 31
0.0
  0
ENDBLK
  5
95
100
AcDbEntity
  8
0
100
AcDbBlockEnd
  0
BLOCK
  5
1D84
100
AcDbEntity
  8
0
 48
3.0
100
AcDbBlockBegin
  2
*D1
 70
     1
 10
0.0
 20
0.0
 30
0.0
  3
*D1
  1

  0
LINE
  5
1D85
100
AcDbEntity
  8
0
  6
BYBLOCK
 62
     0
 48
3.0
100
AcDbLine
 10
253.683213
 20
-714.336202
 30
0.0
 11
253.683213
 21
-920.674458
 31
0.0
  0
LINE
  5
1D86
100
AcDbEntity
  8
0
  6
BYBLOCK
 62
     0
 48
3.0
100
AcDbLine
 10
644.683213
 20
-714.336202
 30
0.0
 11
644.683213
 21
-920.674458
 31
0.0
  0
LINE
  5
1D87
100
AcDbEntity
  8
0
  6
BYBLOCK
 62
     0
 48
3.0
100
AcDbLine
 10
273.683213
 20
-919.424458
 30
0.0
 11
624.683213
 21
-919.424458
 31
0.0
  0
INSERT
  5
1D88
100
AcDbEntity
  8
0
  6
BYBLOCK
 62
     0
 48
3.0
100
AcDbBlockReference
  2
_OPEN
 10
253.683213
 20
-919.424458
 30
0.0
 41
20.0
 42
20.0
 43
20.0
 50
180.0
  0
INSERT
  5
1D89
100
AcDbEntity
  8
0
  6
BYBLOCK
 62
     0
 48
3.0
100
AcDbBlockReference
  2
_OPEN
 10
644.683213
 20
-919.424458
 30
0.0
 41
20.0
 42
20.0
 43
20.0
  0
MTEXT
  5
1D8A
100
AcDbEntity
  8
0
  6
BYBLOCK
 62
     0
 48
3.0
100
AcDbMText
 10
446.304902
 20
-907.424458
 30
0.0
 40
20.0
 41
0.0
 71
     5
 72
     1
  1
\A1;391
  7
ED20
  0
POINT
  5
1D8B
100
AcDbEntity
  8
DEFPOINTS
  6
BYBLOCK
 62
     0
 48
3.0
100
AcDbPoint
 10
253.683213
 20
-713.336202
 30
0.0
  0
POINT
  5
1D8C
100
AcDbEntity
  8
DEFPOINTS
  6
BYBLOCK
 62
     0
 48
3.0
100
AcDbPoint
 10
644.683213
 20
-713.336202
 30
0.0
  0
POINT
  5
1D8D
100
AcDbEntity
  8
DEFPOINTS
  6
BYBLOCK
 62
     0
 48
3.0
100
AcDbPoint
 10
644.683213
 20
-919.424458
 30
0.0
  0
ENDBLK
  5
1D8E
100
AcDbEntity
  8
0
 48
3.0
100
AcDbBlockEnd
  0
BLOCK
  5
1DD5
100
AcDbEntity
  8
0
 48
3.0
100
AcDbBlockBegin
  2
*D2
 70
     1
 10
0.0
 20
0.0
 30
0.0
  3
*D2
  1

  0
LINE
  5
1DD6
100
AcDbEntity
  8
0
  6
BYBLOCK
 62
     0
 48
3.0
100
AcDbLine
 10
608.683213
 20
-531.836202
 30
0.0
 11
741.826644
 21
-531.836202
 31
0.0
  0
LINE
  5
1DD7
100
AcDbEntity
  8
0
  6
BYBLOCK
 62
     0
 48
3.0
100
AcDbLine
 10
608.683213
 20
-823.836202
 30
0.0
 11
741.826644
 21
-823.836202
 31
0.0
  0
LINE
  5
1DD8
100
AcDbEntity
  8
0
  6
BYBLOCK
 62
     0
 48
3.0
100
AcDbLine
 10
740.576644
 20
-551.836202
 30
0.0
 11
740.576644
 21
-803.836202
 31
0.0
  0
INSERT
  5
1DD9
100
AcDbEntity
  8
0
  6
BYBLOCK
 62
     0
 48
3.0
100
AcDbBlockReference
  2
_OPEN
 10
740.576644
 20
-531.836202
 30
0.0
 41
20.0
 42
20.0
 43
20.0
 50
90.0
  0
INSERT
  5
1DDA
100
AcDbEntity
  8
0
  6
BYBLOCK
 62
     0
 48
3.0
100
AcDbBlockReference
  2
_OPEN
 10
740.576644
 20
-823.836202
 30
0.0
 41
20.0
 42
20.0
 43
20.0
 50
270.0
  0
MTEXT
  5
1DDB
100
AcDbEntity
  8
0
  6
BYBLOCK
 62
     0
 48
3.0
100
AcDbMText
 10
728.569842
 20
-686.996356
 30
0.0
 40
20.0
 41
0.0
 71
     5
 72
     1
  1
\A1;292
  7
ED20
 11
0.0
 21
1.0
 31
0.0
  0
POINT
  5
1DDC
100
AcDbEntity
  8
DEFPOINTS
  6
BYBLOCK
 62
     0
 48
3.0
100
AcDbPoint
 10
607.683213
 20
-531.836202
 30
0.0
  0
POINT
  5
1DDD
100
AcDbEntity
  8
DEFPOINTS
  6
BYBLOCK
 62
     0
 48
3.0
100
AcDbPoint
 10
607.683213
 20
-823.836202
 30
0.0
  0
POINT
  5
1DDE
100
AcDbEntity
  8
DEFPOINTS
  6
BYBLOCK
 62
     0
 48
3.0
100
AcDbPoint
 10
740.576644
 20
-823.836202
 30
0.0
  0
ENDBLK
  5
1DDF
100
AcDbEntity
  8
0
 48
3.0
100
AcDbBlockEnd
  0
BLOCK
  5
1DCA
100
AcDbEntity
  8
0
 48
3.0
100
AcDbBlockBegin
  2
*D3
 70
     1
 10
0.0
 20
0.0
 30
0.0
  3
*D3
  1

  0
LINE
  5
1DCB
100
AcDbEntity
  8
0
  6
BYBLOCK
 62
     0
 48
3.0
100
AcDbLine
 10
838.518337
 20
-827.836202
 30
0.0
 11
838.518337
 21
-879.251626
 31
0.0
  0
LINE
  5
1DCC
100
AcDbEntity
  8
0
  6
BYBLOCK
 62
     0
 48
3.0
100
AcDbLine
 10
1198.518337
 20
-827.836202
 30
0.0
 11
1198.518337
 21
-879.251626
 31
0.0
  0
LINE
  5
1DCD
100
AcDbEntity
  8
0
  6
BYBLOCK
 62
     0
 48
3.0
100
AcDbLine
 10
858.518337
 20
-878.001626
 30
0.0
 11
1178.518337
 21
-878.001626
 31
0.0
  0
INSERT
  5
1DCE
100
AcDbEntity
  8
0
  6
BYBLOCK
 62
     0
 48
3.0
100
AcDbBlockReference
  2
_OPEN
 10
838.518337
 20
-878.001626
 30
0.0
 41
20.0
 42
20.0
 43
20.0
 50
180.0
  0
INSERT
  5
1DCF
100
AcDbEntity
  8
0
  6
BYBLOCK
 62
     0
 48
3.0
100
AcDbBlockReference
  2
_OPEN
 10
1198.518337
 20
-878.001626
 30
0.0
 41
20.0
 42
20.0
 43
20.0
  0
MTEXT
  5
1DD0
100
AcDbEntity
  8
0
  6
BYBLOCK
 62
     0
 48
3.0
100
AcDbMText
 10
1018.518337
 20
-866.001626
 30
0.0
 40
20.0
 41
0.0
 71
     5
 72
     1
  1
\A1;360
  7
ED20
  0
POINT
  5
1DD1
100
AcDbEntity
  8
DEFPOINTS
  6
BYBLOCK
 62
     0
 48
3.0
100
AcDbPoint
 10
838.518337
 20
-826.836202
 30
0.0
  0
POINT
  5
1DD2
100
AcDbEntity
  8
DEFPOINTS
  6
BYBLOCK
 62
     0
 48
3.0
100
AcDbPoint
 10
1198.518337
 20
-826.836202
 30
0.0
  0
POINT
  5
1DD3
100
AcDbEntity
  8
DEFPOINTS
  6
BYBLOCK
 62
     0
 48
3.0
100
AcDbPoint
 10
1198.518337
 20
-878.001626
 30
0.0
  0
ENDBLK
  5
1DD4
100
AcDbEntity
  8
0
 48
3.0
100
AcDbBlockEnd
  0
BLOCK
  5
1D40
100
AcDbEntity
  8
0
 48
3.0
100
AcDbBlockBegin
  2
*D4
 70
     1
 10
0.0
 20
0.0
 30
0.0
  3
*D4
  1

  0
LINE
  5
1D41
100
AcDbEntity
  8
0
  6
BYBLOCK
 62
     0
 48
3.0
100
AcDbLine
 10
645.683213
 20
-588.336202
 30
0.0
 11
703.19878
 21
-588.336202
 31
0.0
  0
LINE
  5
1D42
100
AcDbEntity
  8
0
  6
BYBLOCK
 62
     0
 48
3.0
100
AcDbLine
 10
645.683213
 20
-713.336202
 30
0.0
 11
703.19878
 21
-713.336202
 31
0.0
  0
LINE
  5
1D43
100
AcDbEntity
  8
0
  6
BYBLOCK
 62
     0
 48
3.0
100
AcDbLine
 10
701.94878
 20
-608.336202
 30
0.0
 11
701.94878
 21
-693.336202
 31
0.0
  0
INSERT
  5
1D44
100
AcDbEntity
  8
0
  6
BYBLOCK
 62
     0
 48
3.0
100
AcDbBlockReference
  2
_OPEN
 10
701.94878
 20
-588.336202
 30
0.0
 41
20.0
 42
20.0
 43
20.0
 50
90.0
  0
INSERT
  5
1D45
100
AcDbEntity
  8
0
  6
BYBLOCK
 62
     0
 48
3.0
100
AcDbBlockReference
  2
_OPEN
 10
701.94878
 20
-713.336202
 30
0.0
 41
20.0
 42
20.0
 43
20.0
 50
270.0
  0
MTEXT
  5
1D46
100
AcDbEntity
  8
0
  6
BYBLOCK
 62
     0
 48
3.0
100
AcDbMText
 10
689.946811
 20
-650.836202
 30
0.0
 40
20.0
 41
0.0
 71
     5
 72
     1
  1
\A1;\U+2205125
  7
ED20
 11
0.0
 21
1.0
 31
0.0
  0
POINT
  5
1D47
100
AcDbEntity
  8
DEFPOINTS
  6
BYBLOCK
 62
     0
 48
3.0
100
AcDbPoint
 10
644.683213
 20
-588.336202
 30
0.0
  0
POINT
  5
1D48
100
AcDbEntity
  8
DEFPOINTS
  6
BYBLOCK
 62
     0
 48
3.0
100
AcDbPoint
 10
644.683213
 20
-713.336202
 30
0.0
  0
POINT
  5
1D49
100
AcDbEntity
  8
DEFPOINTS
  6
BYBLOCK
 62
     0
 48
3.0
100
AcDbPoint
 10
701.94878
 20
-713.336202
 30
0.0
  0
ENDBLK
  5
1D4A
100
AcDbEntity
  8
0
 48
3.0
100
AcDbBlockEnd
  0
BLOCK
  5
1DA9
100
AcDbEntity
  8
0
 48
3.0
100
AcDbBlockBegin
  2
*D5
 70
     1
 10
0.0
 20
0.0
 30
0.0
  3
*D5
  1

  0
LINE
  5
1DAA
100
AcDbEntity
  8
0
  6
BYBLOCK
 62
     0
 48
3.0
100
AcDbLine
 10
252.683213
 20
-650.836202
 30
0.0
 11
209.598399
 21
-650.836202
 31
0.0
  0
LINE
  5
1DAB
100
AcDbEntity
  8
0
  6
BYBLOCK
 62
     0
 48
3.0
100
AcDbLine
 10
289.683213
 20
-823.836202
 30
0.0
 11
209.598399
 21
-823.836202
 31
0.0
  0
LINE
  5
1DAC
100
AcDbEntity
  8
0
  6
BYBLOCK
 62
     0
 48
3.0
100
AcDbLine
 10
210.848399
 20
-670.836202
 30
0.0
 11
210.848399
 21
-803.836202
 31
0.0
  0
INSERT
  5
1DAD
100
AcDbEntity
  8
0
  6
BYBLOCK
 62
     0
 48
3.0
100
AcDbBlockReference
  2
_OPEN
 10
210.848399
 20
-650.836202
 30
0.0
 41
20.0
 42
20.0
 43
20.0
 50
90.0
  0
INSERT
  5
1DAE
100
AcDbEntity
  8
0
  6
BYBLOCK
 62
     0
 48
3.0
100
AcDbBlockReference
  2
_OPEN
 10
210.848399
 20
-823.836202
 30
0.0
 41
20.0
 42
20.0
 43
20.0
 50
270.0
  0
MTEXT
  5
1DAF
100
AcDbEntity
  8
0
  6
BYBLOCK
 62
     0
 48
3.0
100
AcDbMText
 10
198.848399
 20
-737.336202
 30
0.0
 40
20.0
 41
0.0
 71
     5
 72
     1
  1
\A1;173
  7
ED20
 11
0.0
 21
1.0
 31
0.0
  0
POINT
  5
1DB0
100
AcDbEntity
  8
DEFPOINTS
  6
BYBLOCK
 62
     0
 48
3.0
100
AcDbPoint
 10
253.683213
 20
-650.836202
 30
0.0
  0
POINT
  5
1DB1
100
AcDbEntity
  8
DEFPOINTS
  6
BYBLOCK
 62
     0
 48
3.0
100
AcDbPoint
 10
290.683213
 20
-823.836202
 30
0.0
  0
POINT
  5
1DB2
100
AcDbEntity
  8
DEFPOINTS
  6
BYBLOCK
 62
     0
 48
3.0
100
AcDbPoint
 10
210.848399
 20
-823.836202
 30
0.0
  0
ENDBLK
  5
1DB3
100
AcDbEntity
  8
0
 48
3.0
100
AcDbBlockEnd
  0
BLOCK
  5
1D6C
100
AcDbEntity
  8
0
 48
3.0
100
AcDbBlockBegin
  2
*D6
 70
     1
 10
0.0
 20
0.0
 30
0.0
  3
*D6
  1

  0
LINE
  5
1D6D
100
AcDbEntity
  8
0
  6
BYBLOCK
 62
     0
 48
3.0
100
AcDbLine
 10
290.683213
 20
-824.836202
 30
0.0
 11
290.683213
 21
-874.64909
 31
0.0
  0
LINE
  5
1D6E
100
AcDbEntity
  8
0
  6
BYBLOCK
 62
     0
 48
3.0
100
AcDbLine
 10
607.683213
 20
-824.836202
 30
0.0
 11
607.683213
 21
-874.64909
 31
0.0
  0
LINE
  5
1D6F
100
AcDbEntity
  8
0
  6
BYBLOCK
 62
     0
 48
3.0
100
AcDbLine
 10
310.683213
 20
-873.39909
 30
0.0
 11
587.683213
 21
-873.39909
 31
0.0
  0
INSERT
  5
1D70
100
AcDbEntity
  8
0
  6
BYBLOCK
 62
     0
 48
3.0
100
AcDbBlockReference
  2
_OPEN
 10
290.683213
 20
-873.39909
 30
0.0
 41
20.0
 42
20.0
 43
20.0
 50
180.0
  0
INSERT
  5
1D71
100
AcDbEntity
  8
0
  6
BYBLOCK
 62
     0
 48
3.0
100
AcDbBlockReference
  2
_OPEN
 10
607.683213
 20
-873.39909
 30
0.0
 41
20.0
 42
20.0
 43
20.0
  0
MTEXT
  5
1D72
100
AcDbEntity
  8
0
  6
BYBLOCK
 62
     0
 48
3.0
100
AcDbMText
 10
449.183213
 20
-861.39909
 30
0.0
 40
20.0
 41
0.0
 71
     5
 72
     1
  1
\A1;317
  7
ED20
  0
POINT
  5
1D73
100
AcDbEntity
  8
DEFPOINTS
  6
BYBLOCK
 62
     0
 48
3.0
100
AcDbPoint
 10
290.683213
 20
-823.836202
 30
0.0
  0
POINT
  5
1D74
100
AcDbEntity
  8
DEFPOINTS
  6
BYBLOCK
 62
     0
 48
3.0
100
AcDbPoint
 10
607.683213
 20
-823.836202
 30
0.0
  0
POINT
  5
1D75
100
AcDbEntity
  8
DEFPOINTS
  6
BYBLOCK
 62
     0
 48
3.0
100
AcDbPoint
 10
607.683213
 20
-873.39909
 30
0.0
  0
ENDBLK
  5
1D76
100
AcDbEntity
  8
0
 48
3.0
100
AcDbBlockEnd
  0
BLOCK
  5
1D9C
100
AcDbEntity
  8
0
 48
3.0
100
AcDbBlockBegin
  2
*D7
 70
     1
 10
0.0
 20
0.0
 30
0.0
  3
*D7
  1

  0
LINE
  5
1D9D
100
AcDbEntity
  8
0
  6
BYBLOCK
 62
     0
 48
3.0
100
AcDbLine
 10
253.683213
 20
-714.336202
 30
0.0
 11
253.683213
 21
-874.64909
 31
0.0
  0
LINE
  5
1D9E
100
AcDbEntity
  8
0
  6
BYBLOCK
 62
     0
 48
3.0
100
AcDbLine
 10
290.683213
 20
-714.336202
 30
0.0
 11
290.683213
 21
-874.64909
 31
0.0
  0
LINE
  5
1D9F
100
AcDbEntity
  8
0
  6
BYBLOCK
 62
     0
 48
3.0
100
AcDbLine
 10
233.683213
 20
-873.39909
 30
0.0
 11
213.683213
 21
-873.39909
 31
0.0
  0
LINE
  5
1DA0
100
AcDbEntity
  8
0
  6
BYBLOCK
 62
     0
 48
3.0
100
AcDbLine
 10
310.683213
 20
-873.39909
 30
0.0
 11
330.683213
 21
-873.39909
 31
0.0
  0
LINE
  5
1DA1
100
AcDbEntity
  8
0
  6
BYBLOCK
 62
     0
 48
3.0
100
AcDbLine
 10
253.683213
 20
-873.39909
 30
0.0
 11
290.683213
 21
-873.39909
 31
0.0
  0
INSERT
  5
1DA2
100
AcDbEntity
  8
0
  6
BYBLOCK
 62
     0
 48
3.0
100
AcDbBlockReference
  2
_OPEN
 10
253.683213
 20
-873.39909
 30
0.0
 41
20.0
 42
20.0
 43
20.0
  0
INSERT
  5
1DA3
100
AcDbEntity
  8
0
  6
BYBLOCK
 62
     0
 48
3.0
100
AcDbBlockReference
  2
_OPEN
 10
290.683213
 20
-873.39909
 30
0.0
 41
20.0
 42
20.0
 43
20.0
 50
180.0
  0
MTEXT
  5
1DA4
100
AcDbEntity
  8
0
  6
BYBLOCK
 62
     0
 48
3.0
100
AcDbMText
 10
272.183213
 20
-861.39909
 30
0.0
 40
20.0
 41
0.0
 71
     5
 72
     1
  1
\A1;37
  7
ED20
  0
POINT
  5
1DA5
100
AcDbEntity
  8
DEFPOINTS
  6
BYBLOCK
 62
     0
 48
3.0
100
AcDbPoint
 10
253.683213
 20
-713.336202
 30
0.0
  0
POINT
  5
1DA6
100
AcDbEntity
  8
DEFPOINTS
  6
BYBLOCK
 62
     0
 48
3.0
100
AcDbPoint
 10
290.683213
 20
-713.336202
 30
0.0
  0
POINT
  5
1DA7
100
AcDbEntity
  8
DEFPOINTS
  6
BYBLOCK
 62
     0
 48
3.0
100
AcDbPoint
 10
290.683213
 20
-873.39909
 30
0.0
  0
ENDBLK
  5
1DA8
100
AcDbEntity
  8
0
 48
3.0
100
AcDbBlockEnd
  0
BLOCK
  5
1D77
100
AcDbEntity
  8
0
 48
3.0
100
AcDbBlockBegin
  2
*D8
 70
     1
 10
0.0
 20
0.0
 30
0.0
  3
*D8
  1

  0
LINE
  5
1D78
100
AcDbEntity
  8
0
  6
BYBLOCK
 62
     0
 48
3.0
100
AcDbLine
 10
607.683213
 20
-824.836202
 30
0.0
 11
607.683213
 21
-874.64909
 31
0.0
  0
LINE
  5
1D79
100
AcDbEntity
  8
0
  6
BYBLOCK
 62
     0
 48
3.0
100
AcDbLine
 10
644.683213
 20
-714.336202
 30
0.0
 11
644.683213
 21
-874.64909
 31
0.0
  0
LINE
  5
1D7A
100
AcDbEntity
  8
0
  6
BYBLOCK
 62
     0
 48
3.0
100
AcDbLine
 10
587.683213
 20
-873.39909
 30
0.0
 11
567.683213
 21
-873.39909
 31
0.0
  0
LINE
  5
1D7B
100
AcDbEntity
  8
0
  6
BYBLOCK
 62
     0
 48
3.0
100
AcDbLine
 10
664.683213
 20
-873.39909
 30
0.0
 11
684.683213
 21
-873.39909
 31
0.0
  0
LINE
  5
1D7C
100
AcDbEntity
  8
0
  6
BYBLOCK
 62
     0
 48
3.0
100
AcDbLine
 10
607.683213
 20
-873.39909
 30
0.0
 11
644.683213
 21
-873.39909
 31
0.0
  0
INSERT
  5
1D7D
100
AcDbEntity
  8
0
  6
BYBLOCK
 62
     0
 48
3.0
100
AcDbBlockReference
  2
_OPEN
 10
607.683213
 20
-873.39909
 30
0.0
 41
20.0
 42
20.0
 43
20.0
  0
INSERT
  5
1D7E
100
AcDbEntity
  8
0
  6
BYBLOCK
 62
     0
 48
3.0
100
AcDbBlockReference
  2
_OPEN
 10
644.683213
 20
-873.39909
 30
0.0
 41
20.0
 42
20.0
 43
20.0
 50
180.0
  0
MTEXT
  5
1D7F
100
AcDbEntity
  8
0
  6
BYBLOCK
 62
     0
 48
3.0
100
AcDbMText
 10
626.183213
 20
-861.39909
 30
0.0
 40
20.0
 41
0.0
 71
     5
 72
     1
  1
\A1;37
  7
ED20
  0
POINT
  5
1D80
100
AcDbEntity
  8
DEFPOINTS
  6
BYBLOCK
 62
     0
 48
3.0
100
AcDbPoint
 10
607.683213
 20
-823.836202
 30
0.0
  0
POINT
  5
1D81
100
AcDbEntity
  8
DEFPOINTS
  6
BYBLOCK
 62
     0
 48
3.0
100
AcDbPoint
 10
644.683213
 20
-713.336202
 30
0.0
  0
POINT
  5
1D82
100
AcDbEntity
  8
DEFPOINTS
  6
BYBLOCK
 62
     0
 48
3.0
100
AcDbPoint
 10
644.683213
 20
-873.39909
 30
0.0
  0
ENDBLK
  5
1D83
100
AcDbEntity
  8
0
 48
3.0
100
AcDbBlockEnd
  0
BLOCK
  5
189F
100
AcDbEntity
  8
0
 48
3.0
100
AcDbBlockBegin
  2
AZAVER-B
 70
     0
 10
0.0
 20
0.0
 30
0.0
  3
AZAVER-B
  1

  0
LINE
  5
18AE
100
AcDbEntity
  8
V0-OBRYS
  6
CONTINUOUS
 62
    90
 48
3.0
100
AcDbLine
 10
-7.466751
 20
-65.180052
 30
0.0
 11
-7.466751
 21
-78.057025
 31
0.0
  0
LINE
  5
18AF
100
AcDbEntity
  8
V0-OBRYS
  6
CONTINUOUS
 62
    90
 48
3.0
100
AcDbLine
 10
-3.324311
 20
-54.602539
 30
0.0
 11
-3.324311
 21
-25.629357
 31
0.0
  0
LINE
  5
18B0
100
AcDbEntity
  8
V0-OBRYS
  6
CONTINUOUS
 62
    90
 48
3.0
100
AcDbLine
 10
-5.625665
 20
-25.629357
 30
0.0
 11
-5.625665
 21
-54.602539
 31
0.0
  0
LINE
  5
18B1
100
AcDbEntity
  8
V0-OBRYS
  6
CONTINUOUS
 62
    90
 48
3.0
100
AcDbLine
 10
-5.625665
 20
-54.602539
 30
0.0
 11
-3.324311
 21
-54.602539
 31
0.0
  0
LINE
  5
18B2
100
AcDbEntity
  8
V0-OBRYS
  6
CONTINUOUS
 62
    90
 48
3.0
100
AcDbLine
 10
-1.483225
 20
-47.24427
 30
0.0
 11
-7.466751
 21
-47.24427
 31
0.0
  0
LINE
  5
18B3
100
AcDbEntity
  8
V0-OBRYS
  6
CONTINUOUS
 62
    90
 48
3.0
100
AcDbLine
 10
-7.466751
 20
-47.24427
 30
0.0
 11
-7.466751
 21
-65.180052
 31
0.0
  0
LINE
  5
18B4
100
AcDbEntity
  8
V0-OBRYS
  6
CONTINUOUS
 62
    90
 48
3.0
100
AcDbLine
 10
-1.483225
 20
-58.741568
 30
0.0
 11
-1.483225
 21
-47.24427
 31
0.0
  0
LINE
  5
18B5
100
AcDbEntity
  8
V0-OBRYS
  6
CONTINUOUS
 62
    90
 48
3.0
100
AcDbLine
 10
-3.324311
 20
-25.629357
 30
0.0
 11
-5.625665
 21
-25.629357
 31
0.0
  0
LINE
  5
18B6
100
AcDbEntity
  8
V0-OBRYS
  6
CONTINUOUS
 62
    90
 48
3.0
100
AcDbLine
 10
-1.483225
 20
-30.228273
 30
0.0
 11
-7.927024
 21
-30.228273
 31
0.0
  0
LINE
  5
18B7
100
AcDbEntity
  8
V0-OBRYS
  6
CONTINUOUS
 62
    90
 48
3.0
100
AcDbLine
 10
-7.927024
 20
-30.228273
 30
0.0
 11
-7.927024
 21
-24.249679
 31
0.0
  0
LINE
  5
18B8
100
AcDbEntity
  8
V0-OBRYS
  6
CONTINUOUS
 62
    90
 48
3.0
100
AcDbLine
 10
-1.483225
 20
-4.01444
 30
0.0
 11
-1.483225
 21
-30.228273
 31
0.0
  0
ENDBLK
  5
18AB
100
AcDbEntity
  8
0
 48
3.0
100
AcDbBlockEnd
  0
BLOCK
  5
1DBF
100
AcDbEntity
  8
0
 48
3.0
100
AcDbBlockBegin
  2
*D10
 70
     1
 10
0.0
 20
0.0
 30
0.0
  3
*D10
  1

  0
LINE
  5
1DC0
100
AcDbEntity
  8
0
  6
BYBLOCK
 62
     0
 48
3.0
100
AcDbLine
 10
609.683213
 20
-530.836202
 30
0.0
 11
609.683213
 21
-497.042351
 31
0.0
  0
LINE
  5
1DC1
100
AcDbEntity
  8
0
  6
BYBLOCK
 62
     0
 48
3.0
100
AcDbLine
 10
288.683213
 20
-530.836202
 30
0.0
 11
288.683213
 21
-497.042351
 31
0.0
  0
LINE
  5
1DC2
100
AcDbEntity
  8
0
  6
BYBLOCK
 62
     0
 48
3.0
100
AcDbLine
 10
589.683213
 20
-498.292351
 30
0.0
 11
308.683213
 21
-498.292351
 31
0.0
  0
INSERT
  5
1DC3
100
AcDbEntity
  8
0
  6
BYBLOCK
 62
     0
 48
3.0
100
AcDbBlockReference
  2
_OPEN
 10
609.683213
 20
-498.292351
 30
0.0
 41
20.0
 42
20.0
 43
20.0
  0
INSERT
  5
1DC4
100
AcDbEntity
  8
0
  6
BYBLOCK
 62
     0
 48
3.0
100
AcDbBlockReference
  2
_OPEN
 10
288.683213
 20
-498.292351
 30
0.0
 41
20.0
 42
20.0
 43
20.0
 50
180.0
  0
MTEXT
  5
1DC5
100
AcDbEntity
  8
0
  6
BYBLOCK
 62
     0
 48
3.0
100
AcDbMText
 10
449.183213
 20
-486.290383
 30
0.0
 40
20.0
 41
0.0
 71
     5
 72
     1
  1
\A1;321
  7
ED20
  0
POINT
  5
1DC6
100
AcDbEntity
  8
DEFPOINTS
  6
BYBLOCK
 62
     0
 48
3.0
100
AcDbPoint
 10
609.683213
 20
-531.836202
 30
0.0
  0
POINT
  5
1DC7
100
AcDbEntity
  8
DEFPOINTS
  6
BYBLOCK
 62
     0
 48
3.0
100
AcDbPoint
 10
288.683213
 20
-531.836202
 30
0.0
  0
POINT
  5
1DC8
100
AcDbEntity
  8
DEFPOINTS
  6
BYBLOCK
 62
     0
 48
3.0
100
AcDbPoint
 10
288.683213
 20
-498.292351
 30
0.0
  0
ENDBLK
  5
1DC9
100
AcDbEntity
  8
0
 48
3.0
100
AcDbBlockEnd
  0
BLOCK
  5
1D61
100
AcDbEntity
  8
0
 48
3.0
100
AcDbBlockBegin
  2
*D11
 70
     1
 10
0.0
 20
0.0
 30
0.0
  3
*D11
  1

  0
LINE
  5
1D62
100
AcDbEntity
  8
0
  6
BYBLOCK
 62
     0
 48
3.0
100
AcDbLine
 10
836.518337
 20
-530.836202
 30
0.0
 11
836.518337
 21
-475.398395
 31
0.0
  0
LINE
  5
1D63
100
AcDbEntity
  8
0
  6
BYBLOCK
 62
     0
 48
3.0
100
AcDbLine
 10
1200.518337
 20
-530.836202
 30
0.0
 11
1200.518337
 21
-475.398395
 31
0.0
  0
LINE
  5
1D64
100
AcDbEntity
  8
0
  6
BYBLOCK
 62
     0
 48
3.0
100
AcDbLine
 10
856.518337
 20
-476.648395
 30
0.0
 11
1180.518337
 21
-476.648395
 31
0.0
  0
INSERT
  5
1D65
100
AcDbEntity
  8
0
  6
BYBLOCK
 62
     0
 48
3.0
100
AcDbBlockReference
  2
_OPEN
 10
836.518337
 20
-476.648395
 30
0.0
 41
20.0
 42
20.0
 43
20.0
 50
180.0
  0
INSERT
  5
1D66
100
AcDbEntity
  8
0
  6
BYBLOCK
 62
     0
 48
3.0
100
AcDbBlockReference
  2
_OPEN
 10
1200.518337
 20
-476.648395
 30
0.0
 41
20.0
 42
20.0
 43
20.0
  0
MTEXT
  5
1D67
100
AcDbEntity
  8
0
  6
BYBLOCK
 62
     0
 48
3.0
100
AcDbMText
 10
1008.763695
 20
-464.648395
 30
0.0
 40
20.0
 41
0.0
 71
     5
 72
     1
  1
\A1;364
  7
ED20
  0
POINT
  5
1D68
100
AcDbEntity
  8
DEFPOINTS
  6
BYBLOCK
 62
     0
 48
3.0
100
AcDbPoint
 10
836.518337
 20
-531.836202
 30
0.0
  0
POINT
  5
1D69
100
AcDbEntity
  8
DEFPOINTS
  6
BYBLOCK
 62
     0
 48
3.0
100
AcDbPoint
 10
1200.518337
 20
-531.836202
 30
0.0
  0
POINT
  5
1D6A
100
AcDbEntity
  8
DEFPOINTS
  6
BYBLOCK
 62
     0
 48
3.0
100
AcDbPoint
 10
1200.518337
 20
-476.648395
 30
0.0
  0
ENDBLK
  5
1D6B
100
AcDbEntity
  8
0
 48
3.0
100
AcDbBlockEnd
  0
BLOCK
  5
1DB4
100
AcDbEntity
  8
0
 48
3.0
100
AcDbBlockBegin
  2
*D12
 70
     1
 10
0.0
 20
0.0
 30
0.0
  3
*D12
  1

  0
LINE
  5
1DB5
100
AcDbEntity
  8
0
  6
BYBLOCK
 62
     0
 48
3.0
100
AcDbLine
 10
287.683213
 20
-231.836202
 30
0.0
 11
239.539558
 21
-231.836202
 31
0.0
  0
LINE
  5
1DB6
100
AcDbEntity
  8
0
  6
BYBLOCK
 62
     0
 48
3.0
100
AcDbLine
 10
287.683213
 20
-531.836202
 30
0.0
 11
239.539558
 21
-531.836202
 31
0.0
  0
LINE
  5
1DB7
100
AcDbEntity
  8
0
  6
BYBLOCK
 62
     0
 48
3.0
100
AcDbLine
 10
240.789558
 20
-251.836202
 30
0.0
 11
240.789558
 21
-511.836202
 31
0.0
  0
INSERT
  5
1DB8
100
AcDbEntity
  8
0
  6
BYBLOCK
 62
     0
 48
3.0
100
AcDbBlockReference
  2
_OPEN
 10
240.789558
 20
-231.836202
 30
0.0
 41
20.0
 42
20.0
 43
20.0
 50
90.0
  0
INSERT
  5
1DB9
100
AcDbEntity
  8
0
  6
BYBLOCK
 62
     0
 48
3.0
100
AcDbBlockReference
  2
_OPEN
 10
240.789558
 20
-531.836202
 30
0.0
 41
20.0
 42
20.0
 43
20.0
 50
270.0
  0
MTEXT
  5
1DBA
100
AcDbEntity
  8
0
  6
BYBLOCK
 62
     0
 48
3.0
100
AcDbMText
 10
228.789558
 20
-381.836202
 30
0.0
 40
20.0
 41
0.0
 71
     5
 72
     1
  1
\A1;300
  7
ED20
 11
0.0
 21
1.0
 31
0.0
  0
POINT
  5
1DBB
100
AcDbEntity
  8
DEFPOINTS
  6
BYBLOCK
 62
     0
 48
3.0
100
AcDbPoint
 10
288.683213
 20
-231.836202
 30
0.0
  0
POINT
  5
1DBC
100
AcDbEntity
  8
DEFPOINTS
  6
BYBLOCK
 62
     0
 48
3.0
100
AcDbPoint
 10
288.683213
 20
-531.836202
 30
0.0
  0
POINT
  5
1DBD
100
AcDbEntity
  8
DEFPOINTS
  6
BYBLOCK
 62
     0
 48
3.0
100
AcDbPoint
 10
240.789558
 20
-531.836202
 30
0.0
  0
ENDBLK
  5
1DBE
100
AcDbEntity
  8
0
 48
3.0
100
AcDbBlockEnd
  0
BLOCK
  5
1FEA
100
AcDbEntity
  8
0
 48
3.0
100
AcDbBlockBegin
  2
*D13
 70
     1
 10
0.0
 20
0.0
 30
0.0
  3
*D13
  1

  0
LINE
  5
1FEB
100
AcDbEntity
  8
0
  6
BYBLOCK
 62
     0
 48
3.0
100
AcDbLine
 10
763.388982
 20
207.41875
 30
0.0
 11
722.460493
 21
207.41875
 31
0.0
  0
LINE
  5
1FEC
100
AcDbEntity
  8
0
  6
BYBLOCK
 62
     0
 48
3.0
100
AcDbLine
 10
763.388982
 20
43.58125
 30
0.0
 11
722.460493
 21
43.58125
 31
0.0
  0
LINE
  5
1FED
100
AcDbEntity
  8
0
  6
BYBLOCK
 62
     0
 48
3.0
100
AcDbLine
 10
723.710493
 20
187.41875
 30
0.0
 11
723.710493
 21
63.58125
 31
0.0
  0
INSERT
  5
1FEE
100
AcDbEntity
  8
0
  6
BYBLOCK
 62
     0
 48
3.0
100
AcDbBlockReference
  2
_OPEN
 10
723.710493
 20
207.41875
 30
0.0
 41
20.0
 42
20.0
 43
20.0
 50
90.0
  0
INSERT
  5
1FEF
100
AcDbEntity
  8
0
  6
BYBLOCK
 62
     0
 48
3.0
100
AcDbBlockReference
  2
_OPEN
 10
723.710493
 20
43.58125
 30
0.0
 41
20.0
 42
20.0
 43
20.0
 50
270.0
  0
MTEXT
  5
1FF0
100
AcDbEntity
  8
0
  6
BYBLOCK
 62
     0
 48
3.0
100
AcDbMText
 10
711.710493
 20
125.5
 30
0.0
 40
20.0
 41
0.0
 71
     5
 72
     1
  1
\A1;164
  7
ED20
 11
0.0
 21
1.0
 31
0.0
  0
POINT
  5
1FF1
100
AcDbEntity
  8
DEFPOINTS
  6
BYBLOCK
 62
     0
 48
3.0
100
AcDbPoint
 10
764.388982
 20
207.41875
 30
0.0
  0
POINT
  5
1FF2
100
AcDbEntity
  8
DEFPOINTS
  6
BYBLOCK
 62
     0
 48
3.0
100
AcDbPoint
 10
764.388982
 20
43.58125
 30
0.0
  0
POINT
  5
1FF3
100
AcDbEntity
  8
DEFPOINTS
  6
BYBLOCK
 62
     0
 48
3.0
100
AcDbPoint
 10
723.710493
 20
43.58125
 30
0.0
  0
ENDBLK
  5
1FF4
100
AcDbEntity
  8
0
 48
3.0
100
AcDbBlockEnd
  0
BLOCK
  5
1FBD
100
AcDbEntity
  8
0
 48
3.0
100
AcDbBlockBegin
  2
*D14
 70
     1
 10
0.0
 20
0.0
 30
0.0
  3
*D14
  1

  0
LINE
  5
1FBE
100
AcDbEntity
  8
0
  6
BYBLOCK
 62
     0
 48
3.0
100
AcDbLine
 10
764.388982
 20
35.08125
 30
0.0
 11
764.388982
 21
-5.100623
 31
0.0
  0
LINE
  5
1FBF
100
AcDbEntity
  8
0
  6
BYBLOCK
 62
     0
 48
3.0
100
AcDbLine
 10
928.263982
 20
35.08125
 30
0.0
 11
928.263982
 21
-5.100623
 31
0.0
  0
LINE
  5
1FC0
100
AcDbEntity
  8
0
  6
BYBLOCK
 62
     0
 48
3.0
100
AcDbLine
 10
784.388982
 20
-3.850623
 30
0.0
 11
908.263982
 21
-3.850623
 31
0.0
  0
INSERT
  5
1FC1
100
AcDbEntity
  8
0
  6
BYBLOCK
 62
     0
 48
3.0
100
AcDbBlockReference
  2
_OPEN
 10
764.388982
 20
-3.850623
 30
0.0
 41
20.0
 42
20.0
 43
20.0
 50
180.0
  0
INSERT
  5
1FC2
100
AcDbEntity
  8
0
  6
BYBLOCK
 62
     0
 48
3.0
100
AcDbBlockReference
  2
_OPEN
 10
928.263982
 20
-3.850623
 30
0.0
 41
20.0
 42
20.0
 43
20.0
  0
MTEXT
  5
1FC3
100
AcDbEntity
  8
0
  6
BYBLOCK
 62
     0
 48
3.0
100
AcDbMText
 10
846.326482
 20
8.149377
 30
0.0
 40
20.0
 41
0.0
 71
     5
 72
     1
  1
\A1;164
  7
ED20
  0
POINT
  5
1FC4
100
AcDbEntity
  8
DEFPOINTS
  6
BYBLOCK
 62
     0
 48
3.0
100
AcDbPoint
 10
764.388982
 20
36.08125
 30
0.0
  0
POINT
  5
1FC5
100
AcDbEntity
  8
DEFPOINTS
  6
BYBLOCK
 62
     0
 48
3.0
100
AcDbPoint
 10
928.263982
 20
36.08125
 30
0.0
  0
POINT
  5
1FC6
100
AcDbEntity
  8
DEFPOINTS
  6
BYBLOCK
 62
     0
 48
3.0
100
AcDbPoint
 10
928.263982
 20
-3.850623
 30
0.0
  0
ENDBLK
  5
1FC7
100
AcDbEntity
  8
0
 48
3.0
100
AcDbBlockEnd
  0
BLOCK
  5
1FFB
100
AcDbEntity
  8
0
 48
3.0
100
AcDbBlockBegin
  2
*D15
 70
     1
 10
0.0
 20
0.0
 30
0.0
  3
*D15
  1

  0
LINE
  5
1FFC
100
AcDbEntity
  8
0
  6
BYBLOCK
 62
     0
 48
3.0
100
AcDbLine
 10
767.485857
 20
203.322813
 30
0.0
 11
636.706141
 21
203.322813
 31
0.0
  0
LINE
  5
1FFD
100
AcDbEntity
  8
0
  6
BYBLOCK
 62
     0
 48
3.0
100
AcDbLine
 10
767.485857
 20
47.677188
 30
0.0
 11
636.706141
 21
47.677188
 31
0.0
  0
LINE
  5
1FFE
100
AcDbEntity
  8
0
  6
BYBLOCK
 62
     0
 48
3.0
100
AcDbLine
 10
637.956141
 20
183.322813
 30
0.0
 11
637.956141
 21
67.677188
 31
0.0
  0
INSERT
  5
1FFF
100
AcDbEntity
  8
0
  6
BYBLOCK
 62
     0
 48
3.0
100
AcDbBlockReference
  2
_OPEN
 10
637.956141
 20
203.322813
 30
0.0
 41
20.0
 42
20.0
 43
20.0
 50
90.0
  0
INSERT
  5
2000
100
AcDbEntity
  8
0
  6
BYBLOCK
 62
     0
 48
3.0
100
AcDbBlockReference
  2
_OPEN
 10
637.956141
 20
47.677188
 30
0.0
 41
20.0
 42
20.0
 43
20.0
 50
270.0
  0
MTEXT
  5
2001
100
AcDbEntity
  8
0
  6
BYBLOCK
 62
     0
 48
3.0
100
AcDbMText
 10
625.956141
 20
125.5
 30
0.0
 40
20.0
 41
0.0
 71
     5
 72
     1
  1
\A1;156
  7
ED20
 11
0.0
 21
1.0
 31
0.0
  0
POINT
  5
2002
100
AcDbEntity
  8
DEFPOINTS
  6
BYBLOCK
 62
     0
 48
3.0
100
AcDbPoint
 10
768.485857
 20
203.322813
 30
0.0
  0
POINT
  5
2003
100
AcDbEntity
  8
DEFPOINTS
  6
BYBLOCK
 62
     0
 48
3.0
100
AcDbPoint
 10
768.485857
 20
47.677188
 30
0.0
  0
POINT
  5
2004
100
AcDbEntity
  8
DEFPOINTS
  6
BYBLOCK
 62
     0
 48
3.0
100
AcDbPoint
 10
637.956141
 20
47.677188
 30
0.0
  0
ENDBLK
  5
2005
100
AcDbEntity
  8
0
 48
3.0
100
AcDbBlockEnd
  0
BLOCK
  5
2059
100
AcDbEntity
  8
0
 48
3.0
100
AcDbBlockBegin
  2
*D16
 70
     1
 10
0.0
 20
0.0
 30
0.0
  3
*D16
  1

  0
LINE
  5
205A
100
AcDbEntity
  8
0
  6
BYBLOCK
 62
     0
 48
3.0
100
AcDbLine
 10
374.135965
 20
9.0
 30
0.0
 11
374.135965
 21
-38.541567
 31
0.0
  0
LINE
  5
205B
100
AcDbEntity
  8
0
  6
BYBLOCK
 62
     0
 48
3.0
100
AcDbLine
 10
604.135965
 20
9.0
 30
0.0
 11
604.135965
 21
-38.541567
 31
0.0
  0
LINE
  5
205C
100
AcDbEntity
  8
0
  6
BYBLOCK
 62
     0
 48
3.0
100
AcDbLine
 10
394.135965
 20
-37.291567
 30
0.0
 11
584.135965
 21
-37.291567
 31
0.0
  0
INSERT
  5
205D
100
AcDbEntity
  8
0
  6
BYBLOCK
 62
     0
 48
3.0
100
AcDbBlockReference
  2
_OPEN
 10
374.135965
 20
-37.291567
 30
0.0
 41
20.0
 42
20.0
 43
20.0
 50
180.0
  0
INSERT
  5
205E
100
AcDbEntity
  8
0
  6
BYBLOCK
 62
     0
 48
3.0
100
AcDbBlockReference
  2
_OPEN
 10
604.135965
 20
-37.291567
 30
0.0
 41
20.0
 42
20.0
 43
20.0
  0
MTEXT
  5
205F
100
AcDbEntity
  8
0
  6
BYBLOCK
 62
     0
 48
3.0
100
AcDbMText
 10
489.135965
 20
-25.289599
 30
0.0
 40
20.0
 41
0.0
 71
     5
 72
     1
  1
\A1;230
  7
ED20
  0
POINT
  5
2060
100
AcDbEntity
  8
DEFPOINTS
  6
BYBLOCK
 62
     0
 48
3.0
100
AcDbPoint
 10
374.135965
 20
10.0
 30
0.0
  0
POINT
  5
2061
100
AcDbEntity
  8
DEFPOINTS
  6
BYBLOCK
 62
     0
 48
3.0
100
AcDbPoint
 10
604.135965
 20
10.0
 30
0.0
  0
POINT
  5
2062
100
AcDbEntity
  8
DEFPOINTS
  6
BYBLOCK
 62
     0
 48
3.0
100
AcDbPoint
 10
604.135965
 20
-37.291567
 30
0.0
  0
ENDBLK
  5
2063
100
AcDbEntity
  8
0
 48
3.0
100
AcDbBlockEnd
  0
BLOCK
  5
2167
100
AcDbEntity
  8
0
 48
3.0
100
AcDbBlockBegin
  2
*D17
 70
     1
 10
0.0
 20
0.0
 30
0.0
  3
*D17
  1

  0
LINE
  5
2168
100
AcDbEntity
  8
0
  6
BYBLOCK
 62
     0
 48
3.0
100
AcDbLine
 10
-161.887652
 20
5.469887
 30
0.0
 11
-161.887652
 21
-65.665438
 31
0.0
  0
LINE
  5
2169
100
AcDbEntity
  8
0
  6
BYBLOCK
 62
     0
 48
3.0
100
AcDbLine
 10
205.869308
 20
5.469887
 30
0.0
 11
205.869308
 21
-65.665438
 31
0.0
  0
LINE
  5
216A
100
AcDbEntity
  8
0
  6
BYBLOCK
 62
     0
 48
3.0
100
AcDbLine
 10
-141.887652
 20
-64.415438
 30
0.0
 11
185.869308
 21
-64.415438
 31
0.0
  0
INSERT
  5
216B
100
AcDbEntity
  8
0
  6
BYBLOCK
 62
     0
 48
3.0
100
AcDbBlockReference
  2
_OPEN
 10
-161.887652
 20
-64.415438
 30
0.0
 41
20.0
 42
20.0
 43
20.0
 50
180.0
  0
INSERT
  5
216C
100
AcDbEntity
  8
0
  6
BYBLOCK
 62
     0
 48
3.0
100
AcDbBlockReference
  2
_OPEN
 10
205.869308
 20
-64.415438
 30
0.0
 41
20.0
 42
20.0
 43
20.0
  0
MTEXT
  5
216D
100
AcDbEntity
  8
0
  6
BYBLOCK
 62
     0
 48
3.0
100
AcDbMText
 10
21.990828
 20
-52.415438
 30
0.0
 40
20.0
 41
0.0
 71
     5
 72
     1
  1
\A1;368
  7
ED20
  0
POINT
  5
216E
100
AcDbEntity
  8
DEFPOINTS
  6
BYBLOCK
 62
     0
 48
3.0
100
AcDbPoint
 10
-161.887652
 20
6.469887
 30
0.0
  0
POINT
  5
216F
100
AcDbEntity
  8
DEFPOINTS
  6
BYBLOCK
 62
     0
 48
3.0
100
AcDbPoint
 10
205.869308
 20
6.469887
 30
0.0
  0
POINT
  5
2170
100
AcDbEntity
  8
DEFPOINTS
  6
BYBLOCK
 62
     0
 48
3.0
100
AcDbPoint
 10
205.869308
 20
-64.415438
 30
0.0
  0
ENDBLK
  5
2171
100
AcDbEntity
  8
0
 48
3.0
100
AcDbBlockEnd
  0
BLOCK
  5
2144
100
AcDbEntity
  8
0
 48
3.0
100
AcDbBlockBegin
  2
*D18
 70
     1
 10
0.0
 20
0.0
 30
0.0
  3
*D18
  1

  0
LINE
  5
2145
100
AcDbEntity
  8
0
  6
BYBLOCK
 62
     0
 48
3.0
100
AcDbLine
 10
192.813788
 20
393.407919
 30
0.0
 11
273.242076
 21
393.407919
 31
0.0
  0
LINE
  5
2146
100
AcDbEntity
  8
0
  6
BYBLOCK
 62
     0
 48
3.0
100
AcDbLine
 10
192.813788
 20
-9.585633
 30
0.0
 11
273.242076
 21
-9.585633
 31
0.0
  0
LINE
  5
2147
100
AcDbEntity
  8
0
  6
BYBLOCK
 62
     0
 48
3.0
100
AcDbLine
 10
271.992076
 20
373.407919
 30
0.0
 11
271.992076
 21
10.414367
 31
0.0
  0
INSERT
  5
2148
100
AcDbEntity
  8
0
  6
BYBLOCK
 62
     0
 48
3.0
100
AcDbBlockReference
  2
_OPEN
 10
271.992076
 20
393.407919
 30
0.0
 41
20.0
 42
20.0
 43
20.0
 50
90.0
  0
INSERT
  5
2149
100
AcDbEntity
  8
0
  6
BYBLOCK
 62
     0
 48
3.0
100
AcDbBlockReference
  2
_OPEN
 10
271.992076
 20
-9.585633
 30
0.0
 41
20.0
 42
20.0
 43
20.0
 50
270.0
  0
MTEXT
  5
214A
100
AcDbEntity
  8
0
  6
BYBLOCK
 62
     0
 48
3.0
100
AcDbMText
 10
259.992076
 20
191.911143
 30
0.0
 40
20.0
 41
0.0
 71
     5
 72
     1
  1
\A1;403
  7
ED20
 11
0.0
 21
1.0
 31
0.0
  0
POINT
  5
214B
100
AcDbEntity
  8
DEFPOINTS
  6
BYBLOCK
 62
     0
 48
3.0
100
AcDbPoint
 10
191.813788
 20
393.407919
 30
0.0
  0
POINT
  5
214C
100
AcDbEntity
  8
DEFPOINTS
  6
BYBLOCK
 62
     0
 48
3.0
100
AcDbPoint
 10
191.813788
 20
-9.585633
 30
0.0
  0
POINT
  5
214D
100
AcDbEntity
  8
DEFPOINTS
  6
BYBLOCK
 62
     0
 48
3.0
100
AcDbPoint
 10
271.992076
 20
-9.585633
 30
0.0
  0
ENDBLK
  5
214E
100
AcDbEntity
  8
0
 48
3.0
100
AcDbBlockEnd
  0
BLOCK
  5
217F
100
AcDbEntity
  8
0
 48
3.0
100
AcDbBlockBegin
  2
*D19
 70
     1
 10
0.0
 20
0.0
 30
0.0
  3
*D19
  1

  0
LINE
  5
2180
100
AcDbEntity
  8
0
  6
BYBLOCK
 62
     0
 48
3.0
100
AcDbLine
 10
489.781931
 20
-10.585633
 30
0.0
 11
489.781931
 21
-65.665438
 31
0.0
  0
LINE
  5
2181
100
AcDbEntity
  8
0
  6
BYBLOCK
 62
     0
 48
3.0
100
AcDbLine
 10
511.424075
 20
-10.585633
 30
0.0
 11
511.424075
 21
-65.665438
 31
0.0
  0
LINE
  5
2182
100
AcDbEntity
  8
0
  6
BYBLOCK
 62
     0
 48
3.0
100
AcDbLine
 10
469.781931
 20
-64.415438
 30
0.0
 11
449.781931
 21
-64.415438
 31
0.0
  0
LINE
  5
2183
100
AcDbEntity
  8
0
  6
BYBLOCK
 62
     0
 48
3.0
100
AcDbLine
 10
531.424075
 20
-64.415438
 30
0.0
 11
579.13313
 21
-64.415438
 31
0.0
  0
LINE
  5
2184
100
AcDbEntity
  8
0
  6
BYBLOCK
 62
     0
 48
3.0
100
AcDbLine
 10
489.781931
 20
-64.415438
 30
0.0
 11
511.424075
 21
-64.415438
 31
0.0
  0
INSERT
  5
2185
100
AcDbEntity
  8
0
  6
BYBLOCK
 62
     0
 48
3.0
100
AcDbBlockReference
  2
_OPEN
 10
489.781931
 20
-64.415438
 30
0.0
 41
20.0
 42
20.0
 43
20.0
  0
INSERT
  5
2186
100
AcDbEntity
  8
0
  6
BYBLOCK
 62
     0
 48
3.0
100
AcDbBlockReference
  2
_OPEN
 10
511.424075
 20
-64.415438
 30
0.0
 41
20.0
 42
20.0
 43
20.0
 50
180.0
  0
MTEXT
  5
2187
100
AcDbEntity
  8
0
  6
BYBLOCK
 62
     0
 48
3.0
100
AcDbMText
 10
565.278603
 20
-52.413469
 30
0.0
 40
20.0
 41
0.0
 71
     5
 72
     1
  1
\A1;22
  7
ED20
  0
POINT
  5
2188
100
AcDbEntity
  8
DEFPOINTS
  6
BYBLOCK
 62
     0
 48
3.0
100
AcDbPoint
 10
489.781931
 20
-9.585633
 30
0.0
  0
POINT
  5
2189
100
AcDbEntity
  8
DEFPOINTS
  6
BYBLOCK
 62
     0
 48
3.0
100
AcDbPoint
 10
511.424075
 20
-9.585633
 30
0.0
  0
POINT
  5
218A
100
AcDbEntity
  8
DEFPOINTS
  6
BYBLOCK
 62
     0
 48
3.0
100
AcDbPoint
 10
511.424075
 20
-64.415438
 30
0.0
  0
ENDBLK
  5
218B
100
AcDbEntity
  8
0
 48
3.0
100
AcDbBlockEnd
  0
ENDSEC
  0
SECTION
  2
ENTITIES
  0
MTEXT
  5
1167
100
AcDbEntity
  8
V0-ZBYTEK
 62
    51
100
AcDbMText
 10
499.154936
 20
-275.46454
 30
0.0
 40
25.287444
 41
716.343516
 71
     5
 72
     5
  1
PLASTOVA VETRACI MRIZKA
  7
ED10
  0
MTEXT
  5
1168
100
AcDbEntity
  8
V0-NAZVY
100
AcDbMText
 10
487.565774
 20
-209.273724
 30
0.0
 40
45.15615
 41
371.437412
 71
     5
 72
     5
  1
HVG - 300
  7
ED10
  0
LINE
  5
1FA0
100
AcDbEntity
  8
V0-OBRYS
  6
CONTINUOUS
 48
3.0
100
AcDbLine
 10
-145.832132
 20
-9.585633
 30
0.0
 11
189.813788
 21
-9.585633
 31
0.0
  0
LINE
  5
1FA1
100
AcDbEntity
  8
V0-OBRYS
  6
CONTINUOUS
 48
3.0
100
AcDbLine
 10
205.869308
 20
6.469887
 30
0.0
 11
205.869308
 21
377.352399
 31
0.0
  0
LINE
  5
1FA2
100
AcDbEntity
  8
V0-OBRYS
  6
CONTINUOUS
 48
3.0
100
AcDbLine
 10
189.813788
 20
393.407919
 30
0.0
 11
-145.832132
 21
393.407919
 31
0.0
  0
LINE
  5
1FA3
100
AcDbEntity
  8
V0-OBRYS
  6
CONTINUOUS
 48
3.0
100
AcDbLine
 10
-161.887652
 20
377.352399
 30
0.0
 11
-161.887652
 21
6.469887
 31
0.0
  0
LINE
  5
1FA5
100
AcDbEntity
  8
V0-OBRYS
  6
CONTINUOUS
 48
3.0
100
AcDbLine
 10
-144.627968
 20
0.489206
 30
0.0
 11
188.609624
 21
0.489206
 31
0.0
  0
LINE
  5
1FA7
100
AcDbEntity
  8
V0-OBRYS
  6
CONTINUOUS
 48
3.0
100
AcDbLine
 10
188.609624
 20
383.33308
 30
0.0
 11
-144.627968
 21
383.33308
 31
0.0
  0
LINE
  5
1FA8
100
AcDbEntity
  8
V0-OBRYS
  6
CONTINUOUS
 48
3.0
100
AcDbLine
 10
-152.655728
 20
375.30532
 30
0.0
 11
-152.655728
 21
8.516966
 31
0.0
  0
LINE
  5
1FA9
100
AcDbEntity
  8
V0-OBRYS
  6
CONTINUOUS
 48
3.0
100
AcDbLine
 10
196.637384
 20
8.516966
 30
0.0
 11
196.637384
 21
375.30532
 31
0.0
  0
LINE
  5
1FAA
100
AcDbEntity
  8
V0-OBRYS
  6
CONTINUOUS
 48
3.0
100
AcDbLine
 10
-109.564089
 20
60.670814
 30
0.0
 11
153.545745
 21
60.670814
 31
0.0
  0
LINE
  5
1FAC
100
AcDbEntity
  8
V0-OBRYS
  6
CONTINUOUS
 48
3.0
100
AcDbLine
 10
153.545745
 20
323.72044
 30
0.0
 11
-109.564089
 21
323.72044
 31
0.0
  0
LINE
  5
1FAD
100
AcDbEntity
  8
V0-OBRYS
  6
CONTINUOUS
 48
3.0
100
AcDbLine
 10
-109.564089
 20
323.72044
 30
0.0
 11
-109.564089
 21
60.670814
 31
0.0
  0
LINE
  5
1FAE
100
AcDbEntity
  8
V0-OBRYS
  6
CONTINUOUS
 48
3.0
100
AcDbLine
 10
153.545745
 20
60.670814
 30
0.0
 11
153.545745
 21
323.72044
 31
0.0
  0
LINE
  5
1FF5
100
AcDbEntity
  8
V0-OBRYS
  6
CONTINUOUS
 48
3.0
100
AcDbLine
 10
146.967999
 20
317.144199
 30
0.0
 11
-102.986343
 21
317.144199
 31
0.0
  0
LINE
  5
1FF7
100
AcDbEntity
  8
V0-OBRYS
  6
CONTINUOUS
 48
3.0
100
AcDbLine
 10
146.967999
 20
67.247055
 30
0.0
 11
146.967999
 21
317.144199
 31
0.0
  0
LINE
  5
1FF9
100
AcDbEntity
  8
V0-OBRYS
  6
CONTINUOUS
 48
3.0
100
AcDbLine
 10
-102.986343
 20
317.144199
 30
0.0
 11
-102.986343
 21
67.247055
 31
0.0
  0
LINE
  5
2007
100
AcDbEntity
  8
V0-OBRYS
  6
CONTINUOUS
 48
3.0
100
AcDbLine
 10
146.967999
 20
304.620894
 30
0.0
 11
-102.986343
 21
304.620894
 31
0.0
  0
LINE
  5
2008
100
AcDbEntity
  8
V0-OBRYS
  6
CONTINUOUS
 48
3.0
100
AcDbLine
 10
146.967999
 20
317.144199
 30
0.0
 11
-102.986343
 21
317.144199
 31
0.0
  0
LINE
  5
2009
100
AcDbEntity
  8
V0-OBRYS
  6
CONTINUOUS
 48
3.0
100
AcDbLine
 10
146.967999
 20
279.574282
 30
0.0
 11
-102.986343
 21
279.574282
 31
0.0
  0
LINE
  5
200A
100
AcDbEntity
  8
V0-OBRYS
  6
CONTINUOUS
 48
3.0
100
AcDbLine
 10
146.967999
 20
267.050977
 30
0.0
 11
-102.986343
 21
267.050977
 31
0.0
  0
LINE
  5
200B
100
AcDbEntity
  8
V0-OBRYS
  6
CONTINUOUS
 48
3.0
100
AcDbLine
 10
146.967999
 20
254.527671
 30
0.0
 11
-102.986343
 21
254.527671
 31
0.0
  0
LINE
  5
200C
100
AcDbEntity
  8
V0-OBRYS
  6
CONTINUOUS
 48
3.0
100
AcDbLine
 10
146.967999
 20
242.004366
 30
0.0
 11
-102.986343
 21
242.004366
 31
0.0
  0
LINE
  5
200D
100
AcDbEntity
  8
V0-OBRYS
  6
CONTINUOUS
 48
3.0
100
AcDbLine
 10
146.967999
 20
229.48106
 30
0.0
 11
-102.986343
 21
229.48106
 31
0.0
  0
LINE
  5
200E
100
AcDbEntity
  8
V0-OBRYS
  6
CONTINUOUS
 48
3.0
100
AcDbLine
 10
146.967999
 20
216.957754
 30
0.0
 11
-102.986343
 21
216.957754
 31
0.0
  0
LINE
  5
200F
100
AcDbEntity
  8
V0-OBRYS
  6
CONTINUOUS
 48
3.0
100
AcDbLine
 10
146.967999
 20
204.434449
 30
0.0
 11
-102.986343
 21
204.434449
 31
0.0
  0
LINE
  5
2010
100
AcDbEntity
  8
V0-OBRYS
  6
CONTINUOUS
 48
3.0
100
AcDbLine
 10
146.967999
 20
191.911143
 30
0.0
 11
-102.986343
 21
191.911143
 31
0.0
  0
LINE
  5
2011
100
AcDbEntity
  8
V0-OBRYS
  6
CONTINUOUS
 48
3.0
100
AcDbLine
 10
146.967999
 20
179.387838
 30
0.0
 11
-102.986343
 21
179.387838
 31
0.0
  0
LINE
  5
2012
100
AcDbEntity
  8
V0-OBRYS
  6
CONTINUOUS
 48
3.0
100
AcDbLine
 10
146.967999
 20
166.864532
 30
0.0
 11
-102.986343
 21
166.864532
 31
0.0
  0
LINE
  5
2013
100
AcDbEntity
  8
V0-OBRYS
  6
CONTINUOUS
 48
3.0
100
AcDbLine
 10
146.967999
 20
154.341226
 30
0.0
 11
-102.986343
 21
154.341226
 31
0.0
  0
LINE
  5
2014
100
AcDbEntity
  8
V0-OBRYS
  6
CONTINUOUS
 48
3.0
100
AcDbLine
 10
146.967999
 20
141.817921
 30
0.0
 11
-102.986343
 21
141.817921
 31
0.0
  0
LINE
  5
2015
100
AcDbEntity
  8
V0-OBRYS
  6
CONTINUOUS
 48
3.0
100
AcDbLine
 10
146.967999
 20
129.294615
 30
0.0
 11
-102.986343
 21
129.294615
 31
0.0
  0
LINE
  5
2016
100
AcDbEntity
  8
V0-OBRYS
  6
CONTINUOUS
 48
3.0
100
AcDbLine
 10
146.967999
 20
116.77131
 30
0.0
 11
-102.986343
 21
116.77131
 31
0.0
  0
LINE
  5
2017
100
AcDbEntity
  8
V0-OBRYS
  6
CONTINUOUS
 48
3.0
100
AcDbLine
 10
146.967999
 20
104.248004
 30
0.0
 11
-102.986343
 21
104.248004
 31
0.0
  0
LINE
  5
2018
100
AcDbEntity
  8
V0-OBRYS
  6
CONTINUOUS
 48
3.0
100
AcDbLine
 10
146.967999
 20
91.724698
 30
0.0
 11
-102.986343
 21
91.724698
 31
0.0
  0
LINE
  5
2019
100
AcDbEntity
  8
V0-OBRYS
  6
CONTINUOUS
 48
3.0
100
AcDbLine
 10
146.967999
 20
79.201393
 30
0.0
 11
-102.986343
 21
79.201393
 31
0.0
  0
LINE
  5
201A
100
AcDbEntity
  8
V0-OBRYS
  6
CONTINUOUS
 48
3.0
100
AcDbLine
 10
146.967999
 20
66.678087
 30
0.0
 11
-102.986343
 21
66.678087
 31
0.0
  0
LINE
  5
202D
100
AcDbEntity
  8
V0-OBRYS
  6
CONTINUOUS
 48
3.0
100
AcDbLine
 10
146.967999
 20
292.097588
 30
0.0
 11
-102.986343
 21
292.097588
 31
0.0
  0
POINT
  5
202E
100
AcDbEntity
  8
V0-OBRYS
  6
CONTINUOUS
 48
3.0
100
AcDbPoint
 10
21.990828
 20
191.911143
 30
0.0
  0
ARC
  5
2030
100
AcDbEntity
  8
V0-OBRYS
  6
CONTINUOUS
 48
3.0
100
AcDbCircle
 10
-144.627968
 20
375.30532
 30
0.0
 40
8.02776
100
AcDbArc
 50
90.0
 51
180.0
  0
ARC
  5
2031
100
AcDbEntity
  8
V0-OBRYS
  6
CONTINUOUS
 48
3.0
100
AcDbCircle
 10
188.609624
 20
375.30532
 30
0.0
 40
8.02776
100
AcDbArc
 50
0.0
 51
90.0
  0
ARC
  5
2032
100
AcDbEntity
  8
V0-OBRYS
  6
CONTINUOUS
 48
3.0
100
AcDbCircle
 10
188.609624
 20
8.516966
 30
0.0
 40
8.02776
100
AcDbArc
 50
270.0
 51
0.0
  0
ARC
  5
2033
100
AcDbEntity
  8
V0-OBRYS
  6
CONTINUOUS
 48
3.0
100
AcDbCircle
 10
-144.627968
 20
8.516966
 30
0.0
 40
8.02776
100
AcDbArc
 50
180.0
 51
270.0
  0
ARC
  5
2034
100
AcDbEntity
  8
V0-OBRYS
  6
CONTINUOUS
 48
3.0
100
AcDbCircle
 10
-145.832132
 20
377.352399
 30
0.0
 40
16.05552
100
AcDbArc
 50
90.0
 51
180.0
  0
ARC
  5
2035
100
AcDbEntity
  8
V0-OBRYS
  6
CONTINUOUS
 48
3.0
100
AcDbCircle
 10
189.813788
 20
377.352399
 30
0.0
 40
16.05552
100
AcDbArc
 50
0.0
 51
90.0
  0
ARC
  5
2036
100
AcDbEntity
  8
V0-OBRYS
  6
CONTINUOUS
 48
3.0
100
AcDbCircle
 10
189.813788
 20
6.469887
 30
0.0
 40
16.05552
100
AcDbArc
 50
270.0
 51
0.0
  0
ARC
  5
2037
100
AcDbEntity
  8
V0-OBRYS
  6
CONTINUOUS
 48
3.0
100
AcDbCircle
 10
-145.832132
 20
6.469887
 30
0.0
 40
16.05552
100
AcDbArc
 50
180.0
 51
270.0
  0
LINE
  5
2038
100
AcDbEntity
  8
V0-OBRYS
  6
CONTINUOUS
 48
3.0
100
AcDbLine
 10
489.781931
 20
393.407919
 30
0.0
 11
511.424075
 21
393.407919
 31
0.0
  0
LINE
  5
2039
100
AcDbEntity
  8
V0-OBRYS
  6
CONTINUOUS
 48
3.0
100
AcDbLine
 10
489.781931
 20
-9.585633
 30
0.0
 11
511.424075
 21
-9.585633
 31
0.0
  0
LINE
  5
203A
100
AcDbEntity
  8
V0-OBRYS
  6
CONTINUOUS
 48
3.0
100
AcDbLine
 10
489.781931
 20
393.407919
 30
0.0
 11
489.781931
 21
-9.585633
 31
0.0
  0
LINE
  5
203B
100
AcDbEntity
  8
V0-OBRYS
  6
CONTINUOUS
 48
3.0
100
AcDbLine
 10
489.781931
 20
-9.585633
 30
0.0
 11
511.424075
 21
-9.585633
 31
0.0
  0
LINE
  5
203C
100
AcDbEntity
  8
V0-OBRYS
  6
CONTINUOUS
 48
3.0
100
AcDbLine
 10
511.424075
 20
-9.585633
 30
0.0
 11
511.424075
 21
393.407919
 31
0.0
  0
LINE
  5
203F
100
AcDbEntity
  8
V0-OBRYS
  6
DASHED
 62
    41
 48
0.5
100
AcDbLine
 10
511.424075
 20
317.144199
 30
0.0
 11
502.648349
 21
317.144199
 31
0.0
  0
LINE
  5
2040
100
AcDbEntity
  8
V0-OBRYS
  6
DASHED
 62
    41
 48
0.5
100
AcDbLine
 10
511.424075
 20
304.620894
 30
0.0
 11
502.648349
 21
304.620894
 31
0.0
  0
LINE
  5
2041
100
AcDbEntity
  8
V0-OBRYS
  6
DASHED
 62
    41
 48
0.5
100
AcDbLine
 10
511.424075
 20
317.144199
 30
0.0
 11
502.648349
 21
317.144199
 31
0.0
  0
LINE
  5
2042
100
AcDbEntity
  8
V0-OBRYS
  6
DASHED
 62
    41
 48
0.5
100
AcDbLine
 10
511.424075
 20
66.678087
 30
0.0
 11
502.648349
 21
66.678087
 31
0.0
  0
LINE
  5
2043
100
AcDbEntity
  8
V0-OBRYS
  6
DASHED
 62
    41
 48
0.5
100
AcDbLine
 10
511.424075
 20
79.201393
 30
0.0
 11
502.648349
 21
79.201393
 31
0.0
  0
LINE
  5
2044
100
AcDbEntity
  8
V0-OBRYS
  6
DASHED
 62
    41
 48
0.5
100
AcDbLine
 10
511.424075
 20
91.724698
 30
0.0
 11
502.648349
 21
91.724698
 31
0.0
  0
LINE
  5
2045
100
AcDbEntity
  8
V0-OBRYS
  6
DASHED
 62
    41
 48
0.5
100
AcDbLine
 10
511.424075
 20
104.248004
 30
0.0
 11
502.648349
 21
104.248004
 31
0.0
  0
LINE
  5
2046
100
AcDbEntity
  8
V0-OBRYS
  6
DASHED
 62
    41
 48
0.5
100
AcDbLine
 10
511.424075
 20
116.77131
 30
0.0
 11
502.648349
 21
116.77131
 31
0.0
  0
LINE
  5
2047
100
AcDbEntity
  8
V0-OBRYS
  6
DASHED
 62
    41
 48
0.5
100
AcDbLine
 10
511.424075
 20
129.294615
 30
0.0
 11
502.648349
 21
129.294615
 31
0.0
  0
LINE
  5
2048
100
AcDbEntity
  8
V0-OBRYS
  6
DASHED
 62
    41
 48
0.5
100
AcDbLine
 10
511.424075
 20
141.817921
 30
0.0
 11
502.648349
 21
141.817921
 31
0.0
  0
LINE
  5
2049
100
AcDbEntity
  8
V0-OBRYS
  6
DASHED
 62
    41
 48
0.5
100
AcDbLine
 10
511.424075
 20
154.341226
 30
0.0
 11
502.648349
 21
154.341226
 31
0.0
  0
LINE
  5
204A
100
AcDbEntity
  8
V0-OBRYS
  6
DASHED
 62
    41
 48
0.5
100
AcDbLine
 10
511.424075
 20
166.864532
 30
0.0
 11
502.648349
 21
166.864532
 31
0.0
  0
LINE
  5
204B
100
AcDbEntity
  8
V0-OBRYS
  6
DASHED
 62
    41
 48
0.5
100
AcDbLine
 10
511.424075
 20
179.387838
 30
0.0
 11
502.648349
 21
179.387838
 31
0.0
  0
LINE
  5
204C
100
AcDbEntity
  8
V0-OBRYS
  6
DASHED
 62
    41
 48
0.5
100
AcDbLine
 10
511.424075
 20
191.911143
 30
0.0
 11
502.648349
 21
191.911143
 31
0.0
  0
LINE
  5
204D
100
AcDbEntity
  8
V0-OBRYS
  6
DASHED
 62
    41
 48
0.5
100
AcDbLine
 10
511.424075
 20
204.434449
 30
0.0
 11
502.648349
 21
204.434449
 31
0.0
  0
LINE
  5
204E
100
AcDbEntity
  8
V0-OBRYS
  6
DASHED
 62
    41
 48
0.5
100
AcDbLine
 10
511.424075
 20
216.957754
 30
0.0
 11
502.648349
 21
216.957754
 31
0.0
  0
LINE
  5
204F
100
AcDbEntity
  8
V0-OBRYS
  6
DASHED
 62
    41
 48
0.5
100
AcDbLine
 10
511.424075
 20
229.48106
 30
0.0
 11
502.648349
 21
229.48106
 31
0.0
  0
LINE
  5
2050
100
AcDbEntity
  8
V0-OBRYS
  6
DASHED
 62
    41
 48
0.5
100
AcDbLine
 10
511.424075
 20
242.004366
 30
0.0
 11
502.648349
 21
242.004366
 31
0.0
  0
LINE
  5
2051
100
AcDbEntity
  8
V0-OBRYS
  6
DASHED
 62
    41
 48
0.5
100
AcDbLine
 10
511.424075
 20
254.527671
 30
0.0
 11
502.648349
 21
254.527671
 31
0.0
  0
LINE
  5
2052
100
AcDbEntity
  8
V0-OBRYS
  6
DASHED
 62
    41
 48
0.5
100
AcDbLine
 10
511.424075
 20
267.050977
 30
0.0
 11
502.648349
 21
267.050977
 31
0.0
  0
LINE
  5
2053
100
AcDbEntity
  8
V0-OBRYS
  6
DASHED
 62
    41
 48
0.5
100
AcDbLine
 10
511.424075
 20
279.574282
 30
0.0
 11
502.648349
 21
279.574282
 31
0.0
  0
LINE
  5
2054
100
AcDbEntity
  8
V0-OBRYS
  6
DASHED
 62
    41
 48
0.5
100
AcDbLine
 10
511.424075
 20
292.097588
 30
0.0
 11
502.648349
 21
292.097588
 31
0.0
  0
LINE
  5
2055
100
AcDbEntity
  8
V0-OBRYS
  6
DASHED
 62
    41
 48
0.5
100
AcDbLine
 10
502.648349
 20
317.144199
 30
0.0
 11
502.648349
 21
67.247055
 31
0.0
  0
DIMENSION
  5
2071
100
AcDbEntity
  8
V0-ZBYTEK
  6
CONTINUOUS
 62
    41
 48
3.0
100
AcDbDimension
  2
*D17
 10
205.869308
 20
-64.415438
 30
0.0
 11
21.990828
 21
-52.415438
 31
0.0
 70
    32
  3
ED20
100
AcDbAlignedDimension
 13
-161.887652
 23
6.469887
 33
0.0
 14
205.869308
 24
6.469887
 34
0.0
100
AcDbRotatedDimension
1001
ACAD
1000
DSTYLE
1002
{
1070
    40
1040
1.0
1002
}
  0
DIMENSION
  5
207E
100
AcDbEntity
  8
V0-ZBYTEK
  6
CONTINUOUS
 62
    41
 48
3.0
100
AcDbDimension
  2
*D18
 10
269.992076
 20
-9.585633
 30
0.0
 11
259.992076
 21
191.911143
 31
0.0
 12
-2.0
 22
0.0
 32
0.0
 70
    32
  3
ED20
100
AcDbAlignedDimension
 13
189.813788
 23
393.407919
 33
0.0
 14
189.813788
 24
-9.585633
 34
0.0
 50
90.0
100
AcDbRotatedDimension
1001
ACAD
1000
DSTYLE
1002
{
1070
    40
1040
1.0
1002
}
  0
DIMENSION
  5
208D
100
AcDbEntity
  8
V0-ZBYTEK
  6
CONTINUOUS
 62
    41
 48
3.0
100
AcDbDimension
  2
*D19
 10
511.424075
 20
-64.415438
 30
0.0
 11
565.278603
 21
-52.413469
 31
0.0
 70
    32
  3
ED20
100
AcDbAlignedDimension
 13
489.781931
 23
-9.585633
 33
0.0
 14
511.424075
 24
-9.585633
 34
0.0
100
AcDbRotatedDimension
1001
ACAD
1000
DSTYLE
1002
{
1070
    40
1040
1.0
1002
}
  0
LINE
  5
208E
100
AcDbEntity
  8
V0-OBRYS
  6
CONTINUOUS
 48
3.0
100
AcDbLine
 10
-161.887652
 20
-212.522726
 30
0.0
 11
205.869308
 21
-212.522726
 31
0.0
  0
LINE
  5
208F
100
AcDbEntity
  8
V0-OBRYS
  6
CONTINUOUS
 48
3.0
100
AcDbLine
 10
205.869308
 20
-190.880582
 30
0.0
 11
-161.887652
 21
-190.880582
 31
0.0
  0
LINE
  5
2090
100
AcDbEntity
  8
V0-OBRYS
  6
DASHED
 62
    41
 48
0.5
100
AcDbLine
 10
147.843884
 20
-203.747
 30
0.0
 11
-102.053261
 21
-203.747
 31
0.0
  0
LINE
  5
2099
100
AcDbEntity
  8
V0-OBRYS
  6
DASHED
 62
    41
 48
0.5
100
AcDbLine
 10
-102.622228
 20
-212.522726
 30
0.0
 11
-102.622228
 21
-203.747
 31
0.0
  0
LINE
  5
209A
100
AcDbEntity
  8
V0-OBRYS
  6
CONTINUOUS
 48
3.0
100
AcDbLine
 10
-161.887652
 20
-190.880582
 30
0.0
 11
-161.887652
 21
-212.522726
 31
0.0
  0
LINE
  5
209F
100
AcDbEntity
  8
V0-OBRYS
  6
DASHED
 62
    41
 48
0.5
100
AcDbLine
 10
147.843884
 20
-212.522726
 30
0.0
 11
147.843884
 21
-203.747
 31
0.0
  0
LINE
  5
20A0
100
AcDbEntity
  8
V0-OBRYS
  6
DASHED
 62
    41
 48
0.5
100
AcDbLine
 10
147.843884
 20
-212.522726
 30
0.0
 11
147.843884
 21
-203.747
 31
0.0
  0
LINE
  5
2118
100
AcDbEntity
  8
V0-OBRYS
  6
CONTINUOUS
 48
3.0
100
AcDbLine
 10
205.869308
 20
-190.880582
 30
0.0
 11
205.869308
 21
-212.522726
 31
0.0
  0
MTEXT
  5
2137
100
AcDbEntity
  8
V0-NAZVY
100
AcDbMText
 10
487.940735
 20
-117.248866
 30
0.0
 40
31.609305
 41
260.006188
 71
     5
 72
     5
  1
HVG - 300
  7
ED10
  0
MTEXT
  5
2138
100
AcDbEntity
  8
V0-NAZVY
100
AcDbMText
 10
33.706211
 20
-120.7895
 30
0.0
 40
31.609305
 41
260.006188
 71
     5
 72
     5
  1
HVG - 300
  7
ED10
  0
VIEWPORT
  5
22
100
AcDbEntity
 67
     1
  8
0
100
AcDbViewport
 10
261.517699
 20
148.5
 30
0.0
 40
523.035398
 41
297.0
 68
    -1
 69
     1
1001
ACAD
1000
MVIEW
1002
{
1070
    16
1010
0.0
1020
0.0
1030
0.0
1010
0.0
1020
0.0
1030
1.0
1040
0.0
1040
297.0
1040
261.517699
1040
148.5
1040
50.0
1040
0.0
1040
0.0
1070
     0
1070
   100
1070
     1
1070
     1
1070
     0
1070
     0
1070
     0
1070
     0
1040
0.0
1040
0.0
1040
0.0
1040
1.0
1040
1.0
1040
10.0
1040
10.0
1070
     0
1002
{
1002
}
1002
}
  0
ENDSEC
  0
SECTION
  2
OBJECTS
  0
DICTIONARY
  5
C
100
AcDbDictionary
  3
ACAD_GROUP
350
D
  3
ACAD_MLINESTYLE
350
E
  3
ACDBVARIABLEDICTIONARY
350
5D
  0
DICTIONARY
  5
D
102
{ACAD_REACTORS
330
C
102
}
100
AcDbDictionary
  0
DICTIONARY
  5
E
102
{ACAD_REACTORS
330
C
102
}
100
AcDbDictionary
  3
STANDARD
350
13
  0
DICTIONARY
  5
5D
102
{ACAD_REACTORS
330
C
102
}
100
AcDbDictionary
  3
DIMADEC
350
5E
  3
SORTENTS
350
3D8
  0
MLINESTYLE
  5
13
102
{ACAD_REACTORS
330
E
102
}
100
AcDbMlineStyle
  2
STANDARD
 70
     0
  3

 62
     0
 51
90.0
 52
90.0
 71
     2
 49
0.5
 62
   256
  6
BYLAYER
 49
-0.5
 62
   256
  6
BYLAYER
  0
DICTIONARYVAR
  5
5E
102
{ACAD_REACTORS
330
5D
102
}
100
DictionaryVariables
280
     0
  1
0
  0
DICTIONARYVAR
  5
3D8
102
{ACAD_REACTORS
330
5D
102
}
100
DictionaryVariables
280
     0
  1
96
  0
ENDSEC
  0
EOF
