  0
SECTION
  2
HEADER
  9
$ACADVER
  1
AC1014
  9
$ACADMAINTVER
 70
     0
  9
$DWGCODEPAGE
  3
ANSI_1250
  9
$INSBASE
 10
0.0
 20
0.0
 30
0.0
  9
$EXTMIN
 10
-405.085491
 20
-535.173319
 30
0.0
  9
$EXTMAX
 10
906.85533
 20
824.955704
 30
0.0
  9
$LIMMIN
 10
0.0
 20
0.0
  9
$LIMMAX
 10
420.0
 20
297.0
  9
$ORTHOMODE
 70
     1
  9
$REGENMODE
 70
     1
  9
$FILLMODE
 70
     1
  9
$QTEXTMODE
 70
     0
  9
$MIRRTEXT
 70
     1
  9
$DRAGMODE
 70
     2
  9
$LTSCALE
 40
1.0
  9
$OSMODE
 70
    37
  9
$ATTMODE
 70
     1
  9
$TEXTSIZE
 40
25.0
  9
$TRACEWID
 40
1.0
  9
$TEXTSTYLE
  7
ED25
  9
$CLAYER
  8
V0-OBRYS
  9
$CELTYPE
  6
CONTINUOUS
  9
$CECOLOR
 62
   256
  9
$CELTSCALE
 40
1.0
  9
$DELOBJ
 70
     1
  9
$DISPSILH
 70
     0
  9
$DIMSCALE
 40
1.0
  9
$DIMASZ
 40
25.0
  9
$DIMEXO
 40
0.625
  9
$DIMDLI
 40
3.75
  9
$DIMRND
 40
0.0
  9
$DIMDLE
 40
0.0
  9
$DIMEXE
 40
1.25
  9
$DIMTP
 40
0.0
  9
$DIMTM
 40
0.0
  9
$DIMTXT
 40
25.0
  9
$DIMCEN
 40
25.0
  9
$DIMTSZ
 40
0.0
  9
$DIMTOL
 70
     0
  9
$DIMLIM
 70
     0
  9
$DIMTIH
 70
     0
  9
$DIMTOH
 70
     0
  9
$DIMSE1
 70
     0
  9
$DIMSE2
 70
     0
  9
$DIMTAD
 70
     1
  9
$DIMZIN
 70
    12
  9
$DIMBLK
  1

  9
$DIMASO
 70
     1
  9
$DIMSHO
 70
     1
  9
$DIMPOST
  1

  9
$DIMAPOST
  1

  9
$DIMALT
 70
     0
  9
$DIMALTD
 70
     4
  9
$DIMALTF
 40
0.0394
  9
$DIMLFAC
 40
1.0
  9
$DIMTOFL
 70
     1
  9
$DIMTVP
 40
0.0
  9
$DIMTIX
 70
     0
  9
$DIMSOXD
 70
     0
  9
$DIMSAH
 70
     1
  9
$DIMBLK1
  1
_OPEN
  9
$DIMBLK2
  1
_OPEN
  9
$DIMSTYLE
  2
ED25
  9
$DIMCLRD
 70
    41
  9
$DIMCLRE
 70
    41
  9
$DIMCLRT
 70
    41
  9
$DIMTFAC
 40
1.0
  9
$DIMGAP
 40
5.0
  9
$DIMJUST
 70
     0
  9
$DIMSD1
 70
     0
  9
$DIMSD2
 70
     0
  9
$DIMTOLJ
 70
     1
  9
$DIMTZIN
 70
     0
  9
$DIMALTZ
 70
     0
  9
$DIMALTTZ
 70
     0
  9
$DIMFIT
 70
     3
  9
$DIMUPT
 70
     0
  9
$DIMUNIT
 70
     2
  9
$DIMDEC
 70
     0
  9
$DIMTDEC
 70
     4
  9
$DIMALTU
 70
     8
  9
$DIMALTTD
 70
     4
  9
$DIMTXSTY
  7
ED25
  9
$DIMAUNIT
 70
     0
  9
$LUNITS
 70
     2
  9
$LUPREC
 70
     4
  9
$SKETCHINC
 40
1.0
  9
$FILLETRAD
 40
5.0
  9
$AUNITS
 70
     0
  9
$AUPREC
 70
     0
  9
$MENU
  1
.
  9
$ELEVATION
 40
0.0
  9
$PELEVATION
 40
0.0
  9
$THICKNESS
 40
0.0
  9
$LIMCHECK
 70
     0
  9
$BLIPMODE
 70
     0
  9
$CHAMFERA
 40
10.0
  9
$CHAMFERB
 40
10.0
  9
$CHAMFERC
 40
20.0
  9
$CHAMFERD
 40
0.0
  9
$SKPOLY
 70
     0
  9
$TDCREATE
 40
2451205.795226389
  9
$TDUPDATE
 40
2453319.770128217
  9
$TDINDWG
 40
0.1859907523
  9
$TDUSRTIMER
 40
0.1859907523
  9
$USRTIMER
 70
     1
  9
$ANGBASE
 50
0.0
  9
$ANGDIR
 70
     0
  9
$PDMODE
 70
     3
  9
$PDSIZE
 40
15.0
  9
$PLINEWID
 40
0.0
  9
$COORDS
 70
     1
  9
$SPLFRAME
 70
     0
  9
$SPLINETYPE
 70
     6
  9
$SPLINESEGS
 70
     8
  9
$ATTDIA
 70
     0
  9
$ATTREQ
 70
     1
  9
$HANDLING
 70
     1
  9
$HANDSEED
  5
4B0
  9
$SURFTAB1
 70
     6
  9
$SURFTAB2
 70
     6
  9
$SURFTYPE
 70
     6
  9
$SURFU
 70
     6
  9
$SURFV
 70
     6
  9
$UCSNAME
  2

  9
$UCSORG
 10
-217.8393424485958
 20
-124.4412832406278
 30
0.0
  9
$UCSXDIR
 10
1.0
 20
0.0
 30
0.0
  9
$UCSYDIR
 10
0.0
 20
1.0
 30
0.0
  9
$PUCSNAME
  2

  9
$PUCSORG
 10
0.0
 20
0.0
 30
0.0
  9
$PUCSXDIR
 10
1.0
 20
0.0
 30
0.0
  9
$PUCSYDIR
 10
0.0
 20
1.0
 30
0.0
  9
$USERI1
 70
     0
  9
$USERI2
 70
     0
  9
$USERI3
 70
     0
  9
$USERI4
 70
     0
  9
$USERI5
 70
     0
  9
$USERR1
 40
0.0
  9
$USERR2
 40
0.0
  9
$USERR3
 40
0.0
  9
$USERR4
 40
0.0
  9
$USERR5
 40
0.0
  9
$WORLDVIEW
 70
     1
  9
$SHADEDGE
 70
     3
  9
$SHADEDIF
 70
    70
  9
$TILEMODE
 70
     1
  9
$MAXACTVP
 70
    48
  9
$PINSBASE
 10
0.0
 20
0.0
 30
0.0
  9
$PLIMCHECK
 70
     0
  9
$PEXTMIN
 10
1.000000E+20
 20
1.000000E+20
 30
1.000000E+20
  9
$PEXTMAX
 10
-1.000000E+20
 20
-1.000000E+20
 30
-1.000000E+20
  9
$PLIMMIN
 10
0.0
 20
0.0
  9
$PLIMMAX
 10
420.0
 20
297.0
  9
$UNITMODE
 70
     0
  9
$VISRETAIN
 70
     1
  9
$PLINEGEN
 70
     0
  9
$PSLTSCALE
 70
     0
  9
$TREEDEPTH
 70
  3020
  9
$PICKSTYLE
 70
     1
  9
$CMLSTYLE
  2
STANDARD
  9
$CMLJUST
 70
     1
  9
$CMLSCALE
 40
20.0
  9
$PROXYGRAPHICS
 70
     1
  9
$MEASUREMENT
 70
     1
  0
ENDSEC
  0
SECTION
  2
CLASSES
  0
CLASS
  1
LWPOLYLINE
  2
AcDbPolyline
  3
"AutoCAD"
 90
        0
280
     0
281
     1
  0
ENDSEC
  0
SECTION
  2
TABLES
  0
TABLE
  2
VPORT
  5
8
100
AcDbSymbolTable
 70
     2
  0
VPORT
  5
4AF
100
AcDbSymbolTableRecord
100
AcDbViewportTableRecord
  2
*ACTIVE
 70
     0
 10
0.0
 20
0.0
 11
1.0
 21
1.0
 12
275.152097
 22
144.892906
 13
0.0
 23
0.0
 14
10.0
 24
10.0
 15
10.0
 25
10.0
 16
0.0
 26
0.0
 36
1.0
 17
0.0
 27
0.0
 37
0.0
 40
1387.074014
 41
1.585567
 42
50.0
 43
0.0
 44
0.0
 50
0.0
 51
0.0
 71
     0
 72
   100
 73
     1
 74
     1
 75
     0
 76
     0
 77
     0
 78
     0
  0
ENDTAB
  0
TABLE
  2
LTYPE
  5
5
100
AcDbSymbolTable
 70
     2
  0
LTYPE
  5
12
100
AcDbSymbolTableRecord
100
AcDbLinetypeTableRecord
  2
BYBLOCK
 70
     0
  3

 72
    65
 73
     0
 40
0.0
  0
LTYPE
  5
13
100
AcDbSymbolTableRecord
100
AcDbLinetypeTableRecord
  2
BYLAYER
 70
     0
  3

 72
    65
 73
     0
 40
0.0
  0
LTYPE
  5
14
100
AcDbSymbolTableRecord
100
AcDbLinetypeTableRecord
  2
CONTINUOUS
 70
     0
  3
Solid line
 72
    65
 73
     0
 40
0.0
  0
LTYPE
  5
22
100
AcDbSymbolTableRecord
100
AcDbLinetypeTableRecord
  2
DASHDOT
 70
     0
  3
Dash dot __ . __ . __ . __ . __ . __ . __ . __
 72
    65
 73
     4
 40
25.4
 49
12.7
 74
     0
 49
-6.35
 74
     0
 49
0.0
 74
     0
 49
-6.35
 74
     0
  0
ENDTAB
  0
TABLE
  2
LAYER
  5
2
100
AcDbSymbolTable
 70
     6
  0
LAYER
  5
E
100
AcDbSymbolTableRecord
100
AcDbLayerTableRecord
  2
0
 70
     0
 62
     7
  6
CONTINUOUS
  0
LAYER
  5
23
100
AcDbSymbolTableRecord
100
AcDbLayerTableRecord
  2
V0-OBRYS
 70
     0
 62
    90
  6
CONTINUOUS
  0
LAYER
  5
24
100
AcDbSymbolTableRecord
100
AcDbLayerTableRecord
  2
V0-VYPLNĚ
 70
     0
 62
    63
  6
DASHDOT
  0
LAYER
  5
25
100
AcDbSymbolTableRecord
100
AcDbLayerTableRecord
  2
V0-ZBYTEK
 70
     0
 62
    51
  6
CONTINUOUS
  0
LAYER
  5
2A
100
AcDbSymbolTableRecord
100
AcDbLayerTableRecord
  2
V0-NAZVY
 70
     0
 62
   210
  6
CONTINUOUS
  0
LAYER
  5
39
100
AcDbSymbolTableRecord
100
AcDbLayerTableRecord
  2
DEFPOINTS
 70
     0
 62
     7
  6
CONTINUOUS
  0
ENDTAB
  0
TABLE
  2
STYLE
  5
3
100
AcDbSymbolTable
 70
     2
  0
STYLE
  5
F
100
AcDbSymbolTableRecord
100
AcDbTextStyleTableRecord
  2
STANDARD
 70
     0
 40
0.0
 41
1.0
 50
0.0
 71
     0
 42
2.5
  3
txt
  4

  0
STYLE
  5
29
100
AcDbSymbolTableRecord
100
AcDbTextStyleTableRecord
  2
ED25
 70
     0
 40
25.0
 41
1.0
 50
0.0
 71
     0
 42
25.0
  3
isocp.shx
  4

  0
ENDTAB
  0
TABLE
  2
VIEW
  5
6
100
AcDbSymbolTable
 70
     0
  0
ENDTAB
  0
TABLE
  2
UCS
  5
7
100
AcDbSymbolTable
 70
     0
  0
ENDTAB
  0
TABLE
  2
APPID
  5
9
100
AcDbSymbolTable
 70
     1
  0
APPID
  5
10
100
AcDbSymbolTableRecord
100
AcDbRegAppTableRecord
  2
ACAD
 70
     0
  0
ENDTAB
  0
TABLE
  2
DIMSTYLE
  5
A
100
AcDbSymbolTable
 70
     1
  0
DIMSTYLE
105
1D
102
{ACAD_REACTORS
330
209
330
97
330
8A
330
1FC
330
109
330
374
330
392
102
}
100
AcDbSymbolTableRecord
100
AcDbDimStyleTableRecord
  2
ED25
 70
     0
  3

  4

  5

  6
_OPEN
  7
_OPEN
 40
1.0
 41
25.0
 42
0.625
 43
3.75
 44
1.25
 45
0.0
 46
0.0
 47
0.0
 48
0.0
140
25.0
141
25.0
142
0.0
143
0.0394
144
1.0
145
0.0
146
1.0
147
5.0
 71
     0
 72
     0
 73
     0
 74
     0
 75
     0
 76
     0
 77
     1
 78
    12
170
     0
171
     4
172
     1
173
     1
174
     0
175
     0
176
    41
177
    41
178
    41
270
     2
271
     0
272
     4
273
     8
274
     4
340
29
275
     0
280
     0
281
     0
282
     0
283
     1
284
     0
285
     0
286
     0
287
     3
288
     0
  0
ENDTAB
  0
TABLE
  2
BLOCK_RECORD
  5
1
100
AcDbSymbolTable
 70
     8
  0
BLOCK_RECORD
  5
18
100
AcDbSymbolTableRecord
100
AcDbBlockTableRecord
  2
*MODEL_SPACE
  0
BLOCK_RECORD
  5
15
100
AcDbSymbolTableRecord
100
AcDbBlockTableRecord
  2
*PAPER_SPACE
  0
BLOCK_RECORD
  5
2B
100
AcDbSymbolTableRecord
100
AcDbBlockTableRecord
  2
_OPEN
  0
BLOCK_RECORD
  5
2C3
100
AcDbSymbolTableRecord
100
AcDbBlockTableRecord
  2
*D1
  0
BLOCK_RECORD
  5
2CF
100
AcDbSymbolTableRecord
100
AcDbBlockTableRecord
  2
*D2
  0
BLOCK_RECORD
  5
2DB
100
AcDbSymbolTableRecord
100
AcDbBlockTableRecord
  2
*D3
  0
BLOCK_RECORD
  5
2E7
100
AcDbSymbolTableRecord
100
AcDbBlockTableRecord
  2
*D4
  0
BLOCK_RECORD
  5
311
100
AcDbSymbolTableRecord
100
AcDbBlockTableRecord
  2
*D5
  0
BLOCK_RECORD
  5
368
100
AcDbSymbolTableRecord
100
AcDbBlockTableRecord
  2
*D6
  0
BLOCK_RECORD
  5
384
100
AcDbSymbolTableRecord
100
AcDbBlockTableRecord
  2
*D7
  0
ENDTAB
  0
ENDSEC
  0
SECTION
  2
BLOCKS
  0
BLOCK
  5
19
100
AcDbEntity
  8
0
100
AcDbBlockBegin
  2
*MODEL_SPACE
 70
     0
 10
0.0
 20
0.0
 30
0.0
  3
*MODEL_SPACE
  1

  0
ENDBLK
  5
1A
100
AcDbEntity
  8
0
100
AcDbBlockEnd
  0
BLOCK
  5
16
100
AcDbEntity
 67
     1
  8
0
100
AcDbBlockBegin
  2
*PAPER_SPACE
 70
     0
 10
0.0
 20
0.0
 30
0.0
  3
*PAPER_SPACE
  1

  0
ENDBLK
  5
17
100
AcDbEntity
 67
     1
  8
0
100
AcDbBlockEnd
  0
BLOCK
  5
2C
100
AcDbEntity
  8
0
100
AcDbBlockBegin
  2
_OPEN
 70
     0
 10
0.0
 20
0.0
 30
0.0
  3
_OPEN
  1

  0
LINE
  5
2D
100
AcDbEntity
  8
0
  6
BYBLOCK
 62
     0
100
AcDbLine
 10
-1.0
 20
0.166667
 30
0.0
 11
0.0
 21
0.0
 31
0.0
  0
LINE
  5
2E
100
AcDbEntity
  8
0
  6
BYBLOCK
 62
     0
100
AcDbLine
 10
0.0
 20
0.0
 30
0.0
 11
-1.0
 21
-0.166667
 31
0.0
  0
LINE
  5
2F
100
AcDbEntity
  8
0
  6
BYBLOCK
 62
     0
100
AcDbLine
 10
0.0
 20
0.0
 30
0.0
 11
-1.0
 21
0.0
 31
0.0
  0
ENDBLK
  5
30
100
AcDbEntity
  8
0
100
AcDbBlockEnd
  0
BLOCK
  5
487
100
AcDbEntity
  8
0
100
AcDbBlockBegin
  2
*D1
 70
     1
 10
0.0
 20
0.0
 30
0.0
  3
*D1
  1

  0
LINE
  5
488
100
AcDbEntity
  8
0
  6
BYBLOCK
 62
    41
100
AcDbLine
 10
62.672029
 20
714.098381
 30
0.0
 11
254.428189
 21
714.098381
 31
0.0
  0
LINE
  5
489
100
AcDbEntity
  8
0
  6
BYBLOCK
 62
    41
100
AcDbLine
 10
122.672029
 20
134.098381
 30
0.0
 11
254.428189
 21
134.098381
 31
0.0
  0
LINE
  5
48A
100
AcDbEntity
  8
0
  6
BYBLOCK
 62
    41
100
AcDbLine
 10
253.178189
 20
689.098381
 30
0.0
 11
253.178189
 21
159.098381
 31
0.0
  0
INSERT
  5
48B
100
AcDbEntity
  8
0
  6
BYBLOCK
 62
    41
100
AcDbBlockReference
  2
_OPEN
 10
253.178189
 20
714.098381
 30
0.0
 41
25.0
 42
25.0
 43
25.0
 50
90.0
  0
INSERT
  5
48C
100
AcDbEntity
  8
0
  6
BYBLOCK
 62
    41
100
AcDbBlockReference
  2
_OPEN
 10
253.178189
 20
134.098381
 30
0.0
 41
25.0
 42
25.0
 43
25.0
 50
270.0
  0
MTEXT
  5
48D
100
AcDbEntity
  8
0
  6
BYBLOCK
 62
    41
100
AcDbMText
 10
235.678189
 20
424.098381
 30
0.0
 40
25.0
 41
0.0
 71
     5
 72
     1
  1
\A1;580
  7
ED25
 11
0.0
 21
1.0
 31
0.0
  0
POINT
  5
48E
100
AcDbEntity
  8
DEFPOINTS
  6
BYBLOCK
 62
     0
100
AcDbPoint
 10
62.047029
 20
714.098381
 30
0.0
  0
POINT
  5
48F
100
AcDbEntity
  8
DEFPOINTS
  6
BYBLOCK
 62
     0
100
AcDbPoint
 10
122.047029
 20
134.098381
 30
0.0
  0
POINT
  5
490
100
AcDbEntity
  8
DEFPOINTS
  6
BYBLOCK
 62
     0
100
AcDbPoint
 10
253.178189
 20
134.098381
 30
0.0
  0
ENDBLK
  5
491
100
AcDbEntity
  8
0
100
AcDbBlockEnd
  0
BLOCK
  5
49D
100
AcDbEntity
  8
0
100
AcDbBlockBegin
  2
*D2
 70
     1
 10
0.0
 20
0.0
 30
0.0
  3
*D2
  1

  0
LINE
  5
49E
100
AcDbEntity
  8
0
  6
BYBLOCK
 62
    41
100
AcDbLine
 10
-277.952971
 20
133.473381
 30
0.0
 11
-277.952971
 21
20.771361
 31
0.0
  0
LINE
  5
49F
100
AcDbEntity
  8
0
  6
BYBLOCK
 62
    41
100
AcDbLine
 10
122.047029
 20
133.473381
 30
0.0
 11
122.047029
 21
20.771361
 31
0.0
  0
LINE
  5
4A0
100
AcDbEntity
  8
0
  6
BYBLOCK
 62
    41
100
AcDbLine
 10
-252.952971
 20
22.021361
 30
0.0
 11
97.047029
 21
22.021361
 31
0.0
  0
INSERT
  5
4A1
100
AcDbEntity
  8
0
  6
BYBLOCK
 62
    41
100
AcDbBlockReference
  2
_OPEN
 10
-277.952971
 20
22.021361
 30
0.0
 41
25.0
 42
25.0
 43
25.0
 50
180.0
  0
INSERT
  5
4A2
100
AcDbEntity
  8
0
  6
BYBLOCK
 62
    41
100
AcDbBlockReference
  2
_OPEN
 10
122.047029
 20
22.021361
 30
0.0
 41
25.0
 42
25.0
 43
25.0
  0
MTEXT
  5
4A3
100
AcDbEntity
  8
0
  6
BYBLOCK
 62
    41
100
AcDbMText
 10
-77.952971
 20
39.521361
 30
0.0
 40
25.0
 41
0.0
 71
     5
 72
     1
  1
\A1;400
  7
ED25
  0
POINT
  5
4A4
100
AcDbEntity
  8
DEFPOINTS
  6
BYBLOCK
 62
     0
100
AcDbPoint
 10
-277.952971
 20
134.098381
 30
0.0
  0
POINT
  5
4A5
100
AcDbEntity
  8
DEFPOINTS
  6
BYBLOCK
 62
     0
100
AcDbPoint
 10
122.047029
 20
134.098381
 30
0.0
  0
POINT
  5
4A6
100
AcDbEntity
  8
DEFPOINTS
  6
BYBLOCK
 62
     0
100
AcDbPoint
 10
122.047029
 20
22.021361
 30
0.0
  0
ENDBLK
  5
4A7
100
AcDbEntity
  8
0
100
AcDbBlockEnd
  0
BLOCK
  5
2DC
100
AcDbEntity
  8
0
100
AcDbBlockBegin
  2
*D3
 70
     1
 10
0.0
 20
0.0
 30
0.0
  3
*D3
  1

  0
LINE
  5
2DD
100
AcDbEntity
  8
0
  6
BYBLOCK
 62
    41
100
AcDbLine
 10
-217.839342
 20
627.223381
 30
0.0
 11
-217.839342
 21
708.698322
 31
0.0
  0
LINE
  5
2DE
100
AcDbEntity
  8
0
  6
BYBLOCK
 62
    41
100
AcDbLine
 10
62.047029
 20
627.223381
 30
0.0
 11
62.047029
 21
708.698322
 31
0.0
  0
LINE
  5
2DF
100
AcDbEntity
  8
0
  6
BYBLOCK
 62
    41
100
AcDbLine
 10
-192.839342
 20
707.448322
 30
0.0
 11
37.047029
 21
707.448322
 31
0.0
  0
INSERT
  5
2E0
100
AcDbEntity
  8
0
  6
BYBLOCK
 62
    41
100
AcDbBlockReference
  2
_OPEN
 10
-217.839342
 20
707.448322
 30
0.0
 41
25.0
 42
25.0
 43
25.0
 50
180.0
  0
INSERT
  5
2E1
100
AcDbEntity
  8
0
  6
BYBLOCK
 62
    41
100
AcDbBlockReference
  2
_OPEN
 10
62.047029
 20
707.448322
 30
0.0
 41
25.0
 42
25.0
 43
25.0
  0
MTEXT
  5
2E2
100
AcDbEntity
  8
0
  6
BYBLOCK
 62
    41
100
AcDbMText
 10
-77.896157
 20
724.950783
 30
0.0
 40
25.0
 41
0.0
 71
     5
 72
     1
  1
\A1;280
  7
ED25
  0
POINT
  5
2E3
100
AcDbEntity
  8
DEFPOINTS
  6
BYBLOCK
 62
     0
100
AcDbPoint
 10
-217.839342
 20
626.598381
 30
0.0
  0
POINT
  5
2E4
100
AcDbEntity
  8
DEFPOINTS
  6
BYBLOCK
 62
     0
100
AcDbPoint
 10
62.047029
 20
626.598381
 30
0.0
  0
POINT
  5
2E5
100
AcDbEntity
  8
DEFPOINTS
  6
BYBLOCK
 62
     0
100
AcDbPoint
 10
62.047029
 20
707.448322
 30
0.0
  0
ENDBLK
  5
2E6
100
AcDbEntity
  8
0
100
AcDbBlockEnd
  0
BLOCK
  5
492
100
AcDbEntity
  8
0
100
AcDbBlockBegin
  2
*D4
 70
     1
 10
0.0
 20
0.0
 30
0.0
  3
*D4
  1

  0
LINE
  5
493
100
AcDbEntity
  8
0
  6
BYBLOCK
 62
    41
100
AcDbLine
 10
-278.577971
 20
634.098381
 30
0.0
 11
-377.575648
 21
634.098381
 31
0.0
  0
LINE
  5
494
100
AcDbEntity
  8
0
  6
BYBLOCK
 62
    41
100
AcDbLine
 10
-278.577971
 20
134.098381
 30
0.0
 11
-377.575648
 21
134.098381
 31
0.0
  0
LINE
  5
495
100
AcDbEntity
  8
0
  6
BYBLOCK
 62
    41
100
AcDbLine
 10
-376.325648
 20
609.098381
 30
0.0
 11
-376.325648
 21
159.098381
 31
0.0
  0
INSERT
  5
496
100
AcDbEntity
  8
0
  6
BYBLOCK
 62
    41
100
AcDbBlockReference
  2
_OPEN
 10
-376.325648
 20
634.098381
 30
0.0
 41
25.0
 42
25.0
 43
25.0
 50
90.0
  0
INSERT
  5
497
100
AcDbEntity
  8
0
  6
BYBLOCK
 62
    41
100
AcDbBlockReference
  2
_OPEN
 10
-376.325648
 20
134.098381
 30
0.0
 41
25.0
 42
25.0
 43
25.0
 50
270.0
  0
MTEXT
  5
498
100
AcDbEntity
  8
0
  6
BYBLOCK
 62
    41
100
AcDbMText
 10
-393.825648
 20
384.098381
 30
0.0
 40
25.0
 41
0.0
 71
     5
 72
     1
  1
\A1;\U+2205500
  7
ED25
 11
0.0
 21
1.0
 31
0.0
  0
POINT
  5
499
100
AcDbEntity
  8
DEFPOINTS
  6
BYBLOCK
 62
     0
100
AcDbPoint
 10
-277.952971
 20
634.098381
 30
0.0
  0
POINT
  5
49A
100
AcDbEntity
  8
DEFPOINTS
  6
BYBLOCK
 62
     0
100
AcDbPoint
 10
-277.952971
 20
134.098381
 30
0.0
  0
POINT
  5
49B
100
AcDbEntity
  8
DEFPOINTS
  6
BYBLOCK
 62
     0
100
AcDbPoint
 10
-376.325648
 20
134.098381
 30
0.0
  0
ENDBLK
  5
49C
100
AcDbEntity
  8
0
100
AcDbBlockEnd
  0
BLOCK
  5
312
100
AcDbEntity
  8
0
100
AcDbBlockBegin
  2
*D5
 70
     1
 10
0.0
 20
0.0
 30
0.0
  3
*D5
  1

  0
LINE
  5
313
100
AcDbEntity
  8
0
  6
BYBLOCK
 62
    41
100
AcDbLine
 10
409.81782
 20
627.223381
 30
0.0
 11
409.81782
 21
701.530812
 31
0.0
  0
LINE
  5
314
100
AcDbEntity
  8
0
  6
BYBLOCK
 62
    41
100
AcDbLine
 10
724.81782
 20
627.223381
 30
0.0
 11
724.81782
 21
701.530812
 31
0.0
  0
LINE
  5
315
100
AcDbEntity
  8
0
  6
BYBLOCK
 62
    41
100
AcDbLine
 10
434.81782
 20
700.280812
 30
0.0
 11
699.81782
 21
700.280812
 31
0.0
  0
INSERT
  5
316
100
AcDbEntity
  8
0
  6
BYBLOCK
 62
    41
100
AcDbBlockReference
  2
_OPEN
 10
409.81782
 20
700.280812
 30
0.0
 41
25.0
 42
25.0
 43
25.0
 50
180.0
  0
INSERT
  5
317
100
AcDbEntity
  8
0
  6
BYBLOCK
 62
    41
100
AcDbBlockReference
  2
_OPEN
 10
724.81782
 20
700.280812
 30
0.0
 41
25.0
 42
25.0
 43
25.0
  0
MTEXT
  5
318
100
AcDbEntity
  8
0
  6
BYBLOCK
 62
    41
100
AcDbMText
 10
571.934677
 20
717.780812
 30
0.0
 40
25.0
 41
0.0
 71
     5
 72
     1
  1
\A1;315
  7
ED25
  0
POINT
  5
319
100
AcDbEntity
  8
DEFPOINTS
  6
BYBLOCK
 62
     0
100
AcDbPoint
 10
409.81782
 20
626.598381
 30
0.0
  0
POINT
  5
31A
100
AcDbEntity
  8
DEFPOINTS
  6
BYBLOCK
 62
     0
100
AcDbPoint
 10
724.81782
 20
626.598381
 30
0.0
  0
POINT
  5
31B
100
AcDbEntity
  8
DEFPOINTS
  6
BYBLOCK
 62
     0
100
AcDbPoint
 10
724.81782
 20
700.280812
 30
0.0
  0
ENDBLK
  5
31C
100
AcDbEntity
  8
0
100
AcDbBlockEnd
  0
BLOCK
  5
369
100
AcDbEntity
  8
0
100
AcDbBlockBegin
  2
*D6
 70
     1
 10
0.0
 20
0.0
 30
0.0
  3
*D6
  1

  0
LINE
  5
36A
100
AcDbEntity
  8
0
  6
BYBLOCK
 62
    41
100
AcDbLine
 10
567.94282
 20
546.598381
 30
0.0
 11
903.938663
 21
546.598381
 31
0.0
  0
LINE
  5
36B
100
AcDbEntity
  8
0
  6
BYBLOCK
 62
    41
100
AcDbLine
 10
567.94282
 20
626.598381
 30
0.0
 11
903.938663
 21
626.598381
 31
0.0
  0
LINE
  5
36C
100
AcDbEntity
  8
0
  6
BYBLOCK
 62
    41
100
AcDbLine
 10
902.688663
 20
571.598381
 30
0.0
 11
902.688663
 21
601.598381
 31
0.0
  0
INSERT
  5
36D
100
AcDbEntity
  8
0
  6
BYBLOCK
 62
    41
100
AcDbBlockReference
  2
_OPEN
 10
902.688663
 20
546.598381
 30
0.0
 41
25.0
 42
25.0
 43
25.0
 50
270.0
  0
INSERT
  5
36E
100
AcDbEntity
  8
0
  6
BYBLOCK
 62
    41
100
AcDbBlockReference
  2
_OPEN
 10
902.688663
 20
626.598381
 30
0.0
 41
25.0
 42
25.0
 43
25.0
 50
90.0
  0
MTEXT
  5
36F
100
AcDbEntity
  8
0
  6
BYBLOCK
 62
    41
100
AcDbMText
 10
885.188663
 20
586.598381
 30
0.0
 40
25.0
 41
0.0
 71
     5
 72
     1
  1
\A1;80
  7
ED25
 11
0.0
 21
1.0
 31
0.0
  0
POINT
  5
370
100
AcDbEntity
  8
DEFPOINTS
  6
BYBLOCK
 62
     0
100
AcDbPoint
 10
567.31782
 20
546.598381
 30
0.0
  0
POINT
  5
371
100
AcDbEntity
  8
DEFPOINTS
  6
BYBLOCK
 62
     0
100
AcDbPoint
 10
567.31782
 20
626.598381
 30
0.0
  0
POINT
  5
372
100
AcDbEntity
  8
DEFPOINTS
  6
BYBLOCK
 62
     0
100
AcDbPoint
 10
902.688663
 20
626.598381
 30
0.0
  0
ENDBLK
  5
373
100
AcDbEntity
  8
0
100
AcDbBlockEnd
  0
BLOCK
  5
385
100
AcDbEntity
  8
0
100
AcDbBlockBegin
  2
*D7
 70
     1
 10
0.0
 20
0.0
 30
0.0
  3
*D7
  1

  0
LINE
  5
386
100
AcDbEntity
  8
0
  6
BYBLOCK
 62
    41
100
AcDbLine
 10
-277.952971
 20
225.973381
 30
0.0
 11
-277.952971
 21
164.088196
 31
0.0
  0
LINE
  5
387
100
AcDbEntity
  8
0
  6
BYBLOCK
 62
    41
100
AcDbLine
 10
-227.952971
 20
225.973381
 30
0.0
 11
-227.952971
 21
164.088196
 31
0.0
  0
LINE
  5
388
100
AcDbEntity
  8
0
  6
BYBLOCK
 62
    41
100
AcDbLine
 10
-302.952971
 20
165.338196
 30
0.0
 11
-327.952971
 21
165.338196
 31
0.0
  0
LINE
  5
389
100
AcDbEntity
  8
0
  6
BYBLOCK
 62
    41
100
AcDbLine
 10
-202.952971
 20
165.338196
 30
0.0
 11
-177.952971
 21
165.338196
 31
0.0
  0
LINE
  5
38A
100
AcDbEntity
  8
0
  6
BYBLOCK
 62
    41
100
AcDbLine
 10
-277.952971
 20
165.338196
 30
0.0
 11
-227.952971
 21
165.338196
 31
0.0
  0
INSERT
  5
38B
100
AcDbEntity
  8
0
  6
BYBLOCK
 62
    41
100
AcDbBlockReference
  2
_OPEN
 10
-277.952971
 20
165.338196
 30
0.0
 41
25.0
 42
25.0
 43
25.0
  0
INSERT
  5
38C
100
AcDbEntity
  8
0
  6
BYBLOCK
 62
    41
100
AcDbBlockReference
  2
_OPEN
 10
-227.952971
 20
165.338196
 30
0.0
 41
25.0
 42
25.0
 43
25.0
 50
180.0
  0
MTEXT
  5
38D
100
AcDbEntity
  8
0
  6
BYBLOCK
 62
    41
100
AcDbMText
 10
-252.952971
 20
182.838196
 30
0.0
 40
25.0
 41
0.0
 71
     5
 72
     1
  1
\A1;50
  7
ED25
  0
POINT
  5
38E
100
AcDbEntity
  8
DEFPOINTS
  6
BYBLOCK
 62
     0
100
AcDbPoint
 10
-277.952971
 20
226.598381
 30
0.0
  0
POINT
  5
38F
100
AcDbEntity
  8
DEFPOINTS
  6
BYBLOCK
 62
     0
100
AcDbPoint
 10
-227.952971
 20
226.598381
 30
0.0
  0
POINT
  5
390
100
AcDbEntity
  8
DEFPOINTS
  6
BYBLOCK
 62
     0
100
AcDbPoint
 10
-227.952971
 20
165.338196
 30
0.0
  0
ENDBLK
  5
391
100
AcDbEntity
  8
0
100
AcDbBlockEnd
  0
ENDSEC
  0
SECTION
  2
ENTITIES
  0
LINE
  5
41
100
AcDbEntity
  8
V0-VYPLNĚ
  6
DASHDOT
 48
3.0
100
AcDbLine
 10
-329.723671
 20
384.098381
 30
0.0
 11
178.860603
 21
384.098381
 31
0.0
  0
LINE
  5
45
100
AcDbEntity
  8
V0-OBRYS
100
AcDbLine
 10
-277.952971
 20
384.098381
 30
0.0
 11
-277.952971
 21
634.098381
 31
0.0
  0
LINE
  5
49
100
AcDbEntity
  8
V0-OBRYS
100
AcDbLine
 10
-277.952971
 20
634.098381
 30
0.0
 11
-227.952971
 21
634.098381
 31
0.0
  0
LINE
  5
4A
100
AcDbEntity
  8
V0-OBRYS
100
AcDbLine
 10
122.047029
 20
634.098381
 30
0.0
 11
122.047029
 21
384.098381
 31
0.0
  0
LINE
  5
4B
100
AcDbEntity
  8
V0-OBRYS
  6
DASHDOT
100
AcDbLine
 10
122.047029
 20
384.098381
 30
0.0
 11
122.047029
 21
590.165518
 31
0.0
  0
LINE
  5
4C
100
AcDbEntity
  8
V0-OBRYS
100
AcDbLine
 10
-277.952971
 20
384.098381
 30
0.0
 11
-277.952971
 21
134.098381
 31
0.0
  0
LINE
  5
4D
100
AcDbEntity
  8
V0-OBRYS
100
AcDbLine
 10
-277.952971
 20
134.098381
 30
0.0
 11
-227.952971
 21
134.098381
 31
0.0
  0
LINE
  5
4E
100
AcDbEntity
  8
V0-OBRYS
100
AcDbLine
 10
122.047029
 20
134.098381
 30
0.0
 11
122.047029
 21
384.098381
 31
0.0
  0
CIRCLE
  5
4F
100
AcDbEntity
  8
V0-OBRYS
100
AcDbCircle
 10
567.31782
 20
384.098381
 30
0.0
 40
250.030463
  0
LINE
  5
50
100
AcDbEntity
  8
V0-VYPLNĚ
 48
3.0
100
AcDbLine
 10
567.31782
 20
14.053747
 30
0.0
 11
567.31782
 21
655.186184
 31
0.0
  0
LINE
  5
51
100
AcDbEntity
  8
V0-OBRYS
100
AcDbLine
 10
409.81782
 20
714.098381
 30
0.0
 11
724.81782
 21
714.098381
 31
0.0
  0
LINE
  5
52
100
AcDbEntity
  8
V0-OBRYS
100
AcDbLine
 10
724.81782
 20
714.098381
 30
0.0
 11
724.81782
 21
704.098381
 31
0.0
  0
LINE
  5
53
100
AcDbEntity
  8
V0-OBRYS
100
AcDbLine
 10
724.81782
 20
704.098381
 30
0.0
 11
409.81782
 21
704.098381
 31
0.0
  0
LINE
  5
54
100
AcDbEntity
  8
V0-OBRYS
100
AcDbLine
 10
409.81782
 20
704.098381
 30
0.0
 11
409.81782
 21
714.098381
 31
0.0
  0
LINE
  5
56
100
AcDbEntity
  8
V0-OBRYS
100
AcDbLine
 10
412.81782
 20
704.098381
 30
0.0
 11
412.558906
 21
590.489116
 31
0.0
  0
LINE
  5
57
100
AcDbEntity
  8
V0-OBRYS
100
AcDbLine
 10
721.81782
 20
704.098381
 30
0.0
 11
721.81782
 21
590.683005
 31
0.0
  0
LINE
  5
58
100
AcDbEntity
  8
V0-OBRYS
100
AcDbLine
 10
-227.952971
 20
634.098381
 30
0.0
 11
-227.952971
 21
134.098381
 31
0.0
  0
LINE
  5
59
100
AcDbEntity
  8
V0-OBRYS
100
AcDbLine
 10
72.047029
 20
634.098381
 30
0.0
 11
72.047029
 21
134.098381
 31
0.0
  0
LINE
  5
5B
100
AcDbEntity
  8
V0-OBRYS
100
AcDbLine
 10
62.047029
 20
634.098381
 30
0.0
 11
62.047029
 21
134.098381
 31
0.0
  0
LINE
  5
5C
100
AcDbEntity
  8
V0-OBRYS
100
AcDbLine
 10
-217.952971
 20
634.098381
 30
0.0
 11
-217.952971
 21
134.098381
 31
0.0
  0
ARC
  5
5D
100
AcDbEntity
  8
V0-OBRYS
100
AcDbCircle
 10
-222.952971
 20
632.961807
 30
0.0
 40
5.127553
100
AcDbArc
 50
4.223503
 51
167.193443
  0
ARC
  5
5E
100
AcDbEntity
  8
V0-OBRYS
100
AcDbCircle
 10
67.047029
 20
632.961807
 30
0.0
 40
5.127553
100
AcDbArc
 50
4.223503
 51
167.193443
  0
ARC
  5
5F
100
AcDbEntity
  8
V0-OBRYS
100
AcDbCircle
 10
67.047029
 20
135.234955
 30
0.0
 40
5.127553
100
AcDbArc
 50
192.806557
 51
347.193443
  0
ARC
  5
60
100
AcDbEntity
  8
V0-OBRYS
100
AcDbCircle
 10
-222.952971
 20
135.234955
 30
0.0
 40
5.127553
100
AcDbArc
 50
192.806557
 51
347.193443
  0
LINE
  5
61
100
AcDbEntity
  8
V0-OBRYS
100
AcDbLine
 10
72.047029
 20
134.098381
 30
0.0
 11
122.047029
 21
134.098381
 31
0.0
  0
LINE
  5
62
100
AcDbEntity
  8
V0-OBRYS
100
AcDbLine
 10
72.047029
 20
634.098381
 30
0.0
 11
122.047029
 21
634.098381
 31
0.0
  0
LINE
  5
64
100
AcDbEntity
  8
V0-OBRYS
100
AcDbLine
 10
-217.952971
 20
134.098381
 30
0.0
 11
62.047029
 21
134.098381
 31
0.0
  0
LINE
  5
67
100
AcDbEntity
  8
V0-OBRYS
100
AcDbLine
 10
62.047029
 20
704.098381
 30
0.0
 11
-217.839342
 21
704.098381
 31
0.0
  0
LINE
  5
69
100
AcDbEntity
  8
V0-OBRYS
100
AcDbLine
 10
-207.839342
 20
633.339438
 30
0.0
 11
-207.839342
 21
704.098381
 31
0.0
  0
LINE
  5
6A
100
AcDbEntity
  8
V0-OBRYS
100
AcDbLine
 10
-217.839342
 20
704.098381
 30
0.0
 11
-41.894299
 21
704.098381
 31
0.0
  0
LINE
  5
6B
100
AcDbEntity
  8
V0-OBRYS
100
AcDbLine
 10
52.047029
 20
634.098381
 30
0.0
 11
52.047029
 21
704.098381
 31
0.0
  0
LINE
  5
6C
100
AcDbEntity
  8
V0-OBRYS
100
AcDbLine
 10
62.047029
 20
714.098381
 30
0.0
 11
-217.839342
 21
714.098381
 31
0.0
  0
LINE
  5
6D
100
AcDbEntity
  8
V0-OBRYS
100
AcDbLine
 10
-217.839342
 20
704.098381
 30
0.0
 11
-217.839342
 21
714.098381
 31
0.0
  0
LINE
  5
6E
100
AcDbEntity
  8
V0-OBRYS
100
AcDbLine
 10
62.047029
 20
704.098381
 30
0.0
 11
62.047029
 21
714.098381
 31
0.0
  0
POINT
  5
71
100
AcDbEntity
  8
V0-OBRYS
100
AcDbPoint
 10
-227.952971
 20
384.098381
 30
0.0
  0
POINT
  5
72
100
AcDbEntity
  8
V0-OBRYS
100
AcDbPoint
 10
-227.952971
 20
384.098381
 30
0.0
  0
ARC
  5
75
100
AcDbEntity
  8
V0-OBRYS
100
AcDbCircle
 10
567.31782
 20
373.849514
 30
0.0
 40
138.10625
100
AcDbArc
 50
100.980575
 51
45.896506
  0
ARC
  5
77
100
AcDbEntity
  8
V0-OBRYS
100
AcDbCircle
 10
567.31782
 20
373.849514
 30
0.0
 40
109.03125
100
AcDbArc
 50
100.980575
 51
45.896506
  0
LINE
  5
78
100
AcDbEntity
  8
V0-OBRYS
100
AcDbLine
 10
581.85532
 20
633.70586
 30
0.0
 11
581.85532
 21
523.698634
 31
0.0
  0
LINE
  5
79
100
AcDbEntity
  8
V0-OBRYS
100
AcDbLine
 10
552.78032
 20
633.70586
 30
0.0
 11
552.78032
 21
523.698634
 31
0.0
  0
ARC
  5
7B
100
AcDbEntity
  8
V0-OBRYS
100
AcDbCircle
 10
653.956851
 20
461.961431
 30
0.0
 40
14.564841
100
AcDbArc
 50
41.558044
 51
222.385245
  0
ARC
  5
7C
100
AcDbEntity
  8
V0-OBRYS
100
AcDbCircle
 10
538.24282
 20
523.698634
 30
0.0
 40
14.5375
100
AcDbArc
 50
280.980575
 51
0.0
  0
ARC
  5
7D
100
AcDbEntity
  8
V0-OBRYS
100
AcDbCircle
 10
538.24282
 20
523.698634
 30
0.0
 40
43.6125
100
AcDbArc
 50
280.980575
 51
0.0
  0
DIMENSION
  5
8A
100
AcDbEntity
  8
V0-VYPLNĚ
  6
CONTINUOUS
 62
    41
100
AcDbDimension
  2
*D3
 10
62.047029
 20
794.948322
 30
0.0
 11
-77.896157
 21
724.950783
 31
0.0
 12
0.0
 22
87.5
 32
0.0
 70
    32
  3
ED25
100
AcDbAlignedDimension
 13
-217.839342
 23
714.098381
 33
0.0
 14
62.047029
 24
714.098381
 34
0.0
100
AcDbRotatedDimension
  0
DIMENSION
  5
97
100
AcDbEntity
  8
V0-VYPLNĚ
  6
CONTINUOUS
 62
    41
100
AcDbDimension
  2
*D2
 10
122.047029
 20
22.021361
 30
0.0
 11
-77.952971
 21
22.021361
 31
0.0
 70
   160
  3
ED25
100
AcDbAlignedDimension
 13
-277.952971
 23
134.098381
 33
0.0
 14
122.047029
 24
134.098381
 34
0.0
100
AcDbRotatedDimension
  0
CIRCLE
  5
FC
100
AcDbEntity
  8
V0-OBRYS
100
AcDbCircle
 10
567.31782
 20
384.098381
 30
0.0
 40
257.967938
  0
DIMENSION
  5
109
100
AcDbEntity
  8
V0-VYPLNĚ
  6
CONTINUOUS
 62
    41
100
AcDbDimension
  2
*D5
 10
724.81782
 20
787.780812
 30
0.0
 11
571.934677
 21
787.780812
 31
0.0
 12
0.0
 22
87.5
 32
0.0
 70
   160
  3
ED25
100
AcDbAlignedDimension
 13
409.81782
 23
714.098381
 33
0.0
 14
724.81782
 24
714.098381
 34
0.0
100
AcDbRotatedDimension
  0
LINE
  5
111
100
AcDbEntity
  8
V0-VYPLNĚ
  6
DASHDOT
100
AcDbLine
 10
342.394083
 20
384.098381
 30
0.0
 11
782.816858
 21
384.098381
 31
0.0
  0
LINE
  5
112
100
AcDbEntity
  8
V0-VYPLNĚ
  6
DASHDOT
 48
3.0
100
AcDbLine
 10
342.394083
 20
384.098381
 30
0.0
 11
782.816858
 21
384.098381
 31
0.0
  0
LINE
  5
14C
100
AcDbEntity
  8
V0-VYPLNĚ
  6
DASHDOT
 48
3.0
100
AcDbLine
 10
-313.011292
 20
-281.18234
 30
0.0
 11
205.238244
 21
-281.18234
 31
0.0
  0
LINE
  5
16E
100
AcDbEntity
  8
V0-OBRYS
  6
DASHDOT
100
AcDbLine
 10
122.047029
 20
-281.18234
 30
0.0
 11
122.047029
 21
-75.115203
 31
0.0
  0
LINE
  5
16F
100
AcDbEntity
  8
V0-OBRYS
100
AcDbLine
 10
122.047029
 20
-31.18234
 30
0.0
 11
122.047029
 21
-281.18234
 31
0.0
  0
LINE
  5
170
100
AcDbEntity
  8
V0-OBRYS
100
AcDbLine
 10
-277.952971
 20
-281.18234
 30
0.0
 11
-277.952971
 21
-31.18234
 31
0.0
  0
LINE
  5
171
100
AcDbEntity
  8
V0-OBRYS
100
AcDbLine
 10
-227.952971
 20
-31.18234
 30
0.0
 11
-227.952971
 21
-531.18234
 31
0.0
  0
LINE
  5
172
100
AcDbEntity
  8
V0-OBRYS
100
AcDbLine
 10
72.047029
 20
-31.18234
 30
0.0
 11
72.047029
 21
-531.18234
 31
0.0
  0
LINE
  5
173
100
AcDbEntity
  8
V0-OBRYS
100
AcDbLine
 10
-217.952971
 20
-31.18234
 30
0.0
 11
-217.952971
 21
-531.18234
 31
0.0
  0
LINE
  5
174
100
AcDbEntity
  8
V0-OBRYS
100
AcDbLine
 10
62.047029
 20
-31.18234
 30
0.0
 11
62.047029
 21
-531.18234
 31
0.0
  0
LINE
  5
176
100
AcDbEntity
  8
V0-OBRYS
100
AcDbLine
 10
-217.952971
 20
-531.18234
 30
0.0
 11
62.047029
 21
-531.18234
 31
0.0
  0
LINE
  5
177
100
AcDbEntity
  8
V0-OBRYS
100
AcDbLine
 10
-277.952971
 20
-281.18234
 30
0.0
 11
-277.952971
 21
-531.18234
 31
0.0
  0
LINE
  5
178
100
AcDbEntity
  8
V0-OBRYS
100
AcDbLine
 10
-277.952971
 20
-531.18234
 30
0.0
 11
-227.952971
 21
-531.18234
 31
0.0
  0
ARC
  5
179
100
AcDbEntity
  8
V0-OBRYS
100
AcDbCircle
 10
-222.952971
 20
-530.045766
 30
0.0
 40
5.127553
100
AcDbArc
 50
192.806557
 51
347.193443
  0
POINT
  5
17A
100
AcDbEntity
  8
V0-OBRYS
100
AcDbPoint
 10
-227.952971
 20
-281.18234
 30
0.0
  0
POINT
  5
17B
100
AcDbEntity
  8
V0-OBRYS
100
AcDbPoint
 10
-227.952971
 20
-281.18234
 30
0.0
  0
LINE
  5
17C
100
AcDbEntity
  8
V0-OBRYS
100
AcDbLine
 10
122.047029
 20
-531.18234
 30
0.0
 11
122.047029
 21
-281.18234
 31
0.0
  0
LINE
  5
17D
100
AcDbEntity
  8
V0-OBRYS
100
AcDbLine
 10
72.047029
 20
-531.18234
 30
0.0
 11
122.047029
 21
-531.18234
 31
0.0
  0
ARC
  5
17E
100
AcDbEntity
  8
V0-OBRYS
100
AcDbCircle
 10
67.047029
 20
-530.045766
 30
0.0
 40
5.127553
100
AcDbArc
 50
192.806557
 51
347.193443
  0
LINE
  5
17F
100
AcDbEntity
  8
V0-OBRYS
100
AcDbLine
 10
-277.952971
 20
-31.18234
 30
0.0
 11
-227.952971
 21
-31.18234
 31
0.0
  0
ARC
  5
180
100
AcDbEntity
  8
V0-OBRYS
100
AcDbCircle
 10
-222.952971
 20
-32.318914
 30
0.0
 40
5.127553
100
AcDbArc
 50
4.223503
 51
167.193443
  0
LINE
  5
181
100
AcDbEntity
  8
V0-OBRYS
100
AcDbLine
 10
72.047029
 20
-31.18234
 30
0.0
 11
122.047029
 21
-31.18234
 31
0.0
  0
ARC
  5
182
100
AcDbEntity
  8
V0-OBRYS
100
AcDbCircle
 10
67.047029
 20
-32.318914
 30
0.0
 40
5.127553
100
AcDbArc
 50
4.223503
 51
167.193443
  0
MTEXT
  5
189
100
AcDbEntity
  8
V0-ZBYTEK
  6
CONTINUOUS
100
AcDbMText
 10
363.442231
 20
-203.401296
 30
0.0
 40
30.0
 41
641.1844
 71
     1
 72
     5
  1
\C4;ELEKTRICKE OHRIVACE\PPRO KRUHOVA POTRUBI
  7
ED25
  0
LINE
  5
192
100
AcDbEntity
  8
V0-OBRYS
  6
CONTINUOUS
100
AcDbLine
 10
-207.839342
 20
633.339438
 30
0.0
 11
-207.839342
 21
590.489116
 31
0.0
  0
LINE
  5
193
100
AcDbEntity
  8
V0-OBRYS
  6
CONTINUOUS
100
AcDbLine
 10
52.047029
 20
634.098381
 30
0.0
 11
52.047029
 21
590.489116
 31
0.0
  0
LINE
  5
194
100
AcDbEntity
  8
V0-OBRYS
  6
CONTINUOUS
100
AcDbLine
 10
-217.952971
 20
634.098381
 30
0.0
 11
-207.839342
 21
634.098381
 31
0.0
  0
LINE
  5
195
100
AcDbEntity
  8
V0-OBRYS
  6
CONTINUOUS
100
AcDbLine
 10
62.047029
 20
634.098381
 30
0.0
 11
52.047029
 21
634.098381
 31
0.0
  0
POINT
  5
198
100
AcDbEntity
  8
V0-VYPLNĚ
  6
CONTINUOUS
100
AcDbPoint
 10
-227.952971
 20
384.098381
 30
0.0
  0
TEXT
  5
1A4
100
AcDbEntity
  8
V0-NAZVY
  6
CONTINUOUS
100
AcDbText
 10
416.471358
 20
-119.995236
 30
0.0
 40
50.0
  1
MBE - 500
  7
ED25
100
AcDbText
  0
POINT
  5
1B5
100
AcDbEntity
  8
V0-VYPLNĚ
  6
CONTINUOUS
100
AcDbPoint
 10
-227.952971
 20
-281.18234
 30
0.0
  0
POINT
  5
1B6
100
AcDbEntity
  8
V0-VYPLNĚ
  6
CONTINUOUS
100
AcDbPoint
 10
567.31782
 20
384.098381
 30
0.0
  0
LINE
  5
1B8
100
AcDbEntity
  8
V0-OBRYS
  6
CONTINUOUS
100
AcDbLine
 10
-217.839342
 20
-31.941283
 30
0.0
 11
62.047029
 21
-31.941283
 31
0.0
  0
LINE
  5
1BD
100
AcDbEntity
  8
V0-OBRYS
  6
CONTINUOUS
100
AcDbLine
 10
-204.839342
 20
-39.941283
 30
0.0
 11
47.9498
 21
-39.941283
 31
0.0
  0
LINE
  5
1BE
100
AcDbEntity
  8
V0-OBRYS
  6
CONTINUOUS
100
AcDbLine
 10
52.9498
 20
-44.941283
 30
0.0
 11
52.9498
 21
-517.623731
 31
0.0
  0
LINE
  5
1BF
100
AcDbEntity
  8
V0-OBRYS
  6
CONTINUOUS
100
AcDbLine
 10
47.9498
 20
-522.623731
 30
0.0
 11
-204.839342
 21
-522.623731
 31
0.0
  0
LINE
  5
1C0
100
AcDbEntity
  8
V0-OBRYS
  6
CONTINUOUS
100
AcDbLine
 10
-209.839342
 20
-517.623731
 30
0.0
 11
-209.839342
 21
-44.941283
 31
0.0
  0
ARC
  5
1C1
100
AcDbEntity
  8
V0-OBRYS
  6
CONTINUOUS
100
AcDbCircle
 10
-204.839342
 20
-44.941283
 30
0.0
 40
5.0
100
AcDbArc
 50
90.0
 51
180.0
  0
ARC
  5
1C2
100
AcDbEntity
  8
V0-OBRYS
  6
CONTINUOUS
100
AcDbCircle
 10
47.9498
 20
-44.941283
 30
0.0
 40
5.0
100
AcDbArc
 50
0.0
 51
90.0
  0
ARC
  5
1C3
100
AcDbEntity
  8
V0-OBRYS
  6
CONTINUOUS
100
AcDbCircle
 10
47.9498
 20
-517.623731
 30
0.0
 40
5.0
100
AcDbArc
 50
270.0
 51
0.0
  0
ARC
  5
1C4
100
AcDbEntity
  8
V0-OBRYS
  6
CONTINUOUS
100
AcDbCircle
 10
-204.839342
 20
-517.623731
 30
0.0
 40
5.0
100
AcDbArc
 50
180.0
 51
270.0
  0
DIMENSION
  5
1FC
100
AcDbEntity
  8
V0-VYPLNĚ
  6
CONTINUOUS
 62
    41
100
AcDbDimension
  2
*D4
 10
-376.325648
 20
134.098381
 30
0.0
 11
-393.825648
 21
384.098381
 31
0.0
 70
    32
  1
%%c<>
  3
ED25
100
AcDbAlignedDimension
 13
-277.952971
 23
634.098381
 33
0.0
 14
-277.952971
 24
134.098381
 34
0.0
 50
90.0
100
AcDbRotatedDimension
  0
DIMENSION
  5
209
100
AcDbEntity
  8
V0-VYPLNĚ
  6
CONTINUOUS
 62
    41
100
AcDbDimension
  2
*D1
 10
253.178189
 20
134.098381
 30
0.0
 11
235.678189
 21
424.098381
 31
0.0
 70
    32
  3
ED25
100
AcDbAlignedDimension
 13
62.047029
 23
714.098381
 33
0.0
 14
122.047029
 24
134.098381
 34
0.0
 50
90.0
100
AcDbRotatedDimension
  0
TEXT
  5
20A
100
AcDbEntity
  8
V0-NAZVY
  6
CONTINUOUS
100
AcDbText
 10
490.031113
 20
659.867549
 30
0.0
 40
25.0
  1
MBE - 500
  7
ED25
100
AcDbText
  0
TEXT
  5
20B
100
AcDbEntity
  8
V0-NAZVY
  6
CONTINUOUS
100
AcDbText
 10
-162.078197
 20
651.838625
 30
0.0
 40
25.0
  1
MBE - 500
  7
ED25
100
AcDbText
  0
TEXT
  5
20C
100
AcDbEntity
  8
V0-NAZVY
  6
CONTINUOUS
100
AcDbText
 10
-162.078197
 20
-113.610711
 30
0.0
 40
25.0
  1
MBE - 500
  7
ED25
100
AcDbText
  0
DIMENSION
  5
374
100
AcDbEntity
  8
V0-OBRYS
  6
CONTINUOUS
100
AcDbDimension
  2
*D6
 10
902.688663
 20
714.098381
 30
0.0
 11
885.188663
 21
581.598381
 31
0.0
 12
0.0
 22
87.5
 32
0.0
 70
    32
  3
ED25
100
AcDbAlignedDimension
 13
567.31782
 23
634.098381
 33
0.0
 14
567.31782
 24
714.098381
 34
0.0
 50
90.0
100
AcDbRotatedDimension
  0
DIMENSION
  5
392
100
AcDbEntity
  8
V0-OBRYS
  6
CONTINUOUS
100
AcDbDimension
  2
*D7
 10
-227.952971
 20
72.838196
 30
0.0
 11
-252.952971
 21
182.838196
 31
0.0
 12
0.0
 22
-92.5
 32
0.0
 70
    32
  3
ED25
100
AcDbAlignedDimension
 13
-277.952971
 23
134.098381
 33
0.0
 14
-227.952971
 24
134.098381
 34
0.0
100
AcDbRotatedDimension
  0
LINE
  5
4A8
100
AcDbEntity
  8
V0-OBRYS
  6
CONTINUOUS
100
AcDbLine
 10
52.047029
 20
590.489116
 30
0.0
 11
-207.839342
 21
590.489116
 31
0.0
  0
ENDSEC
  0
SECTION
  2
OBJECTS
  0
DICTIONARY
  5
C
100
AcDbDictionary
  3
ACAD_GROUP
350
D
  3
ACAD_MLINESTYLE
350
1B
  0
DICTIONARY
  5
D
102
{ACAD_REACTORS
330
C
102
}
100
AcDbDictionary
  0
DICTIONARY
  5
1B
102
{ACAD_REACTORS
330
C
102
}
100
AcDbDictionary
  3
STANDARD
350
1C
  0
MLINESTYLE
  5
1C
102
{ACAD_REACTORS
330
1B
102
}
100
AcDbMlineStyle
  2
STANDARD
 70
     0
  3

 62
   256
 51
90.0
 52
90.0
 71
     2
 49
0.5
 62
   256
  6
BYLAYER
 49
-0.5
 62
   256
  6
BYLAYER
  0
ENDSEC
  0
EOF
