  0
SECTION
  2
HEADER
  9
$ACADVER
  1
AC1014
  9
$ACADMAINTVER
 70
     0
  9
$DWGCODEPAGE
  3
ANSI_1250
  9
$INSBASE
 10
0.0
 20
0.0
 30
0.0
  9
$EXTMIN
 10
-858.110461
 20
-429.371198
 30
0.0
  9
$EXTMAX
 10
-53.315916
 20
103.792927
 30
0.0
  9
$LIMMIN
 10
-1040.805314
 20
-347.068924
  9
$LIMMAX
 10
643.686187
 20
495.293187
  9
$ORTHOMODE
 70
     1
  9
$REGENMODE
 70
     1
  9
$FILLMODE
 70
     1
  9
$QTEXTMODE
 70
     0
  9
$MIRRTEXT
 70
     1
  9
$DRAGMODE
 70
     2
  9
$LTSCALE
 40
15.0
  9
$OSMODE
 70
  1023
  9
$ATTMODE
 70
     1
  9
$TEXTSIZE
 40
15.0
  9
$TRACEWID
 40
2.0
  9
$TEXTSTYLE
  7
STANDARD
  9
$CLAYER
  8
V0-VYPLNE
  9
$CELTYPE
  6
BYLAYER
  9
$CECOLOR
 62
   256
  9
$CELTSCALE
 40
2.0
  9
$DELOBJ
 70
     1
  9
$DISPSILH
 70
     0
  9
$DIMSCALE
 40
0.0
  9
$DIMASZ
 40
20.0
  9
$DIMEXO
 40
0.0625
  9
$DIMDLI
 40
0.38
  9
$DIMRND
 40
0.0
  9
$DIMDLE
 40
0.0
  9
$DIMEXE
 40
0.18
  9
$DIMTP
 40
0.0
  9
$DIMTM
 40
0.0
  9
$DIMTXT
 40
20.0
  9
$DIMCEN
 40
0.0
  9
$DIMTSZ
 40
0.0
  9
$DIMTOL
 70
     0
  9
$DIMLIM
 70
     0
  9
$DIMTIH
 70
     0
  9
$DIMTOH
 70
     0
  9
$DIMSE1
 70
     0
  9
$DIMSE2
 70
     0
  9
$DIMTAD
 70
     1
  9
$DIMZIN
 70
     0
  9
$DIMBLK
  1

  9
$DIMASO
 70
     1
  9
$DIMSHO
 70
     1
  9
$DIMPOST
  1

  9
$DIMAPOST
  1

  9
$DIMALT
 70
     0
  9
$DIMALTD
 70
     2
  9
$DIMALTF
 40
25.4
  9
$DIMLFAC
 40
1.0
  9
$DIMTOFL
 70
     0
  9
$DIMTVP
 40
0.0
  9
$DIMTIX
 70
     0
  9
$DIMSOXD
 70
     0
  9
$DIMSAH
 70
     1
  9
$DIMBLK1
  1
_OPEN
  9
$DIMBLK2
  1
_OPEN
  9
$DIMSTYLE
  2
STANDARD
  9
$DIMCLRD
 70
     0
  9
$DIMCLRE
 70
     0
  9
$DIMCLRT
 70
     0
  9
$DIMTFAC
 40
1.0
  9
$DIMGAP
 40
3.0
  9
$DIMJUST
 70
     0
  9
$DIMSD1
 70
     0
  9
$DIMSD2
 70
     0
  9
$DIMTOLJ
 70
     1
  9
$DIMTZIN
 70
     0
  9
$DIMALTZ
 70
     0
  9
$DIMALTTZ
 70
     0
  9
$DIMFIT
 70
     0
  9
$DIMUPT
 70
     0
  9
$DIMUNIT
 70
     2
  9
$DIMDEC
 70
     0
  9
$DIMTDEC
 70
     4
  9
$DIMALTU
 70
     2
  9
$DIMALTTD
 70
     2
  9
$DIMTXSTY
  7
STANDARD
  9
$DIMAUNIT
 70
     0
  9
$LUNITS
 70
     2
  9
$LUPREC
 70
     4
  9
$SKETCHINC
 40
1.0
  9
$FILLETRAD
 40
3.0
  9
$AUNITS
 70
     0
  9
$AUPREC
 70
     0
  9
$MENU
  1
.
  9
$ELEVATION
 40
0.0
  9
$PELEVATION
 40
0.0
  9
$THICKNESS
 40
0.0
  9
$LIMCHECK
 70
     0
  9
$BLIPMODE
 70
     1
  9
$CHAMFERA
 40
10.0
  9
$CHAMFERB
 40
10.0
  9
$CHAMFERC
 40
20.0
  9
$CHAMFERD
 40
0.0
  9
$SKPOLY
 70
     0
  9
$TDCREATE
 40
2450763.421427893
  9
$TDUPDATE
 40
2453315.459313113
  9
$TDINDWG
 40
1.5110536574
  9
$TDUSRTIMER
 40
1.5110536574
  9
$USRTIMER
 70
     1
  9
$ANGBASE
 50
0.0
  9
$ANGDIR
 70
     0
  9
$PDMODE
 70
     3
  9
$PDSIZE
 40
15.0
  9
$PLINEWID
 40
0.0
  9
$COORDS
 70
     2
  9
$SPLFRAME
 70
     0
  9
$SPLINETYPE
 70
     6
  9
$SPLINESEGS
 70
     8
  9
$ATTDIA
 70
     0
  9
$ATTREQ
 70
     1
  9
$HANDLING
 70
     1
  9
$HANDSEED
  5
33AC
  9
$SURFTAB1
 70
     6
  9
$SURFTAB2
 70
     6
  9
$SURFTYPE
 70
     6
  9
$SURFU
 70
     6
  9
$SURFV
 70
     6
  9
$UCSNAME
  2

  9
$UCSORG
 10
-545.0
 20
-505.8606538708551
 30
0.0
  9
$UCSXDIR
 10
1.0
 20
0.0
 30
0.0
  9
$UCSYDIR
 10
0.0
 20
1.0
 30
0.0
  9
$PUCSNAME
  2

  9
$PUCSORG
 10
0.0
 20
0.0
 30
0.0
  9
$PUCSXDIR
 10
1.0
 20
0.0
 30
0.0
  9
$PUCSYDIR
 10
0.0
 20
1.0
 30
0.0
  9
$USERI1
 70
     0
  9
$USERI2
 70
     0
  9
$USERI3
 70
     0
  9
$USERI4
 70
     0
  9
$USERI5
 70
     0
  9
$USERR1
 40
0.0
  9
$USERR2
 40
0.0
  9
$USERR3
 40
0.0
  9
$USERR4
 40
0.0
  9
$USERR5
 40
0.0
  9
$WORLDVIEW
 70
     1
  9
$SHADEDGE
 70
     3
  9
$SHADEDIF
 70
    70
  9
$TILEMODE
 70
     1
  9
$MAXACTVP
 70
    16
  9
$PINSBASE
 10
0.0
 20
0.0
 30
0.0
  9
$PLIMCHECK
 70
     0
  9
$PEXTMIN
 10
131.177948
 20
159.528081
 30
0.0
  9
$PEXTMAX
 10
254.393018
 20
159.528081
 30
0.0
  9
$PLIMMIN
 10
0.0
 20
0.0
  9
$PLIMMAX
 10
420.0
 20
297.0
  9
$UNITMODE
 70
     0
  9
$VISRETAIN
 70
     0
  9
$PLINEGEN
 70
     0
  9
$PSLTSCALE
 70
     0
  9
$TREEDEPTH
 70
  3020
  9
$PICKSTYLE
 70
     1
  9
$CMLSTYLE
  2
STANDARD
  9
$CMLJUST
 70
     0
  9
$CMLSCALE
 40
1.0
  9
$PROXYGRAPHICS
 70
     1
  9
$MEASUREMENT
 70
     1
  0
ENDSEC
  0
SECTION
  2
CLASSES
  0
CLASS
  1
LWPOLYLINE
  2
AcDbPolyline
  3
"AutoCAD"
 90
        0
280
     0
281
     1
  0
CLASS
  1
DICTIONARYVAR
  2
AcDbDictionaryVar
  3
"AutoCAD"
 90
        0
280
     0
281
     0
  0
CLASS
  1
HATCH
  2
AcDbHatch
  3
"ACAD_SEDONA"
 90
        0
280
     0
281
     1
  0
ENDSEC
  0
SECTION
  2
TABLES
  0
TABLE
  2
VPORT
  5
8
100
AcDbSymbolTable
 70
     2
  0
VPORT
  5
33AB
100
AcDbSymbolTableRecord
100
AcDbViewportTableRecord
  2
*ACTIVE
 70
     0
 10
0.0
 20
0.0
 11
1.0
 21
1.0
 12
-459.231095
 22
-134.664631
 13
0.0
 23
0.0
 14
5.0
 24
5.0
 15
50.0
 25
50.0
 16
0.0
 26
0.0
 36
1.0
 17
0.0
 27
0.0
 37
0.0
 40
671.021132
 41
1.523346
 42
50.0
 43
0.0
 44
0.0
 50
0.0
 51
0.0
 71
     0
 72
   100
 73
     1
 74
     0
 75
     0
 76
     0
 77
     0
 78
     1
  0
ENDTAB
  0
TABLE
  2
LTYPE
  5
5
100
AcDbSymbolTable
 70
     2
  0
LTYPE
  5
14
100
AcDbSymbolTableRecord
100
AcDbLinetypeTableRecord
  2
BYBLOCK
 70
     0
  3

 72
    65
 73
     0
 40
0.0
  0
LTYPE
  5
15
100
AcDbSymbolTableRecord
100
AcDbLinetypeTableRecord
  2
BYLAYER
 70
     0
  3

 72
    65
 73
     0
 40
0.0
  0
LTYPE
  5
16
100
AcDbSymbolTableRecord
100
AcDbLinetypeTableRecord
  2
CONTINUOUS
 70
     0
  3
Solid line
 72
    65
 73
     0
 40
0.0
  0
LTYPE
  5
492
100
AcDbSymbolTableRecord
100
AcDbLinetypeTableRecord
  2
DASHDOT
 70
     0
  3
__ . __ . __ . __ . __ . __ . __ . __ . __ . __
 72
    65
 73
     4
 40
1.0
 49
0.5
 74
     0
 49
-0.25
 74
     0
 49
0.0
 74
     0
 49
-0.25
 74
     0
  0
ENDTAB
  0
TABLE
  2
LAYER
  5
2
100
AcDbSymbolTable
 70
     7
  0
LAYER
  5
F
100
AcDbSymbolTableRecord
100
AcDbLayerTableRecord
  2
0
 70
     0
 62
     7
  6
CONTINUOUS
  0
LAYER
  5
1538
100
AcDbSymbolTableRecord
100
AcDbLayerTableRecord
  2
KOTY
 70
     0
 62
     7
  6
CONTINUOUS
  0
LAYER
  5
1A22
100
AcDbSymbolTableRecord
100
AcDbLayerTableRecord
  2
DEFPOINTS
 70
     0
 62
     7
  6
CONTINUOUS
  0
LAYER
  5
327A
100
AcDbSymbolTableRecord
100
AcDbLayerTableRecord
  2
V0-OBRYS
 70
     0
 62
    90
  6
CONTINUOUS
  0
LAYER
  5
327B
100
AcDbSymbolTableRecord
100
AcDbLayerTableRecord
  2
V0-VYPLNE
 70
     0
 62
    52
  6
CONTINUOUS
  0
LAYER
  5
327C
100
AcDbSymbolTableRecord
100
AcDbLayerTableRecord
  2
V0-NAZVY
 70
     0
 62
   210
  6
CONTINUOUS
  0
LAYER
  5
327D
100
AcDbSymbolTableRecord
100
AcDbLayerTableRecord
  2
V0-ZBYTEK
 70
     0
 62
    51
  6
CONTINUOUS
  0
ENDTAB
  0
TABLE
  2
STYLE
  5
3
100
AcDbSymbolTable
 70
     2
  0
STYLE
  5
10
100
AcDbSymbolTableRecord
100
AcDbTextStyleTableRecord
  2
STANDARD
 70
     0
 40
0.0
 41
1.0
 50
0.0
 71
     0
 42
15.0
  3
ISOCP.shx
  4

  0
STYLE
  5
2F34
100
AcDbSymbolTableRecord
100
AcDbTextStyleTableRecord
  2
SIMPLEX
 70
     0
 40
0.0
 41
1.0
 50
0.0
 71
     0
 42
0.2
  3
SIMPLEX
  4

  0
ENDTAB
  0
TABLE
  2
VIEW
  5
6
100
AcDbSymbolTable
 70
     0
  0
ENDTAB
  0
TABLE
  2
UCS
  5
7
100
AcDbSymbolTable
 70
     0
  0
ENDTAB
  0
TABLE
  2
APPID
  5
9
100
AcDbSymbolTable
 70
     4
  0
APPID
  5
11
100
AcDbSymbolTableRecord
100
AcDbRegAppTableRecord
  2
ACAD
 70
     0
  0
APPID
  5
906
100
AcDbSymbolTableRecord
100
AcDbRegAppTableRecord
  2
CONTENTTABDATA
 70
     0
  0
APPID
  5
907
100
AcDbSymbolTableRecord
100
AcDbRegAppTableRecord
  2
CONTENTCURRENTTAB
 70
     0
  0
APPID
  5
908
100
AcDbSymbolTableRecord
100
AcDbRegAppTableRecord
  2
CONTENTBLOCKDESCRIPTION
 70
     0
  0
ENDTAB
  0
TABLE
  2
DIMSTYLE
  5
A
100
AcDbSymbolTable
 70
     1
  0
DIMSTYLE
105
1D
102
{ACAD_REACTORS
330
3119
330
3126
330
3133
330
314B
330
3193
330
31B8
102
}
100
AcDbSymbolTableRecord
100
AcDbDimStyleTableRecord
  2
STANDARD
 70
     0
  3

  4

  5

  6
_OPEN
  7
_OPEN
 40
5.0
 41
3.5
 42
0.0625
 43
0.38
 44
0.18
 45
0.0
 46
0.0
 47
0.0
 48
0.0
140
3.5
141
0.0
142
0.0
143
25.4
144
1.0
145
0.0
146
1.0
147
0.625
 71
     0
 72
     0
 73
     0
 74
     0
 75
     0
 76
     0
 77
     1
 78
     0
170
     0
171
     2
172
     0
173
     1
174
     0
175
     0
176
     0
177
     0
178
     0
270
     2
271
     0
272
     4
273
     2
274
     2
340
10
275
     0
280
     0
281
     0
282
     0
283
     1
284
     0
285
     0
286
     0
287
     0
288
     0
  0
ENDTAB
  0
TABLE
  2
BLOCK_RECORD
  5
1
100
AcDbSymbolTable
 70
     8
  0
BLOCK_RECORD
  5
1A
100
AcDbSymbolTableRecord
100
AcDbBlockTableRecord
  2
*MODEL_SPACE
  0
BLOCK_RECORD
  5
17
100
AcDbSymbolTableRecord
100
AcDbBlockTableRecord
  2
*PAPER_SPACE
  0
BLOCK_RECORD
  5
1A05
100
AcDbSymbolTableRecord
100
AcDbBlockTableRecord
  2
_OPEN
  0
BLOCK_RECORD
  5
310D
100
AcDbSymbolTableRecord
100
AcDbBlockTableRecord
  2
*D1
  0
BLOCK_RECORD
  5
311A
100
AcDbSymbolTableRecord
100
AcDbBlockTableRecord
  2
*D2
  0
BLOCK_RECORD
  5
3127
100
AcDbSymbolTableRecord
100
AcDbBlockTableRecord
  2
*D3
  0
BLOCK_RECORD
  5
313F
100
AcDbSymbolTableRecord
100
AcDbBlockTableRecord
  2
*D4
  0
BLOCK_RECORD
  5
3187
100
AcDbSymbolTableRecord
100
AcDbBlockTableRecord
  2
*D5
  0
BLOCK_RECORD
  5
31AC
100
AcDbSymbolTableRecord
100
AcDbBlockTableRecord
  2
*D6
  0
BLOCK_RECORD
  5
3285
100
AcDbSymbolTableRecord
100
AcDbBlockTableRecord
  2
ABBB
  0
ENDTAB
  0
ENDSEC
  0
SECTION
  2
BLOCKS
  0
BLOCK
  5
1B
100
AcDbEntity
  8
0
100
AcDbBlockBegin
  2
*MODEL_SPACE
 70
     0
 10
0.0
 20
0.0
 30
0.0
  3
*MODEL_SPACE
  1

  0
ENDBLK
  5
1C
100
AcDbEntity
  8
0
100
AcDbBlockEnd
  0
BLOCK
  5
18
100
AcDbEntity
 67
     1
  8
0
100
AcDbBlockBegin
  2
*PAPER_SPACE
 70
     0
 10
0.0
 20
0.0
 30
0.0
  3
*PAPER_SPACE
  1

  0
ENDBLK
  5
19
100
AcDbEntity
 67
     1
  8
0
100
AcDbBlockEnd
  0
BLOCK
  5
1A09
100
AcDbEntity
  8
0
100
AcDbBlockBegin
  2
_OPEN
 70
     0
 10
0.0
 20
0.0
 30
0.0
  3
_OPEN
  1

  0
LINE
  5
1A06
100
AcDbEntity
  8
0
  6
BYBLOCK
 62
     0
100
AcDbLine
 10
-1.0
 20
0.166667
 30
0.0
 11
0.0
 21
0.0
 31
0.0
  0
LINE
  5
1A07
100
AcDbEntity
  8
0
  6
BYBLOCK
 62
     0
100
AcDbLine
 10
0.0
 20
0.0
 30
0.0
 11
-1.0
 21
-0.166667
 31
0.0
  0
LINE
  5
1A08
100
AcDbEntity
  8
0
  6
BYBLOCK
 62
     0
100
AcDbLine
 10
0.0
 20
0.0
 30
0.0
 11
-1.0
 21
0.0
 31
0.0
  0
ENDBLK
  5
1A0A
100
AcDbEntity
  8
0
100
AcDbBlockEnd
  0
BLOCK
  5
319F
100
AcDbEntity
  8
0
 48
2.0
100
AcDbBlockBegin
  2
*D1
 70
     1
 10
0.0
 20
0.0
 30
0.0
  3
*D1
  1

  0
LINE
  5
31A0
100
AcDbEntity
  8
0
  6
BYBLOCK
 62
     0
 48
2.0
100
AcDbLine
 10
-818.110461
 20
-105.368701
 30
0.0
 11
-818.110461
 21
-224.707984
 31
0.0
  0
LINE
  5
31A1
100
AcDbEntity
  8
0
  6
BYBLOCK
 62
     0
 48
2.0
100
AcDbLine
 10
-438.110461
 20
-105.368701
 30
0.0
 11
-438.110461
 21
-224.707984
 31
0.0
  0
LINE
  5
31A2
100
AcDbEntity
  8
0
  6
BYBLOCK
 62
     0
 48
2.0
100
AcDbLine
 10
-798.110461
 20
-224.527984
 30
0.0
 11
-458.110461
 21
-224.527984
 31
0.0
  0
INSERT
  5
31A3
100
AcDbEntity
  8
0
  6
BYBLOCK
 62
     0
 48
2.0
100
AcDbBlockReference
  2
_OPEN
 10
-818.110461
 20
-224.527984
 30
0.0
 41
20.0
 42
20.0
 43
20.0
 50
180.0
  0
INSERT
  5
31A4
100
AcDbEntity
  8
0
  6
BYBLOCK
 62
     0
 48
2.0
100
AcDbBlockReference
  2
_OPEN
 10
-438.110461
 20
-224.527984
 30
0.0
 41
20.0
 42
20.0
 43
20.0
  0
MTEXT
  5
31A5
100
AcDbEntity
  8
0
  6
BYBLOCK
 62
     0
 48
2.0
100
AcDbMText
 10
-628.110461
 20
-211.527984
 30
0.0
 40
20.0
 41
0.0
 71
     5
 72
     1
  1
\A1;380
  0
POINT
  5
31A6
100
AcDbEntity
  8
DEFPOINTS
  6
BYBLOCK
 62
     0
 48
2.0
100
AcDbPoint
 10
-818.110461
 20
-105.306201
 30
0.0
  0
POINT
  5
31A7
100
AcDbEntity
  8
DEFPOINTS
  6
BYBLOCK
 62
     0
 48
2.0
100
AcDbPoint
 10
-438.110461
 20
-105.306201
 30
0.0
  0
POINT
  5
31A8
100
AcDbEntity
  8
DEFPOINTS
  6
BYBLOCK
 62
     0
 48
2.0
100
AcDbPoint
 10
-438.110461
 20
-224.527984
 30
0.0
  0
ENDBLK
  5
31A9
100
AcDbEntity
  8
0
 48
2.0
100
AcDbBlockEnd
  0
BLOCK
  5
31D3
100
AcDbEntity
  8
0
 48
2.0
100
AcDbBlockBegin
  2
*D2
 70
     1
 10
0.0
 20
0.0
 30
0.0
  3
*D2
  1

  0
LINE
  5
31D4
100
AcDbEntity
  8
0
  6
BYBLOCK
 62
     0
 48
2.0
100
AcDbLine
 10
-473.047961
 20
57.193799
 30
0.0
 11
-358.706292
 21
57.193799
 31
0.0
  0
LINE
  5
31D5
100
AcDbEntity
  8
0
  6
BYBLOCK
 62
     0
 48
2.0
100
AcDbLine
 10
-478.047961
 20
-167.806201
 30
0.0
 11
-358.706292
 21
-167.806201
 31
0.0
  0
LINE
  5
31D6
100
AcDbEntity
  8
0
  6
BYBLOCK
 62
     0
 48
2.0
100
AcDbLine
 10
-358.886292
 20
37.193799
 30
0.0
 11
-358.886292
 21
-147.806201
 31
0.0
  0
INSERT
  5
31D7
100
AcDbEntity
  8
0
  6
BYBLOCK
 62
     0
 48
2.0
100
AcDbBlockReference
  2
_OPEN
 10
-358.886292
 20
57.193799
 30
0.0
 41
20.0
 42
20.0
 43
20.0
 50
90.0
  0
INSERT
  5
31D8
100
AcDbEntity
  8
0
  6
BYBLOCK
 62
     0
 48
2.0
100
AcDbBlockReference
  2
_OPEN
 10
-358.886292
 20
-167.806201
 30
0.0
 41
20.0
 42
20.0
 43
20.0
 50
270.0
  0
MTEXT
  5
31D9
100
AcDbEntity
  8
0
  6
BYBLOCK
 62
     0
 48
2.0
100
AcDbMText
 10
-371.88826
 20
-55.306201
 30
0.0
 40
20.0
 41
0.0
 71
     5
 72
     1
  1
\A1;225
 11
0.0
 21
1.0
 31
0.0
  0
POINT
  5
31DA
100
AcDbEntity
  8
DEFPOINTS
  6
BYBLOCK
 62
     0
 48
2.0
100
AcDbPoint
 10
-473.110461
 20
57.193799
 30
0.0
  0
POINT
  5
31DB
100
AcDbEntity
  8
DEFPOINTS
  6
BYBLOCK
 62
     0
 48
2.0
100
AcDbPoint
 10
-478.110461
 20
-167.806201
 30
0.0
  0
POINT
  5
31DC
100
AcDbEntity
  8
DEFPOINTS
  6
BYBLOCK
 62
     0
 48
2.0
100
AcDbPoint
 10
-358.886292
 20
-167.806201
 30
0.0
  0
ENDBLK
  5
31DD
100
AcDbEntity
  8
0
 48
2.0
100
AcDbBlockEnd
  0
BLOCK
  5
3177
100
AcDbEntity
  8
0
 48
2.0
100
AcDbBlockBegin
  2
*D3
 70
     1
 10
0.0
 20
0.0
 30
0.0
  3
*D3
  1

  0
LINE
  5
3178
100
AcDbEntity
  8
0
  6
BYBLOCK
 62
     0
 48
2.0
100
AcDbLine
 10
-438.047961
 20
-5.306201
 30
0.0
 11
-393.571233
 21
-5.306201
 31
0.0
  0
LINE
  5
3179
100
AcDbEntity
  8
0
  6
BYBLOCK
 62
     0
 48
2.0
100
AcDbLine
 10
-438.047961
 20
-105.368701
 30
0.0
 11
-393.571233
 21
-105.368701
 31
0.0
  0
LINE
  5
317A
100
AcDbEntity
  8
0
  6
BYBLOCK
 62
     0
 48
2.0
100
AcDbLine
 10
-393.751233
 20
-25.306201
 30
0.0
 11
-393.751233
 21
-85.368701
 31
0.0
  0
INSERT
  5
317B
100
AcDbEntity
  8
0
  6
BYBLOCK
 62
     0
 48
2.0
100
AcDbBlockReference
  2
_OPEN
 10
-393.751233
 20
-5.306201
 30
0.0
 41
20.0
 42
20.0
 43
20.0
 50
90.0
  0
INSERT
  5
317C
100
AcDbEntity
  8
0
  6
BYBLOCK
 62
     0
 48
2.0
100
AcDbBlockReference
  2
_OPEN
 10
-393.751233
 20
-105.368701
 30
0.0
 41
20.0
 42
20.0
 43
20.0
 50
270.0
  0
MTEXT
  5
317D
100
AcDbEntity
  8
0
  6
BYBLOCK
 62
     0
 48
2.0
100
AcDbMText
 10
-406.751233
 20
-55.337451
 30
0.0
 40
20.0
 41
0.0
 71
     5
 72
     1
  1
\A1;\U+2205100
 11
0.0
 21
1.0
 31
0.0
  0
POINT
  5
317E
100
AcDbEntity
  8
DEFPOINTS
  6
BYBLOCK
 62
     0
 48
2.0
100
AcDbPoint
 10
-438.110461
 20
-5.306201
 30
0.0
  0
POINT
  5
317F
100
AcDbEntity
  8
DEFPOINTS
  6
BYBLOCK
 62
     0
 48
2.0
100
AcDbPoint
 10
-438.110461
 20
-105.368701
 30
0.0
  0
POINT
  5
3180
100
AcDbEntity
  8
DEFPOINTS
  6
BYBLOCK
 62
     0
 48
2.0
100
AcDbPoint
 10
-393.751233
 20
-105.368701
 30
0.0
  0
ENDBLK
  5
3181
100
AcDbEntity
  8
0
 48
2.0
100
AcDbBlockEnd
  0
BLOCK
  5
3161
100
AcDbEntity
  8
0
 48
2.0
100
AcDbBlockBegin
  2
*D4
 70
     1
 10
0.0
 20
0.0
 30
0.0
  3
*D4
  1

  0
LINE
  5
3162
100
AcDbEntity
  8
0
  6
BYBLOCK
 62
     0
 48
2.0
100
AcDbLine
 10
-259.610461
 20
-167.868701
 30
0.0
 11
-259.610461
 21
-205.64086
 31
0.0
  0
LINE
  5
3163
100
AcDbEntity
  8
0
  6
BYBLOCK
 62
     0
 48
2.0
100
AcDbLine
 10
-76.610461
 20
-167.868701
 30
0.0
 11
-76.610461
 21
-205.64086
 31
0.0
  0
LINE
  5
3164
100
AcDbEntity
  8
0
  6
BYBLOCK
 62
     0
 48
2.0
100
AcDbLine
 10
-239.610461
 20
-205.46086
 30
0.0
 11
-96.610461
 21
-205.46086
 31
0.0
  0
INSERT
  5
3165
100
AcDbEntity
  8
0
  6
BYBLOCK
 62
     0
 48
2.0
100
AcDbBlockReference
  2
_OPEN
 10
-259.610461
 20
-205.46086
 30
0.0
 41
20.0
 42
20.0
 43
20.0
 50
180.0
  0
INSERT
  5
3166
100
AcDbEntity
  8
0
  6
BYBLOCK
 62
     0
 48
2.0
100
AcDbBlockReference
  2
_OPEN
 10
-76.610461
 20
-205.46086
 30
0.0
 41
20.0
 42
20.0
 43
20.0
  0
MTEXT
  5
3167
100
AcDbEntity
  8
0
  6
BYBLOCK
 62
     0
 48
2.0
100
AcDbMText
 10
-168.110461
 20
-192.46086
 30
0.0
 40
20.0
 41
0.0
 71
     5
 72
     1
  1
\A1;183
  0
POINT
  5
3168
100
AcDbEntity
  8
DEFPOINTS
  6
BYBLOCK
 62
     0
 48
2.0
100
AcDbPoint
 10
-259.610461
 20
-167.806201
 30
0.0
  0
POINT
  5
3169
100
AcDbEntity
  8
DEFPOINTS
  6
BYBLOCK
 62
     0
 48
2.0
100
AcDbPoint
 10
-76.610461
 20
-167.806201
 30
0.0
  0
POINT
  5
316A
100
AcDbEntity
  8
DEFPOINTS
  6
BYBLOCK
 62
     0
 48
2.0
100
AcDbPoint
 10
-76.610461
 20
-205.46086
 30
0.0
  0
ENDBLK
  5
316B
100
AcDbEntity
  8
0
 48
2.0
100
AcDbBlockEnd
  0
BLOCK
  5
31C7
100
AcDbEntity
  8
0
 48
2.0
100
AcDbBlockBegin
  2
*D5
 70
     1
 10
0.0
 20
0.0
 30
0.0
  3
*D5
  1

  0
LINE
  5
31C8
100
AcDbEntity
  8
0
  6
BYBLOCK
 62
     0
 48
2.0
100
AcDbLine
 10
-818.110461
 20
-124.548865
 30
0.0
 11
-818.110461
 21
-196.357572
 31
0.0
  0
LINE
  5
31C9
100
AcDbEntity
  8
0
  6
BYBLOCK
 62
     0
 48
2.0
100
AcDbLine
 10
-778.110461
 20
-151.425718
 30
0.0
 11
-778.110461
 21
-196.357572
 31
0.0
  0
LINE
  5
31CA
100
AcDbEntity
  8
0
  6
BYBLOCK
 62
     0
 48
2.0
100
AcDbLine
 10
-838.110461
 20
-196.177572
 30
0.0
 11
-858.110461
 21
-196.177572
 31
0.0
  0
LINE
  5
31CB
100
AcDbEntity
  8
0
  6
BYBLOCK
 62
     0
 48
2.0
100
AcDbLine
 10
-758.110461
 20
-196.177572
 30
0.0
 11
-738.110461
 21
-196.177572
 31
0.0
  0
INSERT
  5
31CC
100
AcDbEntity
  8
0
  6
BYBLOCK
 62
     0
 48
2.0
100
AcDbBlockReference
  2
_OPEN
 10
-818.110461
 20
-196.177572
 30
0.0
 41
20.0
 42
20.0
 43
20.0
  0
INSERT
  5
31CD
100
AcDbEntity
  8
0
  6
BYBLOCK
 62
     0
 48
2.0
100
AcDbBlockReference
  2
_OPEN
 10
-778.110461
 20
-196.177572
 30
0.0
 41
20.0
 42
20.0
 43
20.0
 50
180.0
  0
MTEXT
  5
31CE
100
AcDbEntity
  8
0
  6
BYBLOCK
 62
     0
 48
2.0
100
AcDbMText
 10
-798.110461
 20
-183.177572
 30
0.0
 40
20.0
 41
0.0
 71
     5
 72
     1
  1
\A1;40
  0
POINT
  5
31CF
100
AcDbEntity
  8
DEFPOINTS
  6
BYBLOCK
 62
     0
 48
2.0
100
AcDbPoint
 10
-818.110461
 20
-124.486365
 30
0.0
  0
POINT
  5
31D0
100
AcDbEntity
  8
DEFPOINTS
  6
BYBLOCK
 62
     0
 48
2.0
100
AcDbPoint
 10
-778.110461
 20
-151.363218
 30
0.0
  0
POINT
  5
31D1
100
AcDbEntity
  8
DEFPOINTS
  6
BYBLOCK
 62
     0
 48
2.0
100
AcDbPoint
 10
-778.110461
 20
-196.177572
 30
0.0
  0
ENDBLK
  5
31D2
100
AcDbEntity
  8
0
 48
2.0
100
AcDbBlockEnd
  0
BLOCK
  5
31AD
100
AcDbEntity
  8
0
 48
2.0
100
AcDbBlockBegin
  2
*D6
 70
     1
 10
0.0
 20
0.0
 30
0.0
  3
*D6
  1

  0
LINE
  5
31AE
100
AcDbEntity
  8
0
  6
BYBLOCK
 62
     0
 48
2.0
100
AcDbLine
 10
-238.110461
 20
43.671719
 30
0.0
 11
-238.110461
 21
81.965053
 31
0.0
  0
LINE
  5
31AF
100
AcDbEntity
  8
0
  6
BYBLOCK
 62
     0
 48
2.0
100
AcDbLine
 10
-98.110461
 20
43.671719
 30
0.0
 11
-98.110461
 21
81.965053
 31
0.0
  0
LINE
  5
31B0
100
AcDbEntity
  8
0
  6
BYBLOCK
 62
     0
 48
2.0
100
AcDbLine
 10
-218.110461
 20
81.785053
 30
0.0
 11
-118.110461
 21
81.785053
 31
0.0
  0
INSERT
  5
31B1
100
AcDbEntity
  8
0
  6
BYBLOCK
 62
     0
 48
2.0
100
AcDbBlockReference
  2
_OPEN
 10
-238.110461
 20
81.785053
 30
0.0
 41
20.0
 42
20.0
 43
20.0
 50
180.0
  0
INSERT
  5
31B2
100
AcDbEntity
  8
0
  6
BYBLOCK
 62
     0
 48
2.0
100
AcDbBlockReference
  2
_OPEN
 10
-98.110461
 20
81.785053
 30
0.0
 41
20.0
 42
20.0
 43
20.0
  0
MTEXT
  5
31B3
100
AcDbEntity
  8
0
  6
BYBLOCK
 62
     0
 48
2.0
100
AcDbMText
 10
-168.110461
 20
94.785053
 30
0.0
 40
20.0
 41
0.0
 71
     5
 72
     1
  1
\A1;140
  0
POINT
  5
31B4
100
AcDbEntity
  8
DEFPOINTS
  6
BYBLOCK
 62
     0
 48
2.0
100
AcDbPoint
 10
-238.110461
 20
43.609219
 30
0.0
  0
POINT
  5
31B5
100
AcDbEntity
  8
DEFPOINTS
  6
BYBLOCK
 62
     0
 48
2.0
100
AcDbPoint
 10
-98.110461
 20
43.609219
 30
0.0
  0
POINT
  5
31B6
100
AcDbEntity
  8
DEFPOINTS
  6
BYBLOCK
 62
     0
 48
2.0
100
AcDbPoint
 10
-98.110461
 20
81.785053
 30
0.0
  0
ENDBLK
  5
31B7
100
AcDbEntity
  8
0
 48
2.0
100
AcDbBlockEnd
  0
BLOCK
  5
3286
100
AcDbEntity
  8
0
 48
2.0
100
AcDbBlockBegin
  2
ABBB
 70
     0
 10
0.0
 20
0.0
 30
0.0
  3
ABBB
  1

  0
ENDBLK
  5
3287
100
AcDbEntity
  8
0
 48
2.0
100
AcDbBlockEnd
  0
ENDSEC
  0
SECTION
  2
ENTITIES
  0
LINE
  5
2FC4
100
AcDbEntity
  8
V0-OBRYS
  6
CONTINUOUS
 62
    90
100
AcDbLine
 10
-778.110461
 20
-167.806201
 30
0.0
 11
-778.110461
 21
-55.306201
 31
0.0
  0
LINE
  5
2FC5
100
AcDbEntity
  8
V0-OBRYS
  6
CONTINUOUS
 62
    90
100
AcDbLine
 10
-778.110461
 20
-167.806201
 30
0.0
 11
-478.110461
 21
-167.806201
 31
0.0
  0
LINE
  5
2FC6
100
AcDbEntity
  8
V0-OBRYS
  6
CONTINUOUS
 62
    90
100
AcDbLine
 10
-818.110461
 20
-55.306201
 30
0.0
 11
-818.110461
 21
-5.306201
 31
0.0
  0
LINE
  5
2FC7
100
AcDbEntity
  8
V0-OBRYS
  6
CONTINUOUS
 62
    90
100
AcDbLine
 10
-808.764659
 20
-55.306201
 30
0.0
 11
-808.764659
 21
-2.08583
 31
0.0
  0
LINE
  5
2FC8
100
AcDbEntity
  8
V0-OBRYS
  6
CONTINUOUS
 62
    90
100
AcDbLine
 10
-808.764659
 20
-2.08583
 30
0.0
 11
-803.979617
 21
-2.08583
 31
0.0
  0
LINE
  5
2FC9
100
AcDbEntity
  8
V0-OBRYS
  6
CONTINUOUS
 62
    90
100
AcDbLine
 10
-803.979617
 20
-2.08583
 30
0.0
 11
-803.979617
 21
-55.407108
 31
0.0
  0
LINE
  5
2FCA
100
AcDbEntity
  8
V0-OBRYS
  6
CONTINUOUS
 62
    90
100
AcDbLine
 10
-808.751529
 20
-5.306201
 30
0.0
 11
-818.110461
 21
-5.306201
 31
0.0
  0
LINE
  5
2FCB
100
AcDbEntity
  8
V0-OBRYS
  6
CONTINUOUS
 62
    90
100
AcDbLine
 10
-803.964214
 20
-5.306201
 30
0.0
 11
-778.110461
 21
-5.306201
 31
0.0
  0
LINE
  5
2FCC
100
AcDbEntity
  8
V0-OBRYS
  6
CONTINUOUS
 62
    90
100
AcDbLine
 10
-818.110461
 20
-55.306201
 30
0.0
 11
-818.110461
 21
-105.306201
 31
0.0
  0
LINE
  5
2FCD
100
AcDbEntity
  8
V0-OBRYS
  6
CONTINUOUS
 62
    90
100
AcDbLine
 10
-808.764659
 20
-55.306201
 30
0.0
 11
-808.764659
 21
-108.526572
 31
0.0
  0
LINE
  5
2FCE
100
AcDbEntity
  8
V0-OBRYS
  6
CONTINUOUS
 62
    90
100
AcDbLine
 10
-808.764659
 20
-108.526572
 30
0.0
 11
-803.979617
 21
-108.526572
 31
0.0
  0
LINE
  5
2FCF
100
AcDbEntity
  8
V0-OBRYS
  6
CONTINUOUS
 62
    90
100
AcDbLine
 10
-803.979617
 20
-108.526572
 30
0.0
 11
-803.979617
 21
-55.205294
 31
0.0
  0
LINE
  5
2FD0
100
AcDbEntity
  8
V0-OBRYS
  6
CONTINUOUS
 62
    90
100
AcDbLine
 10
-808.751529
 20
-105.306201
 30
0.0
 11
-818.110461
 21
-105.306201
 31
0.0
  0
LINE
  5
2FD1
100
AcDbEntity
  8
V0-OBRYS
  6
CONTINUOUS
 62
    90
100
AcDbLine
 10
-803.964214
 20
-105.306201
 30
0.0
 11
-778.110461
 21
-105.306201
 31
0.0
  0
LINE
  5
2FD2
100
AcDbEntity
  8
V0-OBRYS
  6
CONTINUOUS
 62
    90
100
AcDbLine
 10
-438.110461
 20
-55.306201
 30
0.0
 11
-438.110461
 21
-5.306201
 31
0.0
  0
LINE
  5
2FD3
100
AcDbEntity
  8
V0-OBRYS
  6
CONTINUOUS
 62
    90
100
AcDbLine
 10
-447.456256
 20
-55.306201
 30
0.0
 11
-447.456256
 21
-2.085838
 31
0.0
  0
LINE
  5
2FD4
100
AcDbEntity
  8
V0-OBRYS
  6
CONTINUOUS
 62
    90
100
AcDbLine
 10
-447.456256
 20
-2.085838
 30
0.0
 11
-452.241321
 21
-2.085838
 31
0.0
  0
LINE
  5
2FD5
100
AcDbEntity
  8
V0-OBRYS
  6
CONTINUOUS
 62
    90
100
AcDbLine
 10
-452.241321
 20
-2.085838
 30
0.0
 11
-452.241321
 21
-55.407107
 31
0.0
  0
LINE
  5
2FD6
100
AcDbEntity
  8
V0-OBRYS
  6
CONTINUOUS
 62
    90
100
AcDbLine
 10
-447.469409
 20
-5.306201
 30
0.0
 11
-438.110461
 21
-5.306201
 31
0.0
  0
LINE
  5
2FD7
100
AcDbEntity
  8
V0-OBRYS
  6
CONTINUOUS
 62
    90
100
AcDbLine
 10
-452.256702
 20
-5.306201
 30
0.0
 11
-478.110461
 21
-5.306201
 31
0.0
  0
LINE
  5
2FD8
100
AcDbEntity
  8
V0-OBRYS
  6
CONTINUOUS
 62
    90
100
AcDbLine
 10
-438.110461
 20
-55.306201
 30
0.0
 11
-438.110461
 21
-105.306201
 31
0.0
  0
LINE
  5
2FD9
100
AcDbEntity
  8
V0-OBRYS
  6
CONTINUOUS
 62
    90
100
AcDbLine
 10
-447.456256
 20
-55.306201
 30
0.0
 11
-447.456256
 21
-108.526572
 31
0.0
  0
LINE
  5
2FDA
100
AcDbEntity
  8
V0-OBRYS
  6
CONTINUOUS
 62
    90
100
AcDbLine
 10
-447.456256
 20
-108.526572
 30
0.0
 11
-452.241321
 21
-108.526572
 31
0.0
  0
LINE
  5
2FDB
100
AcDbEntity
  8
V0-OBRYS
  6
CONTINUOUS
 62
    90
100
AcDbLine
 10
-452.241321
 20
-108.526572
 30
0.0
 11
-452.241321
 21
-55.205296
 31
0.0
  0
LINE
  5
2FDC
100
AcDbEntity
  8
V0-OBRYS
  6
CONTINUOUS
 62
    90
100
AcDbLine
 10
-447.469409
 20
-105.306201
 30
0.0
 11
-438.110461
 21
-105.306201
 31
0.0
  0
LINE
  5
2FDD
100
AcDbEntity
  8
V0-OBRYS
  6
CONTINUOUS
 62
    90
100
AcDbLine
 10
-452.256702
 20
-105.306201
 30
0.0
 11
-478.110461
 21
-105.306201
 31
0.0
  0
LINE
  5
2FDE
100
AcDbEntity
  8
V0-OBRYS
  6
CONTINUOUS
 62
    90
100
AcDbLine
 10
-778.110461
 20
29.693799
 30
0.0
 11
-818.110461
 21
29.693799
 31
0.0
  0
LINE
  5
2FDF
100
AcDbEntity
  8
V0-OBRYS
  6
CONTINUOUS
 62
    90
100
AcDbLine
 10
-778.110461
 20
34.693799
 30
0.0
 11
-818.110461
 21
34.693799
 31
0.0
  0
LINE
  5
2FE0
100
AcDbEntity
  8
V0-OBRYS
  6
CONTINUOUS
 62
    90
100
AcDbLine
 10
-818.110461
 20
34.693799
 30
0.0
 11
-818.110461
 21
29.693799
 31
0.0
  0
CIRCLE
  5
2FE1
100
AcDbEntity
  8
V0-OBRYS
  6
CONTINUOUS
 62
    90
100
AcDbCircle
 10
-168.110461
 20
-55.306201
 30
0.0
 40
50.0
  0
CIRCLE
  5
2FE2
100
AcDbEntity
  8
V0-OBRYS
  6
CONTINUOUS
 62
    90
100
AcDbCircle
 10
-168.110461
 20
-55.306201
 30
0.0
 40
53.794373
  0
LINE
  5
2FE3
100
AcDbEntity
  8
V0-OBRYS
  6
CONTINUOUS
 62
    90
100
AcDbLine
 10
-259.610461
 20
-167.806201
 30
0.0
 11
-168.110461
 21
-167.806201
 31
0.0
  0
LINE
  5
2FE4
100
AcDbEntity
  8
V0-OBRYS
  6
CONTINUOUS
 62
    90
100
AcDbLine
 10
-168.110461
 20
-157.806201
 30
0.0
 11
-249.610461
 21
-157.806201
 31
0.0
  0
LINE
  5
2FE5
100
AcDbEntity
  8
V0-OBRYS
  6
CONTINUOUS
 62
    90
100
AcDbLine
 10
-259.610461
 20
-167.806201
 30
0.0
 11
-259.610461
 21
47.193799
 31
0.0
  0
LINE
  5
2FE6
100
AcDbEntity
  8
V0-OBRYS
  6
CONTINUOUS
 62
    90
100
AcDbLine
 10
-249.610461
 20
-157.806201
 30
0.0
 11
-249.610461
 21
47.193799
 31
0.0
  0
LINE
  5
2FE7
100
AcDbEntity
  8
V0-OBRYS
  6
CONTINUOUS
 62
    90
100
AcDbLine
 10
-478.110461
 20
-167.806201
 30
0.0
 11
-478.110461
 21
47.193799
 31
0.0
  0
LINE
  5
2FE8
100
AcDbEntity
  8
V0-OBRYS
  6
CONTINUOUS
 62
    90
100
AcDbLine
 10
-778.110461
 20
-55.306201
 30
0.0
 11
-778.110461
 21
47.193799
 31
0.0
  0
LINE
  5
2FE9
100
AcDbEntity
  8
V0-OBRYS
  6
CONTINUOUS
 62
    90
100
AcDbLine
 10
-783.596477
 20
56.840115
 30
0.0
 11
-783.110461
 21
56.840115
 31
0.0
  0
LINE
  5
2FEA
100
AcDbEntity
  8
V0-OBRYS
  6
CONTINUOUS
 62
    90
100
AcDbLine
 10
-783.110461
 20
56.840115
 30
0.0
 11
-783.110461
 21
47.193799
 31
0.0
  0
LINE
  5
2FEB
100
AcDbEntity
  8
V0-OBRYS
  6
CONTINUOUS
 62
    90
100
AcDbLine
 10
-473.110461
 20
56.840115
 30
0.0
 11
-473.110461
 21
47.193799
 31
0.0
  0
LINE
  5
2FEC
100
AcDbEntity
  8
V0-OBRYS
  6
CONTINUOUS
 62
    90
100
AcDbLine
 10
-783.110461
 20
47.193799
 30
0.0
 11
-473.110461
 21
47.193799
 31
0.0
  0
LINE
  5
2FED
100
AcDbEntity
  8
V0-OBRYS
  6
CONTINUOUS
 62
    90
100
AcDbLine
 10
-473.110461
 20
57.193799
 30
0.0
 11
-783.110461
 21
57.193799
 31
0.0
  0
LINE
  5
2FEE
100
AcDbEntity
  8
V0-OBRYS
  6
CONTINUOUS
 62
    90
100
AcDbLine
 10
-262.610461
 20
57.193799
 30
0.0
 11
-262.610461
 21
47.751263
 31
0.0
  0
LINE
  5
2FEF
100
AcDbEntity
  8
V0-OBRYS
  6
CONTINUOUS
 62
    90
100
AcDbLine
 10
-262.610461
 20
57.193799
 30
0.0
 11
-168.110461
 21
57.193799
 31
0.0
  0
LINE
  5
2FF0
100
AcDbEntity
  8
V0-OBRYS
  6
CONTINUOUS
 62
    90
100
AcDbLine
 10
-262.610461
 20
47.193799
 30
0.0
 11
-168.110461
 21
47.193799
 31
0.0
  0
LINE
  5
2FF1
100
AcDbEntity
  8
V0-OBRYS
  6
CONTINUOUS
 62
    90
100
AcDbLine
 10
-76.610461
 20
-167.806201
 30
0.0
 11
-168.110461
 21
-167.806201
 31
0.0
  0
LINE
  5
2FF2
100
AcDbEntity
  8
V0-OBRYS
  6
CONTINUOUS
 62
    90
100
AcDbLine
 10
-168.110461
 20
-157.806201
 30
0.0
 11
-86.610461
 21
-157.806201
 31
0.0
  0
LINE
  5
2FF3
100
AcDbEntity
  8
V0-OBRYS
  6
CONTINUOUS
 62
    90
100
AcDbLine
 10
-76.610461
 20
-167.806201
 30
0.0
 11
-76.610461
 21
47.193799
 31
0.0
  0
LINE
  5
2FF4
100
AcDbEntity
  8
V0-OBRYS
  6
CONTINUOUS
 62
    90
100
AcDbLine
 10
-86.610461
 20
-157.806201
 30
0.0
 11
-86.610461
 21
47.193799
 31
0.0
  0
LINE
  5
2FF5
100
AcDbEntity
  8
V0-OBRYS
  6
CONTINUOUS
 62
    90
100
AcDbLine
 10
-73.610461
 20
57.193799
 30
0.0
 11
-73.610461
 21
47.751263
 31
0.0
  0
LINE
  5
2FF6
100
AcDbEntity
  8
V0-OBRYS
  6
CONTINUOUS
 62
    90
100
AcDbLine
 10
-73.610461
 20
57.193799
 30
0.0
 11
-168.110461
 21
57.193799
 31
0.0
  0
LINE
  5
2FF7
100
AcDbEntity
  8
V0-OBRYS
  6
CONTINUOUS
 62
    90
100
AcDbLine
 10
-73.610461
 20
47.193799
 30
0.0
 11
-168.110461
 21
47.193799
 31
0.0
  0
LINE
  5
2FF8
100
AcDbEntity
  8
V0-VYPLNE
  6
DASHDOT
 62
    63
 48
3.0
100
AcDbLine
 10
-772.730884
 20
32.193799
 30
0.0
 11
-825.409534
 21
32.193799
 31
0.0
  0
LINE
  5
2FF9
100
AcDbEntity
  8
V0-VYPLNE
  6
DASHDOT
 62
    63
 48
3.0
100
AcDbLine
 10
-422.914539
 20
-55.306201
 30
0.0
 11
-826.030009
 21
-55.306201
 31
0.0
  0
LINE
  5
2FFA
100
AcDbEntity
  8
V0-OBRYS
  6
CONTINUOUS
 62
    90
100
AcDbLine
 10
-818.110461
 20
-342.871198
 30
0.0
 11
-818.110461
 21
-292.871198
 31
0.0
  0
LINE
  5
2FFB
100
AcDbEntity
  8
V0-OBRYS
  6
CONTINUOUS
 62
    90
100
AcDbLine
 10
-808.764659
 20
-342.871198
 30
0.0
 11
-808.764659
 21
-289.65083
 31
0.0
  0
LINE
  5
2FFC
100
AcDbEntity
  8
V0-OBRYS
  6
CONTINUOUS
 62
    90
100
AcDbLine
 10
-808.764659
 20
-289.65083
 30
0.0
 11
-803.979617
 21
-289.65083
 31
0.0
  0
LINE
  5
2FFD
100
AcDbEntity
  8
V0-OBRYS
  6
CONTINUOUS
 62
    90
100
AcDbLine
 10
-803.979617
 20
-289.65083
 30
0.0
 11
-803.979617
 21
-342.97212
 31
0.0
  0
LINE
  5
2FFE
100
AcDbEntity
  8
V0-OBRYS
  6
CONTINUOUS
 62
    90
100
AcDbLine
 10
-808.751529
 20
-292.871198
 30
0.0
 11
-818.110461
 21
-292.871198
 31
0.0
  0
LINE
  5
2FFF
100
AcDbEntity
  8
V0-OBRYS
  6
CONTINUOUS
 62
    90
100
AcDbLine
 10
-818.110461
 20
-342.871198
 30
0.0
 11
-818.110461
 21
-392.871198
 31
0.0
  0
LINE
  5
3000
100
AcDbEntity
  8
V0-OBRYS
  6
CONTINUOUS
 62
    90
100
AcDbLine
 10
-808.764659
 20
-342.871198
 30
0.0
 11
-808.764659
 21
-396.091565
 31
0.0
  0
LINE
  5
3001
100
AcDbEntity
  8
V0-OBRYS
  6
CONTINUOUS
 62
    90
100
AcDbLine
 10
-808.764659
 20
-396.091565
 30
0.0
 11
-803.979617
 21
-396.091565
 31
0.0
  0
LINE
  5
3002
100
AcDbEntity
  8
V0-OBRYS
  6
CONTINUOUS
 62
    90
100
AcDbLine
 10
-803.979617
 20
-396.091565
 30
0.0
 11
-803.979617
 21
-342.770276
 31
0.0
  0
LINE
  5
3003
100
AcDbEntity
  8
V0-OBRYS
  6
CONTINUOUS
 62
    90
100
AcDbLine
 10
-808.751529
 20
-392.871198
 30
0.0
 11
-818.110461
 21
-392.871198
 31
0.0
  0
LINE
  5
3004
100
AcDbEntity
  8
V0-OBRYS
  6
CONTINUOUS
 62
    90
100
AcDbLine
 10
-438.110461
 20
-342.871198
 30
0.0
 11
-438.110461
 21
-292.871198
 31
0.0
  0
LINE
  5
3005
100
AcDbEntity
  8
V0-OBRYS
  6
CONTINUOUS
 62
    90
100
AcDbLine
 10
-447.456256
 20
-342.871198
 30
0.0
 11
-447.456256
 21
-289.65083
 31
0.0
  0
LINE
  5
3006
100
AcDbEntity
  8
V0-OBRYS
  6
CONTINUOUS
 62
    90
100
AcDbLine
 10
-447.456256
 20
-289.65083
 30
0.0
 11
-452.241321
 21
-289.65083
 31
0.0
  0
LINE
  5
3007
100
AcDbEntity
  8
V0-OBRYS
  6
CONTINUOUS
 62
    90
100
AcDbLine
 10
-452.241321
 20
-289.65083
 30
0.0
 11
-452.241321
 21
-342.972089
 31
0.0
  0
LINE
  5
3008
100
AcDbEntity
  8
V0-OBRYS
  6
CONTINUOUS
 62
    90
100
AcDbLine
 10
-447.469409
 20
-292.871198
 30
0.0
 11
-438.110461
 21
-292.871198
 31
0.0
  0
LINE
  5
3009
100
AcDbEntity
  8
V0-OBRYS
  6
CONTINUOUS
 62
    90
100
AcDbLine
 10
-438.110461
 20
-342.871198
 30
0.0
 11
-438.110461
 21
-392.871198
 31
0.0
  0
LINE
  5
300A
100
AcDbEntity
  8
V0-OBRYS
  6
CONTINUOUS
 62
    90
100
AcDbLine
 10
-447.456256
 20
-342.871198
 30
0.0
 11
-447.456256
 21
-396.091565
 31
0.0
  0
LINE
  5
300B
100
AcDbEntity
  8
V0-OBRYS
  6
CONTINUOUS
 62
    90
100
AcDbLine
 10
-447.456256
 20
-396.091565
 30
0.0
 11
-452.241321
 21
-396.091565
 31
0.0
  0
LINE
  5
300C
100
AcDbEntity
  8
V0-OBRYS
  6
CONTINUOUS
 62
    90
100
AcDbLine
 10
-452.241321
 20
-396.091565
 30
0.0
 11
-452.241321
 21
-342.770307
 31
0.0
  0
LINE
  5
300D
100
AcDbEntity
  8
V0-OBRYS
  6
CONTINUOUS
 62
    90
100
AcDbLine
 10
-447.469409
 20
-392.871198
 30
0.0
 11
-438.110461
 21
-392.871198
 31
0.0
  0
LINE
  5
300E
100
AcDbEntity
  8
V0-VYPLNE
  6
DASHDOT
 62
    63
 48
3.0
100
AcDbLine
 10
-422.914539
 20
-342.871198
 30
0.0
 11
-826.030009
 21
-342.871198
 31
0.0
  0
LINE
  5
300F
100
AcDbEntity
  8
V0-OBRYS
  6
CONTINUOUS
 62
    90
100
AcDbLine
 10
-803.964214
 20
-292.871198
 30
0.0
 11
-783.110461
 21
-292.871198
 31
0.0
  0
LINE
  5
3010
100
AcDbEntity
  8
V0-OBRYS
  6
CONTINUOUS
 62
    90
100
AcDbLine
 10
-803.964214
 20
-392.871198
 30
0.0
 11
-783.110461
 21
-392.871198
 31
0.0
  0
LINE
  5
3011
100
AcDbEntity
  8
V0-OBRYS
  6
CONTINUOUS
 62
    90
100
AcDbLine
 10
-452.256702
 20
-292.871198
 30
0.0
 11
-483.110461
 21
-292.871198
 31
0.0
  0
LINE
  5
3012
100
AcDbEntity
  8
V0-OBRYS
  6
CONTINUOUS
 62
    90
100
AcDbLine
 10
-452.256702
 20
-392.871198
 30
0.0
 11
-483.110461
 21
-392.871198
 31
0.0
  0
LINE
  5
3013
100
AcDbEntity
  8
V0-OBRYS
  6
CONTINUOUS
 62
    90
100
AcDbLine
 10
-483.110461
 20
-256.371198
 30
0.0
 11
-783.110461
 21
-256.371198
 31
0.0
  0
LINE
  5
3014
100
AcDbEntity
  8
V0-OBRYS
  6
CONTINUOUS
 62
    90
100
AcDbLine
 10
-483.110461
 20
-429.371198
 30
0.0
 11
-783.110461
 21
-429.371198
 31
0.0
  0
LINE
  5
3015
100
AcDbEntity
  8
V0-OBRYS
  6
CONTINUOUS
 62
    90
100
AcDbLine
 10
-783.110461
 20
-256.724881
 30
0.0
 11
-783.110461
 21
-429.371198
 31
0.0
  0
LINE
  5
3016
100
AcDbEntity
  8
V0-OBRYS
  6
CONTINUOUS
 62
    90
100
AcDbLine
 10
-483.110461
 20
-256.724881
 30
0.0
 11
-483.110461
 21
-429.371198
 31
0.0
  0
LINE
  5
3017
100
AcDbEntity
  8
V0-OBRYS
  6
CONTINUOUS
 62
    90
100
AcDbLine
 10
-818.110461
 20
-270.371198
 30
0.0
 11
-818.110461
 21
-275.371198
 31
0.0
  0
LINE
  5
3018
100
AcDbEntity
  8
V0-OBRYS
  6
CONTINUOUS
 62
    90
100
AcDbLine
 10
-783.110461
 20
-275.371198
 30
0.0
 11
-818.110461
 21
-275.371198
 31
0.0
  0
LINE
  5
3019
100
AcDbEntity
  8
V0-OBRYS
  6
CONTINUOUS
 62
    90
100
AcDbLine
 10
-783.110461
 20
-270.371198
 30
0.0
 11
-818.110461
 21
-270.371198
 31
0.0
  0
LINE
  5
301A
100
AcDbEntity
  8
V0-VYPLNE
  6
DASHDOT
 62
    63
 48
3.0
100
AcDbLine
 10
-783.110461
 20
-272.871198
 30
0.0
 11
-825.409534
 21
-272.871198
 31
0.0
  0
LINE
  5
301B
100
AcDbEntity
  8
V0-OBRYS
  6
CONTINUOUS
 62
    90
100
AcDbLine
 10
-818.110461
 20
-415.371198
 30
0.0
 11
-818.110461
 21
-410.371198
 31
0.0
  0
LINE
  5
301C
100
AcDbEntity
  8
V0-OBRYS
  6
CONTINUOUS
 62
    90
100
AcDbLine
 10
-783.110461
 20
-410.371198
 30
0.0
 11
-818.110461
 21
-410.371198
 31
0.0
  0
LINE
  5
301D
100
AcDbEntity
  8
V0-OBRYS
  6
CONTINUOUS
 62
    90
100
AcDbLine
 10
-783.110461
 20
-415.371198
 30
0.0
 11
-818.110461
 21
-415.371198
 31
0.0
  0
LINE
  5
301E
100
AcDbEntity
  8
V0-VYPLNE
  6
DASHDOT
 62
    63
 48
3.0
100
AcDbLine
 10
-783.110461
 20
-412.871198
 30
0.0
 11
-825.409534
 21
-412.871198
 31
0.0
  0
CIRCLE
  5
301F
100
AcDbEntity
  8
V0-OBRYS
  6
CONTINUOUS
 62
    90
100
AcDbCircle
 10
-238.110461
 20
32.193799
 30
0.0
 40
3.832092
  0
CIRCLE
  5
3020
100
AcDbEntity
  8
V0-OBRYS
  6
CONTINUOUS
 62
    90
100
AcDbCircle
 10
-238.110461
 20
32.193799
 30
0.0
 40
5.0
  0
LINE
  5
3021
100
AcDbEntity
  8
V0-VYPLNE
  6
DASHDOT
 62
    63
 48
3.0
100
AcDbLine
 10
-250.601489
 20
32.193799
 30
0.0
 11
-225.614978
 21
32.193799
 31
0.0
  0
LINE
  5
3022
100
AcDbEntity
  8
V0-VYPLNE
  6
DASHDOT
 62
    63
 48
3.0
100
AcDbLine
 10
-238.110461
 20
43.609219
 30
0.0
 11
-238.110461
 21
17.895398
 31
0.0
  0
CIRCLE
  5
3023
100
AcDbEntity
  8
V0-OBRYS
  6
CONTINUOUS
 62
    90
100
AcDbCircle
 10
-98.110461
 20
32.193799
 30
0.0
 40
3.832092
  0
CIRCLE
  5
3024
100
AcDbEntity
  8
V0-OBRYS
  6
CONTINUOUS
 62
    90
100
AcDbCircle
 10
-98.110461
 20
32.193799
 30
0.0
 40
5.0
  0
LINE
  5
3025
100
AcDbEntity
  8
V0-VYPLNE
  6
DASHDOT
 62
    63
 48
3.0
100
AcDbLine
 10
-85.619434
 20
32.193799
 30
0.0
 11
-110.605945
 21
32.193799
 31
0.0
  0
LINE
  5
3026
100
AcDbEntity
  8
V0-VYPLNE
  6
DASHDOT
 62
    63
 48
3.0
100
AcDbLine
 10
-98.110461
 20
43.609219
 30
0.0
 11
-98.110461
 21
17.895398
 31
0.0
  0
LINE
  5
303A
100
AcDbEntity
  8
V0-VYPLNE
  6
DASHDOT
 62
    63
 48
3.0
100
AcDbLine
 10
-231.351428
 20
-55.306201
 30
0.0
 11
-106.865894
 21
-55.306201
 31
0.0
  0
LINE
  5
303B
100
AcDbEntity
  8
V0-VYPLNE
  6
DASHDOT
 62
    63
 48
3.0
100
AcDbLine
 10
-168.110461
 20
-0.676662
 30
0.0
 11
-168.110461
 21
-120.244731
 31
0.0
  0
TEXT
  5
303C
100
AcDbEntity
  8
V0-ZBYTEK
  6
CONTINUOUS
 62
    51
100
AcDbText
 10
-328.840079
 20
-367.50755
 30
0.0
 40
15.0
  1
PRO KRUHOVA POTRUBI
  7
SIMPLEX
 72
     1
 11
-194.197222
 21
-367.50755
 31
0.0
100
AcDbText
  0
TEXT
  5
303D
100
AcDbEntity
  8
V0-ZBYTEK
  6
CONTINUOUS
 62
   130
100
AcDbText
 10
-341.411154
 20
-333.293042
 30
0.0
 40
25.0
  1
VODNI OHRIVAC
  7
SIMPLEX
 72
     1
 11
-197.363535
 21
-333.293042
 31
0.0
100
AcDbText
  0
LINE
  5
303E
100
AcDbEntity
  8
V0-VYPLNE
  6
CONTINUOUS
 62
    52
100
AcDbLine
 10
-622.552905
 20
-342.452161
 30
0.0
 11
-622.552905
 21
-314.062268
 31
0.0
  0
LINE
  5
303F
100
AcDbEntity
  8
V0-VYPLNE
  6
CONTINUOUS
 62
    52
100
AcDbLine
 10
-622.552905
 20
-314.062268
 30
0.0
 11
-588.474963
 21
-344.122174
 31
0.0
  0
LINE
  5
3040
100
AcDbEntity
  8
V0-VYPLNE
  6
CONTINUOUS
 62
    52
100
AcDbLine
 10
-622.552905
 20
-341.879956
 30
0.0
 11
-622.552905
 21
-370.269849
 31
0.0
  0
LINE
  5
3041
100
AcDbEntity
  8
V0-VYPLNE
  6
CONTINUOUS
 62
    52
100
AcDbLine
 10
-622.552905
 20
-370.269849
 30
0.0
 11
-588.474963
 21
-340.209943
 31
0.0
  0
LINE
  5
3042
100
AcDbEntity
  8
V0-VYPLNE
  6
CONTINUOUS
 62
    52
100
AcDbLine
 10
-624.175647
 20
-55.878406
 30
0.0
 11
-624.175647
 21
-27.488513
 31
0.0
  0
LINE
  5
3043
100
AcDbEntity
  8
V0-VYPLNE
  6
CONTINUOUS
 62
    52
100
AcDbLine
 10
-624.175647
 20
-27.488513
 30
0.0
 11
-590.097705
 21
-57.54845
 31
0.0
  0
LINE
  5
3044
100
AcDbEntity
  8
V0-VYPLNE
  6
CONTINUOUS
 62
    52
100
AcDbLine
 10
-624.175647
 20
-55.306201
 30
0.0
 11
-624.175647
 21
-83.696094
 31
0.0
  0
LINE
  5
3045
100
AcDbEntity
  8
V0-VYPLNE
  6
CONTINUOUS
 62
    52
100
AcDbLine
 10
-624.175647
 20
-83.696094
 30
0.0
 11
-590.097705
 21
-53.636218
 31
0.0
  0
TEXT
  5
3049
100
AcDbEntity
  8
V0-NAZVY
  6
CONTINUOUS
 62
   210
100
AcDbText
 10
-679.431754
 20
-5.306201
 30
0.0
 40
20.0
  1
MBW-100
  7
SIMPLEX
 72
     1
 11
-610.384135
 21
-5.306201
 31
0.0
100
AcDbText
  0
TEXT
  5
304A
100
AcDbEntity
  8
V0-NAZVY
  6
CONTINUOUS
 62
   210
100
AcDbText
 10
-679.431754
 20
-302.871198
 30
0.0
 40
20.0
  1
MBW-100
  7
SIMPLEX
 72
     1
 11
-610.384135
 21
-302.871198
 31
0.0
100
AcDbText
  0
TEXT
  5
304B
100
AcDbEntity
  8
V0-NAZVY
  6
CONTINUOUS
 62
   210
100
AcDbText
 10
-307.267712
 20
-284.415174
 30
0.0
 40
30.0
  1
MBW-100
  7
SIMPLEX
 72
     1
 11
-203.696284
 21
-284.415174
 31
0.0
100
AcDbText
  0
TEXT
  5
304C
100
AcDbEntity
  8
V0-NAZVY
  6
CONTINUOUS
 62
   210
100
AcDbText
 10
-228.882408
 20
9.693799
 30
0.0
 40
20.0
  1
MBW-100
  7
SIMPLEX
 72
     1
 11
-159.834789
 21
9.693799
 31
0.0
100
AcDbText
  0
DIMENSION
  5
3119
100
AcDbEntity
  8
V0-VYPLNE
  6
CONTINUOUS
 62
    41
 48
2.0
100
AcDbDimension
  2
*D1
 10
-438.110461
 20
-224.527984
 30
0.0
 11
-628.110461
 21
-224.527984
 31
0.0
 70
   160
  3
STANDARD
100
AcDbAlignedDimension
 13
-818.110461
 23
-105.306201
 33
0.0
 14
-438.110461
 24
-105.306201
 34
0.0
100
AcDbRotatedDimension
1001
ACAD
1000
DSTYLE
1002
{
1070
   140
1040
20.0
1070
    40
1040
1.0
1070
   147
1040
3.0
1070
    41
1040
20.0
1002
}
  0
DIMENSION
  5
3126
100
AcDbEntity
  8
V0-VYPLNE
  6
CONTINUOUS
 62
    41
 48
2.0
100
AcDbDimension
  2
*D2
 10
-358.886292
 20
-167.806201
 30
0.0
 11
-371.88826
 21
-55.306201
 31
0.0
 70
    32
  3
STANDARD
100
AcDbAlignedDimension
 13
-473.110461
 23
57.193799
 33
0.0
 14
-478.110461
 24
-167.806201
 34
0.0
 50
90.0
100
AcDbRotatedDimension
1001
ACAD
1000
DSTYLE
1002
{
1070
   140
1040
20.0
1070
    40
1040
1.0
1070
   147
1040
3.0
1070
    41
1040
20.0
1002
}
  0
DIMENSION
  5
3133
100
AcDbEntity
  8
V0-VYPLNE
  6
CONTINUOUS
 62
    41
 48
2.0
100
AcDbDimension
  2
*D3
 10
-393.751233
 20
-105.368701
 30
0.0
 11
-406.751233
 21
-55.337451
 31
0.0
 70
    32
  1
%%c<>
  3
STANDARD
100
AcDbAlignedDimension
 13
-438.110461
 23
-5.306201
 33
0.0
 14
-438.110461
 24
-105.368701
 34
0.0
 50
90.0
100
AcDbRotatedDimension
1001
ACAD
1000
DSTYLE
1002
{
1070
   140
1040
20.0
1070
    40
1040
1.0
1070
   147
1040
3.0
1070
    41
1040
20.0
1002
}
  0
DIMENSION
  5
314B
100
AcDbEntity
  8
V0-VYPLNE
  6
CONTINUOUS
 62
    41
 48
2.0
100
AcDbDimension
  2
*D4
 10
-76.610461
 20
-205.46086
 30
0.0
 11
-168.110461
 21
-192.46086
 31
0.0
 70
    32
  3
STANDARD
100
AcDbAlignedDimension
 13
-259.610461
 23
-167.806201
 33
0.0
 14
-76.610461
 24
-167.806201
 34
0.0
100
AcDbRotatedDimension
1001
ACAD
1000
DSTYLE
1002
{
1070
   140
1040
20.0
1070
    40
1040
1.0
1070
   147
1040
3.0
1070
    41
1040
20.0
1002
}
  0
DIMENSION
  5
3193
100
AcDbEntity
  8
V0-VYPLNE
  6
CONTINUOUS
 62
    41
 48
2.0
100
AcDbDimension
  2
*D5
 10
-778.110461
 20
-196.177572
 30
0.0
 11
-798.110461
 21
-196.177572
 31
0.0
 70
   160
  3
STANDARD
100
AcDbAlignedDimension
 13
-818.110461
 23
-124.486365
 33
0.0
 14
-778.110461
 24
-151.363218
 34
0.0
100
AcDbRotatedDimension
1001
ACAD
1000
DSTYLE
1002
{
1070
   140
1040
20.0
1070
    40
1040
1.0
1070
   147
1040
3.0
1070
    41
1040
20.0
1002
}
  0
DIMENSION
  5
31B8
100
AcDbEntity
  8
V0-VYPLNE
  6
CONTINUOUS
 62
    41
 48
2.0
100
AcDbDimension
  2
*D6
 10
-98.110461
 20
81.785053
 30
0.0
 11
-168.110461
 21
94.785053
 31
0.0
 70
    32
  3
STANDARD
100
AcDbAlignedDimension
 13
-238.110461
 23
43.609219
 33
0.0
 14
-98.110461
 24
43.609219
 34
0.0
100
AcDbRotatedDimension
1001
ACAD
1000
DSTYLE
1002
{
1070
   140
1040
20.0
1070
    40
1040
1.0
1070
   147
1040
3.0
1070
    41
1040
20.0
1002
}
  0
LEADER
  5
31B9
100
AcDbEntity
  8
V0-VYPLNE
  6
CONTINUOUS
 62
    41
 48
2.0
100
AcDbLeader
  3
STANDARD
 73
     0
 75
     1
 40
20.0
 41
36.015748
 76
     3
 10
-241.101213
 20
35.363891
 30
0.0
 10
-264.445288
 20
80.610757
 30
0.0
 10
-284.445288
 20
80.610757
 30
0.0
 77
    41
340
31BA
1001
ACAD
1000
DSTYLE
1002
{
1070
   140
1040
20.0
1070
    40
1040
1.0
1070
   147
1040
3.0
1070
    41
1040
20.0
1002
}
  0
MTEXT
  5
31BA
102
{ACAD_REACTORS
330
31B9
102
}
100
AcDbEntity
  8
V0-VYPLNE
 62
    41
 48
2.0
100
AcDbMText
 10
-287.445288
 20
93.610757
 30
0.0
 40
20.0
 41
0.0
 71
     6
 72
     1
  1
\A1;%%c10
  0
INSERT
  5
3288
100
AcDbEntity
  8
KOTY
 48
2.0
100
AcDbBlockReference
  2
ABBB
 10
-828.879933
 20
68.009693
 30
0.0
  0
LINE
  5
3311
100
AcDbEntity
  8
V0-VYPLNE
  6
CONTINUOUS
 62
    52
100
AcDbLine
 10
-207.110461
 20
-86.595176
 30
0.0
 11
-207.110461
 21
-24.017226
 31
0.0
  0
LINE
  5
3312
100
AcDbEntity
  8
V0-VYPLNE
  6
CONTINUOUS
 62
    52
100
AcDbLine
 10
-208.568255
 20
-84.017226
 30
0.0
 11
-207.110461
 21
-84.017226
 31
0.0
  0
LINE
  5
3313
100
AcDbEntity
  8
V0-VYPLNE
  6
CONTINUOUS
 62
    52
100
AcDbLine
 10
-211.395686
 20
-79.017226
 30
0.0
 11
-207.110461
 21
-79.017226
 31
0.0
  0
LINE
  5
3314
100
AcDbEntity
  8
V0-VYPLNE
  6
CONTINUOUS
 62
    52
100
AcDbLine
 10
-214.223116
 20
-74.017226
 30
0.0
 11
-207.110461
 21
-74.017226
 31
0.0
  0
LINE
  5
3315
100
AcDbEntity
  8
V0-VYPLNE
  6
CONTINUOUS
 62
    52
100
AcDbLine
 10
-215.969727
 20
-69.017226
 30
0.0
 11
-207.110461
 21
-69.017226
 31
0.0
  0
LINE
  5
3316
100
AcDbEntity
  8
V0-VYPLNE
  6
CONTINUOUS
 62
    52
100
AcDbLine
 10
-216.750388
 20
-64.017226
 30
0.0
 11
-207.110461
 21
-64.017226
 31
0.0
  0
LINE
  5
3317
100
AcDbEntity
  8
V0-VYPLNE
  6
CONTINUOUS
 62
    52
100
AcDbLine
 10
-217.531051
 20
-59.017226
 30
0.0
 11
-207.110461
 21
-59.017226
 31
0.0
  0
LINE
  5
3318
100
AcDbEntity
  8
V0-VYPLNE
  6
CONTINUOUS
 62
    52
100
AcDbLine
 10
-217.868932
 20
-54.017226
 30
0.0
 11
-207.110461
 21
-54.017226
 31
0.0
  0
LINE
  5
3319
100
AcDbEntity
  8
V0-VYPLNE
  6
CONTINUOUS
 62
    52
100
AcDbLine
 10
-216.932036
 20
-49.017226
 30
0.0
 11
-207.110461
 21
-49.017226
 31
0.0
  0
LINE
  5
331A
100
AcDbEntity
  8
V0-VYPLNE
  6
CONTINUOUS
 62
    52
100
AcDbLine
 10
-215.99514
 20
-44.017226
 30
0.0
 11
-207.110461
 21
-44.017226
 31
0.0
  0
LINE
  5
331B
100
AcDbEntity
  8
V0-VYPLNE
  6
CONTINUOUS
 62
    52
100
AcDbLine
 10
-215.058245
 20
-39.017226
 30
0.0
 11
-207.110461
 21
-39.017226
 31
0.0
  0
LINE
  5
331C
100
AcDbEntity
  8
V0-VYPLNE
  6
CONTINUOUS
 62
    52
100
AcDbLine
 10
-213.004512
 20
-34.017226
 30
0.0
 11
-207.110461
 21
-34.017226
 31
0.0
  0
LINE
  5
331D
100
AcDbEntity
  8
V0-VYPLNE
  6
CONTINUOUS
 62
    52
100
AcDbLine
 10
-210.057487
 20
-29.017226
 30
0.0
 11
-207.110461
 21
-29.017226
 31
0.0
  0
LINE
  5
331E
100
AcDbEntity
  8
V0-VYPLNE
  6
CONTINUOUS
 62
    52
100
AcDbLine
 10
-201.110461
 20
-17.742923
 30
0.0
 11
-201.110461
 21
-92.869479
 31
0.0
  0
LINE
  5
3320
100
AcDbEntity
  8
V0-VYPLNE
  6
CONTINUOUS
 62
    52
100
AcDbLine
 10
-189.110461
 20
-100.682407
 30
0.0
 11
-189.110461
 21
-9.929996
 31
0.0
  0
LINE
  5
3322
100
AcDbEntity
  8
V0-VYPLNE
  6
CONTINUOUS
 62
    52
100
AcDbLine
 10
-193.625266
 20
-97.742923
 30
0.0
 11
-189.110457
 21
-97.742923
 31
0.0
  0
LINE
  5
3323
100
AcDbEntity
  8
V0-VYPLNE
  6
CONTINUOUS
 62
    52
100
AcDbLine
 10
-201.110461
 20
-92.742923
 30
0.0
 11
-189.110458
 21
-92.742923
 31
0.0
  0
LINE
  5
3324
100
AcDbEntity
  8
V0-VYPLNE
  6
CONTINUOUS
 62
    52
100
AcDbLine
 10
-201.110461
 20
-87.742923
 30
0.0
 11
-189.110458
 21
-87.742923
 31
0.0
  0
LINE
  5
3325
100
AcDbEntity
  8
V0-VYPLNE
  6
CONTINUOUS
 62
    52
100
AcDbLine
 10
-201.110461
 20
-82.742923
 30
0.0
 11
-189.110458
 21
-82.742923
 31
0.0
  0
LINE
  5
3326
100
AcDbEntity
  8
V0-VYPLNE
  6
CONTINUOUS
 62
    52
100
AcDbLine
 10
-201.110461
 20
-77.742923
 30
0.0
 11
-189.110458
 21
-77.742923
 31
0.0
  0
LINE
  5
3327
100
AcDbEntity
  8
V0-VYPLNE
  6
CONTINUOUS
 62
    52
100
AcDbLine
 10
-201.110461
 20
-72.742923
 30
0.0
 11
-189.110459
 21
-72.742923
 31
0.0
  0
LINE
  5
3328
100
AcDbEntity
  8
V0-VYPLNE
  6
CONTINUOUS
 62
    52
100
AcDbLine
 10
-201.110461
 20
-67.742923
 30
0.0
 11
-189.110459
 21
-67.742923
 31
0.0
  0
LINE
  5
3329
100
AcDbEntity
  8
V0-VYPLNE
  6
CONTINUOUS
 62
    52
100
AcDbLine
 10
-201.110461
 20
-62.742923
 30
0.0
 11
-189.110459
 21
-62.742923
 31
0.0
  0
LINE
  5
332A
100
AcDbEntity
  8
V0-VYPLNE
  6
CONTINUOUS
 62
    52
100
AcDbLine
 10
-201.110461
 20
-57.742923
 30
0.0
 11
-189.110459
 21
-57.742923
 31
0.0
  0
LINE
  5
332B
100
AcDbEntity
  8
V0-VYPLNE
  6
CONTINUOUS
 62
    52
100
AcDbLine
 10
-201.110461
 20
-52.742923
 30
0.0
 11
-189.110459
 21
-52.742923
 31
0.0
  0
LINE
  5
332C
100
AcDbEntity
  8
V0-VYPLNE
  6
CONTINUOUS
 62
    52
100
AcDbLine
 10
-201.110461
 20
-47.742923
 30
0.0
 11
-189.11046
 21
-47.742923
 31
0.0
  0
LINE
  5
332D
100
AcDbEntity
  8
V0-VYPLNE
  6
CONTINUOUS
 62
    52
100
AcDbLine
 10
-201.110461
 20
-42.742923
 30
0.0
 11
-189.11046
 21
-42.742923
 31
0.0
  0
LINE
  5
332E
100
AcDbEntity
  8
V0-VYPLNE
  6
CONTINUOUS
 62
    52
100
AcDbLine
 10
-201.110461
 20
-37.742923
 30
0.0
 11
-189.11046
 21
-37.742923
 31
0.0
  0
LINE
  5
332F
100
AcDbEntity
  8
V0-VYPLNE
  6
CONTINUOUS
 62
    52
100
AcDbLine
 10
-201.110461
 20
-32.742923
 30
0.0
 11
-189.11046
 21
-32.742923
 31
0.0
  0
LINE
  5
3330
100
AcDbEntity
  8
V0-VYPLNE
  6
CONTINUOUS
 62
    52
100
AcDbLine
 10
-201.110461
 20
-27.742923
 30
0.0
 11
-189.110461
 21
-27.742923
 31
0.0
  0
LINE
  5
3331
100
AcDbEntity
  8
V0-VYPLNE
  6
CONTINUOUS
 62
    52
100
AcDbLine
 10
-201.110461
 20
-22.742923
 30
0.0
 11
-189.110461
 21
-22.742923
 31
0.0
  0
LINE
  5
3332
100
AcDbEntity
  8
V0-VYPLNE
  6
CONTINUOUS
 62
    52
100
AcDbLine
 10
-201.110461
 20
-17.742923
 30
0.0
 11
-189.110461
 21
-17.742923
 31
0.0
  0
LINE
  5
3333
100
AcDbEntity
  8
V0-VYPLNE
  6
CONTINUOUS
 62
    52
100
AcDbLine
 10
-193.430881
 20
-12.742923
 30
0.0
 11
-189.110461
 21
-12.742923
 31
0.0
  0
LINE
  5
3334
100
AcDbEntity
  8
V0-VYPLNE
  6
CONTINUOUS
 62
    52
100
AcDbLine
 10
-183.110461
 20
-7.609241
 30
0.0
 11
-183.207202
 21
-7.586307
 31
0.0
  0
LINE
  5
3335
100
AcDbEntity
  8
V0-VYPLNE
  6
CONTINUOUS
 62
    52
100
AcDbLine
 10
-183.207202
 20
-7.586307
 30
0.0
 11
-183.110461
 21
-7.609241
 31
0.0
  0
LINE
  5
3336
100
AcDbEntity
  8
V0-VYPLNE
  6
CONTINUOUS
 62
    52
100
AcDbLine
 10
-183.110461
 20
-7.609241
 30
0.0
 11
-183.110461
 21
-103.003162
 31
0.0
  0
LINE
  5
3338
100
AcDbEntity
  8
V0-VYPLNE
  6
CONTINUOUS
 62
    52
100
AcDbLine
 10
-171.110461
 20
-105.216121
 30
0.0
 11
-171.110461
 21
-5.396281
 31
0.0
  0
LINE
  5
333A
100
AcDbEntity
  8
V0-VYPLNE
  6
CONTINUOUS
 62
    52
100
AcDbLine
 10
-183.11046
 20
-102.609241
 30
0.0
 11
-171.110462
 21
-102.609241
 31
0.0
  0
LINE
  5
333B
100
AcDbEntity
  8
V0-VYPLNE
  6
CONTINUOUS
 62
    52
100
AcDbLine
 10
-183.11046
 20
-97.609241
 30
0.0
 11
-171.110462
 21
-97.609241
 31
0.0
  0
LINE
  5
333C
100
AcDbEntity
  8
V0-VYPLNE
  6
CONTINUOUS
 62
    52
100
AcDbLine
 10
-183.11046
 20
-92.609241
 30
0.0
 11
-171.110462
 21
-92.609241
 31
0.0
  0
LINE
  5
333D
100
AcDbEntity
  8
V0-VYPLNE
  6
CONTINUOUS
 62
    52
100
AcDbLine
 10
-183.11046
 20
-87.609241
 30
0.0
 11
-171.110462
 21
-87.609241
 31
0.0
  0
LINE
  5
333E
100
AcDbEntity
  8
V0-VYPLNE
  6
CONTINUOUS
 62
    52
100
AcDbLine
 10
-183.110461
 20
-82.609241
 30
0.0
 11
-171.110462
 21
-82.609241
 31
0.0
  0
LINE
  5
333F
100
AcDbEntity
  8
V0-VYPLNE
  6
CONTINUOUS
 62
    52
100
AcDbLine
 10
-183.110461
 20
-77.609241
 30
0.0
 11
-171.110462
 21
-77.609241
 31
0.0
  0
LINE
  5
3340
100
AcDbEntity
  8
V0-VYPLNE
  6
CONTINUOUS
 62
    52
100
AcDbLine
 10
-183.110461
 20
-72.609241
 30
0.0
 11
-171.110462
 21
-72.609241
 31
0.0
  0
LINE
  5
3341
100
AcDbEntity
  8
V0-VYPLNE
  6
CONTINUOUS
 62
    52
100
AcDbLine
 10
-183.110461
 20
-67.609241
 30
0.0
 11
-171.110462
 21
-67.609241
 31
0.0
  0
LINE
  5
3342
100
AcDbEntity
  8
V0-VYPLNE
  6
CONTINUOUS
 62
    52
100
AcDbLine
 10
-183.110461
 20
-62.609241
 30
0.0
 11
-171.110462
 21
-62.609241
 31
0.0
  0
LINE
  5
3343
100
AcDbEntity
  8
V0-VYPLNE
  6
CONTINUOUS
 62
    52
100
AcDbLine
 10
-183.110461
 20
-57.609241
 30
0.0
 11
-171.110462
 21
-57.609241
 31
0.0
  0
LINE
  5
3344
100
AcDbEntity
  8
V0-VYPLNE
  6
CONTINUOUS
 62
    52
100
AcDbLine
 10
-183.110461
 20
-52.609241
 30
0.0
 11
-171.110461
 21
-52.609241
 31
0.0
  0
LINE
  5
3345
100
AcDbEntity
  8
V0-VYPLNE
  6
CONTINUOUS
 62
    52
100
AcDbLine
 10
-183.110461
 20
-47.609241
 30
0.0
 11
-171.110461
 21
-47.609241
 31
0.0
  0
LINE
  5
3346
100
AcDbEntity
  8
V0-VYPLNE
  6
CONTINUOUS
 62
    52
100
AcDbLine
 10
-183.110461
 20
-42.609241
 30
0.0
 11
-171.110461
 21
-42.609241
 31
0.0
  0
LINE
  5
3347
100
AcDbEntity
  8
V0-VYPLNE
  6
CONTINUOUS
 62
    52
100
AcDbLine
 10
-183.110461
 20
-37.609241
 30
0.0
 11
-171.110461
 21
-37.609241
 31
0.0
  0
LINE
  5
3348
100
AcDbEntity
  8
V0-VYPLNE
  6
CONTINUOUS
 62
    52
100
AcDbLine
 10
-183.110461
 20
-32.609241
 30
0.0
 11
-171.110461
 21
-32.609241
 31
0.0
  0
LINE
  5
3349
100
AcDbEntity
  8
V0-VYPLNE
  6
CONTINUOUS
 62
    52
100
AcDbLine
 10
-183.110461
 20
-27.609241
 30
0.0
 11
-171.110461
 21
-27.609241
 31
0.0
  0
LINE
  5
334A
100
AcDbEntity
  8
V0-VYPLNE
  6
CONTINUOUS
 62
    52
100
AcDbLine
 10
-183.110461
 20
-22.609241
 30
0.0
 11
-171.110461
 21
-22.609241
 31
0.0
  0
LINE
  5
334B
100
AcDbEntity
  8
V0-VYPLNE
  6
CONTINUOUS
 62
    52
100
AcDbLine
 10
-183.110461
 20
-17.609241
 30
0.0
 11
-171.110461
 21
-17.609241
 31
0.0
  0
LINE
  5
334C
100
AcDbEntity
  8
V0-VYPLNE
  6
CONTINUOUS
 62
    52
100
AcDbLine
 10
-183.110461
 20
-12.609241
 30
0.0
 11
-171.110461
 21
-12.609241
 31
0.0
  0
LINE
  5
334D
100
AcDbEntity
  8
V0-VYPLNE
  6
CONTINUOUS
 62
    52
100
AcDbLine
 10
-183.110461
 20
-7.609241
 30
0.0
 11
-183.110461
 21
-7.609241
 31
0.0
  0
LINE
  5
334E
100
AcDbEntity
  8
V0-VYPLNE
  6
CONTINUOUS
 62
    52
100
AcDbLine
 10
-183.110461
 20
-7.609241
 30
0.0
 11
-171.110461
 21
-7.609241
 31
0.0
  0
LINE
  5
334F
100
AcDbEntity
  8
V0-VYPLNE
  6
CONTINUOUS
 62
    52
100
AcDbLine
 10
-153.110461
 20
-7.609241
 30
0.0
 11
-153.013721
 21
-7.586307
 31
0.0
  0
LINE
  5
3350
100
AcDbEntity
  8
V0-VYPLNE
  6
CONTINUOUS
 62
    52
100
AcDbLine
 10
-153.013721
 20
-7.586307
 30
0.0
 11
-153.110461
 21
-7.609241
 31
0.0
  0
LINE
  5
3351
100
AcDbEntity
  8
V0-VYPLNE
  6
CONTINUOUS
 62
    52
100
AcDbLine
 10
-153.110461
 20
-7.609241
 30
0.0
 11
-153.110453
 21
-103.003162
 31
0.0
  0
LINE
  5
3353
100
AcDbEntity
  8
V0-VYPLNE
  6
CONTINUOUS
 62
    52
100
AcDbLine
 10
-165.110453
 20
-105.216122
 30
0.0
 11
-165.110462
 21
-5.396283
 31
0.0
  0
LINE
  5
3355
100
AcDbEntity
  8
V0-VYPLNE
  6
CONTINUOUS
 62
    52
100
AcDbLine
 10
-153.110454
 20
-102.609241
 30
0.0
 11
-165.110452
 21
-102.609242
 31
0.0
  0
LINE
  5
3356
100
AcDbEntity
  8
V0-VYPLNE
  6
CONTINUOUS
 62
    52
100
AcDbLine
 10
-153.110455
 20
-97.609241
 30
0.0
 11
-165.110453
 21
-97.609242
 31
0.0
  0
LINE
  5
3357
100
AcDbEntity
  8
V0-VYPLNE
  6
CONTINUOUS
 62
    52
100
AcDbLine
 10
-153.110455
 20
-92.609241
 30
0.0
 11
-165.110453
 21
-92.609242
 31
0.0
  0
LINE
  5
3358
100
AcDbEntity
  8
V0-VYPLNE
  6
CONTINUOUS
 62
    52
100
AcDbLine
 10
-153.110455
 20
-87.609241
 30
0.0
 11
-165.110453
 21
-87.609242
 31
0.0
  0
LINE
  5
3359
100
AcDbEntity
  8
V0-VYPLNE
  6
CONTINUOUS
 62
    52
100
AcDbLine
 10
-153.110456
 20
-82.609241
 30
0.0
 11
-165.110454
 21
-82.609242
 31
0.0
  0
LINE
  5
335A
100
AcDbEntity
  8
V0-VYPLNE
  6
CONTINUOUS
 62
    52
100
AcDbLine
 10
-153.110456
 20
-77.609241
 30
0.0
 11
-165.110454
 21
-77.609242
 31
0.0
  0
LINE
  5
335B
100
AcDbEntity
  8
V0-VYPLNE
  6
CONTINUOUS
 62
    52
100
AcDbLine
 10
-153.110457
 20
-72.609241
 30
0.0
 11
-165.110455
 21
-72.609242
 31
0.0
  0
LINE
  5
335C
100
AcDbEntity
  8
V0-VYPLNE
  6
CONTINUOUS
 62
    52
100
AcDbLine
 10
-153.110457
 20
-67.609241
 30
0.0
 11
-165.110455
 21
-67.609242
 31
0.0
  0
LINE
  5
335D
100
AcDbEntity
  8
V0-VYPLNE
  6
CONTINUOUS
 62
    52
100
AcDbLine
 10
-153.110457
 20
-62.609241
 30
0.0
 11
-165.110456
 21
-62.609242
 31
0.0
  0
LINE
  5
335E
100
AcDbEntity
  8
V0-VYPLNE
  6
CONTINUOUS
 62
    52
100
AcDbLine
 10
-153.110458
 20
-57.609241
 30
0.0
 11
-165.110456
 21
-57.609242
 31
0.0
  0
LINE
  5
335F
100
AcDbEntity
  8
V0-VYPLNE
  6
CONTINUOUS
 62
    52
100
AcDbLine
 10
-153.110458
 20
-52.609241
 30
0.0
 11
-165.110457
 21
-52.609242
 31
0.0
  0
LINE
  5
3360
100
AcDbEntity
  8
V0-VYPLNE
  6
CONTINUOUS
 62
    52
100
AcDbLine
 10
-153.110458
 20
-47.609241
 30
0.0
 11
-165.110458
 21
-47.609242
 31
0.0
  0
LINE
  5
3361
100
AcDbEntity
  8
V0-VYPLNE
  6
CONTINUOUS
 62
    52
100
AcDbLine
 10
-153.110459
 20
-42.609241
 30
0.0
 11
-165.110458
 21
-42.609242
 31
0.0
  0
LINE
  5
3362
100
AcDbEntity
  8
V0-VYPLNE
  6
CONTINUOUS
 62
    52
100
AcDbLine
 10
-153.110459
 20
-37.609241
 30
0.0
 11
-165.110459
 21
-37.609242
 31
0.0
  0
LINE
  5
3363
100
AcDbEntity
  8
V0-VYPLNE
  6
CONTINUOUS
 62
    52
100
AcDbLine
 10
-153.11046
 20
-32.609241
 30
0.0
 11
-165.110459
 21
-32.609242
 31
0.0
  0
LINE
  5
3364
100
AcDbEntity
  8
V0-VYPLNE
  6
CONTINUOUS
 62
    52
100
AcDbLine
 10
-153.11046
 20
-27.609241
 30
0.0
 11
-165.11046
 21
-27.609242
 31
0.0
  0
LINE
  5
3365
100
AcDbEntity
  8
V0-VYPLNE
  6
CONTINUOUS
 62
    52
100
AcDbLine
 10
-153.11046
 20
-22.609241
 30
0.0
 11
-165.11046
 21
-22.609242
 31
0.0
  0
LINE
  5
3366
100
AcDbEntity
  8
V0-VYPLNE
  6
CONTINUOUS
 62
    52
100
AcDbLine
 10
-153.110461
 20
-17.609241
 30
0.0
 11
-165.110461
 21
-17.609242
 31
0.0
  0
LINE
  5
3367
100
AcDbEntity
  8
V0-VYPLNE
  6
CONTINUOUS
 62
    52
100
AcDbLine
 10
-153.110461
 20
-12.609241
 30
0.0
 11
-165.110461
 21
-12.609242
 31
0.0
  0
LINE
  5
3368
100
AcDbEntity
  8
V0-VYPLNE
  6
CONTINUOUS
 62
    52
100
AcDbLine
 10
-153.110461
 20
-7.609241
 30
0.0
 11
-153.110461
 21
-7.609241
 31
0.0
  0
LINE
  5
3369
100
AcDbEntity
  8
V0-VYPLNE
  6
CONTINUOUS
 62
    52
100
AcDbLine
 10
-153.110461
 20
-7.609241
 30
0.0
 11
-165.110461
 21
-7.609242
 31
0.0
  0
LINE
  5
336A
100
AcDbEntity
  8
V0-VYPLNE
  6
CONTINUOUS
 62
    52
100
AcDbLine
 10
-135.110461
 20
-17.742923
 30
0.0
 11
-135.110455
 21
-92.869479
 31
0.0
  0
LINE
  5
336C
100
AcDbEntity
  8
V0-VYPLNE
  6
CONTINUOUS
 62
    52
100
AcDbLine
 10
-147.110454
 20
-100.682408
 30
0.0
 11
-147.110462
 21
-9.929997
 31
0.0
  0
LINE
  5
336E
100
AcDbEntity
  8
V0-VYPLNE
  6
CONTINUOUS
 62
    52
100
AcDbLine
 10
-142.59565
 20
-97.742924
 30
0.0
 11
-147.110459
 21
-97.742924
 31
0.0
  0
LINE
  5
336F
100
AcDbEntity
  8
V0-VYPLNE
  6
CONTINUOUS
 62
    52
100
AcDbLine
 10
-135.110456
 20
-92.742923
 30
0.0
 11
-147.110459
 21
-92.742924
 31
0.0
  0
LINE
  5
3370
100
AcDbEntity
  8
V0-VYPLNE
  6
CONTINUOUS
 62
    52
100
AcDbLine
 10
-135.110456
 20
-87.742923
 30
0.0
 11
-147.110459
 21
-87.742924
 31
0.0
  0
LINE
  5
3371
100
AcDbEntity
  8
V0-VYPLNE
  6
CONTINUOUS
 62
    52
100
AcDbLine
 10
-135.110457
 20
-82.742923
 30
0.0
 11
-147.11046
 21
-82.742924
 31
0.0
  0
LINE
  5
3372
100
AcDbEntity
  8
V0-VYPLNE
  6
CONTINUOUS
 62
    52
100
AcDbLine
 10
-135.110457
 20
-77.742923
 30
0.0
 11
-147.11046
 21
-77.742924
 31
0.0
  0
LINE
  5
3373
100
AcDbEntity
  8
V0-VYPLNE
  6
CONTINUOUS
 62
    52
100
AcDbLine
 10
-135.110457
 20
-72.742923
 30
0.0
 11
-147.110459
 21
-72.742924
 31
0.0
  0
LINE
  5
3374
100
AcDbEntity
  8
V0-VYPLNE
  6
CONTINUOUS
 62
    52
100
AcDbLine
 10
-135.110458
 20
-67.742923
 30
0.0
 11
-147.11046
 21
-67.742924
 31
0.0
  0
LINE
  5
3375
100
AcDbEntity
  8
V0-VYPLNE
  6
CONTINUOUS
 62
    52
100
AcDbLine
 10
-135.110458
 20
-62.742923
 30
0.0
 11
-147.11046
 21
-62.742924
 31
0.0
  0
LINE
  5
3376
100
AcDbEntity
  8
V0-VYPLNE
  6
CONTINUOUS
 62
    52
100
AcDbLine
 10
-135.110458
 20
-57.742923
 30
0.0
 11
-147.110461
 21
-57.742924
 31
0.0
  0
LINE
  5
3377
100
AcDbEntity
  8
V0-VYPLNE
  6
CONTINUOUS
 62
    52
100
AcDbLine
 10
-135.110459
 20
-52.742923
 30
0.0
 11
-147.110461
 21
-52.742924
 31
0.0
  0
LINE
  5
3378
100
AcDbEntity
  8
V0-VYPLNE
  6
CONTINUOUS
 62
    52
100
AcDbLine
 10
-135.110459
 20
-47.742923
 30
0.0
 11
-147.110461
 21
-47.742924
 31
0.0
  0
LINE
  5
3379
100
AcDbEntity
  8
V0-VYPLNE
  6
CONTINUOUS
 62
    52
100
AcDbLine
 10
-135.11046
 20
-42.742923
 30
0.0
 11
-147.110461
 21
-42.742924
 31
0.0
  0
LINE
  5
337A
100
AcDbEntity
  8
V0-VYPLNE
  6
CONTINUOUS
 62
    52
100
AcDbLine
 10
-135.11046
 20
-37.742923
 30
0.0
 11
-147.110462
 21
-37.742924
 31
0.0
  0
LINE
  5
337B
100
AcDbEntity
  8
V0-VYPLNE
  6
CONTINUOUS
 62
    52
100
AcDbLine
 10
-135.11046
 20
-32.742923
 30
0.0
 11
-147.110462
 21
-32.742924
 31
0.0
  0
LINE
  5
337C
100
AcDbEntity
  8
V0-VYPLNE
  6
CONTINUOUS
 62
    52
100
AcDbLine
 10
-135.110461
 20
-27.742923
 30
0.0
 11
-147.110461
 21
-27.742924
 31
0.0
  0
LINE
  5
337D
100
AcDbEntity
  8
V0-VYPLNE
  6
CONTINUOUS
 62
    52
100
AcDbLine
 10
-135.110461
 20
-22.742923
 30
0.0
 11
-147.110461
 21
-22.742924
 31
0.0
  0
LINE
  5
337E
100
AcDbEntity
  8
V0-VYPLNE
  6
CONTINUOUS
 62
    52
100
AcDbLine
 10
-135.110461
 20
-17.742923
 30
0.0
 11
-147.110461
 21
-17.742924
 31
0.0
  0
LINE
  5
337F
100
AcDbEntity
  8
V0-VYPLNE
  6
CONTINUOUS
 62
    52
100
AcDbLine
 10
-142.790042
 20
-12.742924
 30
0.0
 11
-147.110462
 21
-12.742924
 31
0.0
  0
LINE
  5
3384
100
AcDbEntity
  8
V0-VYPLNE
  6
CONTINUOUS
 62
    52
100
AcDbLine
 10
-129.110456
 20
-86.59518
 30
0.0
 11
-129.110461
 21
-24.01723
 31
0.0
  0
LINE
  5
3385
100
AcDbEntity
  8
V0-VYPLNE
  6
CONTINUOUS
 62
    52
100
AcDbLine
 10
-127.652662
 20
-84.01723
 30
0.0
 11
-129.110457
 21
-84.01723
 31
0.0
  0
LINE
  5
3386
100
AcDbEntity
  8
V0-VYPLNE
  6
CONTINUOUS
 62
    52
100
AcDbLine
 10
-124.825232
 20
-79.01723
 30
0.0
 11
-129.110457
 21
-79.01723
 31
0.0
  0
LINE
  5
3387
100
AcDbEntity
  8
V0-VYPLNE
  6
CONTINUOUS
 62
    52
100
AcDbLine
 10
-121.997803
 20
-74.01723
 30
0.0
 11
-129.110458
 21
-74.01723
 31
0.0
  0
LINE
  5
3388
100
AcDbEntity
  8
V0-VYPLNE
  6
CONTINUOUS
 62
    52
100
AcDbLine
 10
-120.251192
 20
-69.01723
 30
0.0
 11
-129.110458
 21
-69.01723
 31
0.0
  0
LINE
  5
3389
100
AcDbEntity
  8
V0-VYPLNE
  6
CONTINUOUS
 62
    52
100
AcDbLine
 10
-119.470531
 20
-64.017229
 30
0.0
 11
-129.110458
 21
-64.01723
 31
0.0
  0
LINE
  5
338A
100
AcDbEntity
  8
V0-VYPLNE
  6
CONTINUOUS
 62
    52
100
AcDbLine
 10
-118.689869
 20
-59.017229
 30
0.0
 11
-129.110459
 21
-59.01723
 31
0.0
  0
LINE
  5
338B
100
AcDbEntity
  8
V0-VYPLNE
  6
CONTINUOUS
 62
    52
100
AcDbLine
 10
-118.351988
 20
-54.017229
 30
0.0
 11
-129.110459
 21
-54.01723
 31
0.0
  0
LINE
  5
338C
100
AcDbEntity
  8
V0-VYPLNE
  6
CONTINUOUS
 62
    52
100
AcDbLine
 10
-119.288885
 20
-49.017229
 30
0.0
 11
-129.11046
 21
-49.01723
 31
0.0
  0
LINE
  5
338D
100
AcDbEntity
  8
V0-VYPLNE
  6
CONTINUOUS
 62
    52
100
AcDbLine
 10
-120.225781
 20
-44.01723
 30
0.0
 11
-129.11046
 21
-44.01723
 31
0.0
  0
LINE
  5
338E
100
AcDbEntity
  8
V0-VYPLNE
  6
CONTINUOUS
 62
    52
100
AcDbLine
 10
-121.162677
 20
-39.01723
 30
0.0
 11
-129.11046
 21
-39.01723
 31
0.0
  0
LINE
  5
338F
100
AcDbEntity
  8
V0-VYPLNE
  6
CONTINUOUS
 62
    52
100
AcDbLine
 10
-123.216409
 20
-34.01723
 30
0.0
 11
-129.110461
 21
-34.01723
 31
0.0
  0
LINE
  5
3390
100
AcDbEntity
  8
V0-VYPLNE
  6
CONTINUOUS
 62
    52
100
AcDbLine
 10
-126.163435
 20
-29.01723
 30
0.0
 11
-129.110461
 21
-29.01723
 31
0.0
  0
POINT
  5
33A3
100
AcDbEntity
  8
V0-VYPLNE
 48
2.0
100
AcDbPoint
 10
-778.110461
 20
-55.306201
 30
0.0
  0
POINT
  5
33A4
100
AcDbEntity
  8
V0-VYPLNE
 48
2.0
100
AcDbPoint
 10
-783.110461
 20
-342.871198
 30
0.0
  0
POINT
  5
33A5
100
AcDbEntity
  8
V0-VYPLNE
 48
2.0
100
AcDbPoint
 10
-168.110461
 20
-55.306201
 30
0.0
  0
VIEWPORT
  5
22
100
AcDbEntity
 67
     1
  8
0
100
AcDbViewport
 10
261.517699
 20
165.390006
 30
0.0
 40
523.035398
 41
330.780011
 68
    -1
 69
     1
1001
ACAD
1000
MVIEW
1002
{
1070
    16
1010
0.0
1020
0.0
1030
0.0
1010
0.0
1020
0.0
1030
1.0
1040
0.0
1040
330.780011
1040
261.517699
1040
165.390006
1040
50.0
1040
0.0
1040
0.0
1070
     0
1070
   100
1070
     1
1070
     0
1070
     0
1070
     0
1070
     0
1070
     0
1040
0.0
1040
0.0
1040
0.0
1040
1.0
1040
1.0
1040
10.0
1040
10.0
1070
     0
1002
{
1002
}
1002
}
  0
ENDSEC
  0
SECTION
  2
OBJECTS
  0
DICTIONARY
  5
C
100
AcDbDictionary
  3
ACAD_GROUP
350
D
  3
ACAD_MLINESTYLE
350
E
  3
ACDBVARIABLEDICTIONARY
350
86C
  3
CONTENTDICTIONARY
350
905
  0
DICTIONARY
  5
D
102
{ACAD_REACTORS
330
C
102
}
100
AcDbDictionary
  0
DICTIONARY
  5
E
102
{ACAD_REACTORS
330
C
102
}
100
AcDbDictionary
  3
STANDARD
350
13
  0
DICTIONARY
  5
86C
102
{ACAD_REACTORS
330
C
102
}
100
AcDbDictionary
  3
SORTENTS
350
86D
  0
DICTIONARY
  5
905
102
{ACAD_REACTORS
330
C
102
}
100
AcDbDictionary
  0
MLINESTYLE
  5
13
102
{ACAD_REACTORS
330
E
102
}
100
AcDbMlineStyle
  2
STANDARD
 70
     0
  3

 62
     0
 51
90.0
 52
90.0
 71
     2
 49
0.5
 62
   256
  6
BYLAYER
 49
-0.5
 62
   256
  6
BYLAYER
  0
DICTIONARYVAR
  5
86D
102
{ACAD_REACTORS
330
86C
102
}
100
DictionaryVariables
280
     0
  1
96
  0
ENDSEC
  0
EOF
