  0
SECTION
  2
HEADER
  9
$ACADVER
  1
AC1014
  9
$ACADMAINTVER
 70
     0
  9
$DWGCODEPAGE
  3
ANSI_1250
  9
$INSBASE
 10
0.0
 20
0.0
 30
0.0
  9
$EXTMIN
 10
10.0
 20
-426.5
 30
0.0
  9
$EXTMAX
 10
832.382128
 20
169.480799
 30
0.0
  9
$LIMMIN
 10
0.0
 20
0.0
  9
$LIMMAX
 10
420.0
 20
297.0
  9
$ORTHOMODE
 70
     0
  9
$REGENMODE
 70
     1
  9
$FILLMODE
 70
     1
  9
$QTEXTMODE
 70
     0
  9
$MIRRTEXT
 70
     1
  9
$DRAGMODE
 70
     2
  9
$LTSCALE
 40
1.0
  9
$OSMODE
 70
    39
  9
$ATTMODE
 70
     1
  9
$TEXTSIZE
 40
2.5
  9
$TRACEWID
 40
1.0
  9
$TEXTSTYLE
  7
STANDARD
  9
$CLAYER
  8
KOTY
  9
$CELTYPE
  6
BYLAYER
  9
$CECOLOR
 62
   256
  9
$CELTSCALE
 40
1.0
  9
$DELOBJ
 70
     1
  9
$DISPSILH
 70
     0
  9
$DIMSCALE
 40
1.0
  9
$DIMASZ
 40
20.0
  9
$DIMEXO
 40
0.625
  9
$DIMDLI
 40
3.75
  9
$DIMRND
 40
0.0
  9
$DIMDLE
 40
0.0
  9
$DIMEXE
 40
1.25
  9
$DIMTP
 40
0.0
  9
$DIMTM
 40
0.0
  9
$DIMTXT
 40
20.0
  9
$DIMCEN
 40
2.5
  9
$DIMTSZ
 40
0.0
  9
$DIMTOL
 70
     0
  9
$DIMLIM
 70
     0
  9
$DIMTIH
 70
     0
  9
$DIMTOH
 70
     0
  9
$DIMSE1
 70
     0
  9
$DIMSE2
 70
     0
  9
$DIMTAD
 70
     1
  9
$DIMZIN
 70
     8
  9
$DIMBLK
  1

  9
$DIMASO
 70
     1
  9
$DIMSHO
 70
     1
  9
$DIMPOST
  1

  9
$DIMAPOST
  1

  9
$DIMALT
 70
     0
  9
$DIMALTD
 70
     4
  9
$DIMALTF
 40
0.0394
  9
$DIMLFAC
 40
1.0
  9
$DIMTOFL
 70
     0
  9
$DIMTVP
 40
0.0
  9
$DIMTIX
 70
     0
  9
$DIMSOXD
 70
     0
  9
$DIMSAH
 70
     1
  9
$DIMBLK1
  1
_OPEN
  9
$DIMBLK2
  1
_OPEN
  9
$DIMSTYLE
  2
STANDARD
  9
$DIMCLRD
 70
     0
  9
$DIMCLRE
 70
     0
  9
$DIMCLRT
 70
     0
  9
$DIMTFAC
 40
1.0
  9
$DIMGAP
 40
3.0
  9
$DIMJUST
 70
     0
  9
$DIMSD1
 70
     0
  9
$DIMSD2
 70
     0
  9
$DIMTOLJ
 70
     1
  9
$DIMTZIN
 70
     0
  9
$DIMALTZ
 70
     0
  9
$DIMALTTZ
 70
     0
  9
$DIMFIT
 70
     3
  9
$DIMUPT
 70
     0
  9
$DIMUNIT
 70
     2
  9
$DIMDEC
 70
     0
  9
$DIMTDEC
 70
     4
  9
$DIMALTU
 70
     8
  9
$DIMALTTD
 70
     4
  9
$DIMTXSTY
  7
SIMPLEX
  9
$DIMAUNIT
 70
     0
  9
$LUNITS
 70
     2
  9
$LUPREC
 70
     4
  9
$SKETCHINC
 40
1.0
  9
$FILLETRAD
 40
10.0
  9
$AUNITS
 70
     0
  9
$AUPREC
 70
     0
  9
$MENU
  1
.
  9
$ELEVATION
 40
0.0
  9
$PELEVATION
 40
0.0
  9
$THICKNESS
 40
0.0
  9
$LIMCHECK
 70
     0
  9
$BLIPMODE
 70
     0
  9
$CHAMFERA
 40
10.0
  9
$CHAMFERB
 40
10.0
  9
$CHAMFERC
 40
20.0
  9
$CHAMFERD
 40
0.0
  9
$SKPOLY
 70
     0
  9
$TDCREATE
 40
2451201.434811458
  9
$TDUPDATE
 40
2453315.459654583
  9
$TDINDWG
 40
0.0398356134
  9
$TDUSRTIMER
 40
0.0398356134
  9
$USRTIMER
 70
     1
  9
$ANGBASE
 50
0.0
  9
$ANGDIR
 70
     0
  9
$PDMODE
 70
     3
  9
$PDSIZE
 40
15.0
  9
$PLINEWID
 40
0.0
  9
$COORDS
 70
     1
  9
$SPLFRAME
 70
     0
  9
$SPLINETYPE
 70
     6
  9
$SPLINESEGS
 70
     8
  9
$ATTDIA
 70
     0
  9
$ATTREQ
 70
     1
  9
$HANDLING
 70
     1
  9
$HANDSEED
  5
58F
  9
$SURFTAB1
 70
     6
  9
$SURFTAB2
 70
     6
  9
$SURFTYPE
 70
     6
  9
$SURFU
 70
     6
  9
$SURFV
 70
     6
  9
$UCSNAME
  2

  9
$UCSORG
 10
95.0
 20
-339.9999999999999
 30
0.0
  9
$UCSXDIR
 10
1.0
 20
0.0
 30
0.0
  9
$UCSYDIR
 10
0.0
 20
1.0
 30
0.0
  9
$PUCSNAME
  2

  9
$PUCSORG
 10
0.0
 20
0.0
 30
0.0
  9
$PUCSXDIR
 10
1.0
 20
0.0
 30
0.0
  9
$PUCSYDIR
 10
0.0
 20
1.0
 30
0.0
  9
$USERI1
 70
     0
  9
$USERI2
 70
     0
  9
$USERI3
 70
     0
  9
$USERI4
 70
     0
  9
$USERI5
 70
     0
  9
$USERR1
 40
0.0
  9
$USERR2
 40
0.0
  9
$USERR3
 40
0.0
  9
$USERR4
 40
0.0
  9
$USERR5
 40
0.0
  9
$WORLDVIEW
 70
     1
  9
$SHADEDGE
 70
     3
  9
$SHADEDIF
 70
    70
  9
$TILEMODE
 70
     1
  9
$MAXACTVP
 70
    48
  9
$PINSBASE
 10
0.0
 20
0.0
 30
0.0
  9
$PLIMCHECK
 70
     0
  9
$PEXTMIN
 10
1.000000E+20
 20
1.000000E+20
 30
1.000000E+20
  9
$PEXTMAX
 10
-1.000000E+20
 20
-1.000000E+20
 30
-1.000000E+20
  9
$PLIMMIN
 10
0.0
 20
0.0
  9
$PLIMMAX
 10
420.0
 20
297.0
  9
$UNITMODE
 70
     0
  9
$VISRETAIN
 70
     1
  9
$PLINEGEN
 70
     0
  9
$PSLTSCALE
 70
     1
  9
$TREEDEPTH
 70
  3020
  9
$PICKSTYLE
 70
     1
  9
$CMLSTYLE
  2
STANDARD
  9
$CMLJUST
 70
     0
  9
$CMLSCALE
 40
20.0
  9
$PROXYGRAPHICS
 70
     1
  9
$MEASUREMENT
 70
     1
  0
ENDSEC
  0
SECTION
  2
CLASSES
  0
ENDSEC
  0
SECTION
  2
TABLES
  0
TABLE
  2
VPORT
  5
8
100
AcDbSymbolTable
 70
     2
  0
VPORT
  5
58E
100
AcDbSymbolTableRecord
100
AcDbViewportTableRecord
  2
*ACTIVE
 70
     0
 10
0.0
 20
0.0
 11
1.0
 21
1.0
 12
444.490664
 22
-108.239936
 13
0.0
 23
0.0
 14
10.0
 24
10.0
 15
10.0
 25
10.0
 16
0.0
 26
0.0
 36
1.0
 17
0.0
 27
0.0
 37
0.0
 40
661.424369
 41
1.523346
 42
50.0
 43
0.0
 44
0.0
 50
0.0
 51
0.0
 71
     0
 72
   100
 73
     1
 74
     1
 75
     0
 76
     0
 77
     0
 78
     0
  0
ENDTAB
  0
TABLE
  2
LTYPE
  5
5
100
AcDbSymbolTable
 70
     2
  0
LTYPE
  5
12
100
AcDbSymbolTableRecord
100
AcDbLinetypeTableRecord
  2
BYBLOCK
 70
     0
  3

 72
    65
 73
     0
 40
0.0
  0
LTYPE
  5
13
100
AcDbSymbolTableRecord
100
AcDbLinetypeTableRecord
  2
BYLAYER
 70
     0
  3

 72
    65
 73
     0
 40
0.0
  0
LTYPE
  5
14
100
AcDbSymbolTableRecord
100
AcDbLinetypeTableRecord
  2
CONTINUOUS
 70
     0
  3
Solid line
 72
    65
 73
     0
 40
0.0
  0
LTYPE
  5
AE
100
AcDbSymbolTableRecord
100
AcDbLinetypeTableRecord
  2
DASHDOT
 70
     0
  3
__ . __ . __ . __ . __ . __ . __ . __ . __ . __
 72
    65
 73
     4
 40
1.0
 49
0.5
 74
     0
 49
-0.25
 74
     0
 49
0.0
 74
     0
 49
-0.25
 74
     0
  0
ENDTAB
  0
TABLE
  2
LAYER
  5
2
100
AcDbSymbolTable
 70
     7
  0
LAYER
  5
E
100
AcDbSymbolTableRecord
100
AcDbLayerTableRecord
  2
0
 70
     0
 62
     7
  6
CONTINUOUS
  0
LAYER
  5
C3
100
AcDbSymbolTableRecord
100
AcDbLayerTableRecord
  2
KOTY
 70
     0
 62
    41
  6
CONTINUOUS
  0
LAYER
  5
CB
100
AcDbSymbolTableRecord
100
AcDbLayerTableRecord
  2
DEFPOINTS
 70
     0
 62
     7
  6
CONTINUOUS
  0
LAYER
  5
569
100
AcDbSymbolTableRecord
100
AcDbLayerTableRecord
  2
V0-OBRYS
 70
     0
 62
    90
  6
CONTINUOUS
  0
LAYER
  5
56A
100
AcDbSymbolTableRecord
100
AcDbLayerTableRecord
  2
V0-VYPLNE
 70
     0
 62
    52
  6
CONTINUOUS
  0
LAYER
  5
56B
100
AcDbSymbolTableRecord
100
AcDbLayerTableRecord
  2
V0-NAZVY
 70
     0
 62
   210
  6
CONTINUOUS
  0
LAYER
  5
56C
100
AcDbSymbolTableRecord
100
AcDbLayerTableRecord
  2
V0-ZBYTEK
 70
     0
 62
    51
  6
CONTINUOUS
  0
ENDTAB
  0
TABLE
  2
STYLE
  5
3
100
AcDbSymbolTable
 70
     3
  0
STYLE
  5
F
100
AcDbSymbolTableRecord
100
AcDbTextStyleTableRecord
  2
STANDARD
 70
     0
 40
0.0
 41
1.0
 50
0.0
 71
     0
 42
2.5
  3
txt
  4

  0
STYLE
  5
CE
100
AcDbSymbolTableRecord
100
AcDbTextStyleTableRecord
  2
SIMPLEX
 70
     0
 40
0.0
 41
1.0
 50
0.0
 71
     0
 42
0.2
  3
SIMPLEX
  4

  0
STYLE
  5
56E
100
AcDbSymbolTableRecord
100
AcDbTextStyleTableRecord
  2
ED
 70
     0
 40
20.0
 41
1.0
 50
0.0
 71
     0
 42
2.5
  3
ISOCP.shx
  4

  0
ENDTAB
  0
TABLE
  2
VIEW
  5
6
100
AcDbSymbolTable
 70
     0
  0
ENDTAB
  0
TABLE
  2
UCS
  5
7
100
AcDbSymbolTable
 70
     0
  0
ENDTAB
  0
TABLE
  2
APPID
  5
9
100
AcDbSymbolTable
 70
     1
  0
APPID
  5
10
100
AcDbSymbolTableRecord
100
AcDbRegAppTableRecord
  2
ACAD
 70
     0
  0
ENDTAB
  0
TABLE
  2
DIMSTYLE
  5
A
100
AcDbSymbolTable
 70
     1
  0
DIMSTYLE
105
1D
102
{ACAD_REACTORS
330
314
330
241
330
491
330
4A3
102
}
100
AcDbSymbolTableRecord
100
AcDbDimStyleTableRecord
  2
STANDARD
 70
     0
  3

  4

  5

  6

  7

 40
1.0
 41
0.18
 42
0.0625
 43
0.38
 44
0.18
 45
0.0
 46
0.0
 47
0.0
 48
0.0
140
0.18
141
0.09
142
0.0
143
25.4
144
1.0
145
0.0
146
1.0
147
0.09
 71
     0
 72
     0
 73
     1
 74
     1
 75
     0
 76
     0
 77
     0
 78
     0
170
     0
171
     2
172
     0
173
     0
174
     0
175
     0
176
     0
177
     0
178
     0
270
     2
271
     4
272
     4
273
     2
274
     2
340
F
275
     0
280
     0
281
     0
282
     0
283
     1
284
     0
285
     0
286
     0
287
     3
288
     0
  0
ENDTAB
  0
TABLE
  2
BLOCK_RECORD
  5
1
100
AcDbSymbolTable
 70
     8
  0
BLOCK_RECORD
  5
18
100
AcDbSymbolTableRecord
100
AcDbBlockTableRecord
  2
*MODEL_SPACE
  0
BLOCK_RECORD
  5
15
100
AcDbSymbolTableRecord
100
AcDbBlockTableRecord
  2
*PAPER_SPACE
  0
BLOCK_RECORD
  5
6D
100
AcDbSymbolTableRecord
100
AcDbBlockTableRecord
  2
_OPEN
  0
BLOCK_RECORD
  5
2B8
100
AcDbSymbolTableRecord
100
AcDbBlockTableRecord
  2
*D1
  0
BLOCK_RECORD
  5
2C4
100
AcDbSymbolTableRecord
100
AcDbBlockTableRecord
  2
*D2
  0
BLOCK_RECORD
  5
2D0
100
AcDbSymbolTableRecord
100
AcDbBlockTableRecord
  2
*D3
  0
BLOCK_RECORD
  5
308
100
AcDbSymbolTableRecord
100
AcDbBlockTableRecord
  2
*D4
  0
BLOCK_RECORD
  5
485
100
AcDbSymbolTableRecord
100
AcDbBlockTableRecord
  2
*D5
  0
BLOCK_RECORD
  5
496
100
AcDbSymbolTableRecord
100
AcDbBlockTableRecord
  2
*D6
  0
BLOCK_RECORD
  5
575
100
AcDbSymbolTableRecord
100
AcDbBlockTableRecord
  2
ABBB
  0
ENDTAB
  0
ENDSEC
  0
SECTION
  2
BLOCKS
  0
BLOCK
  5
19
100
AcDbEntity
  8
0
100
AcDbBlockBegin
  2
*MODEL_SPACE
 70
     0
 10
0.0
 20
0.0
 30
0.0
  3
*MODEL_SPACE
  1

  0
ENDBLK
  5
1A
100
AcDbEntity
  8
0
100
AcDbBlockEnd
  0
BLOCK
  5
16
100
AcDbEntity
 67
     1
  8
0
100
AcDbBlockBegin
  2
*PAPER_SPACE
 70
     0
 10
0.0
 20
0.0
 30
0.0
  3
*PAPER_SPACE
  1

  0
ENDBLK
  5
17
100
AcDbEntity
 67
     1
  8
0
100
AcDbBlockEnd
  0
BLOCK
  5
71
100
AcDbEntity
  8
0
100
AcDbBlockBegin
  2
_OPEN
 70
     0
 10
0.0
 20
0.0
 30
0.0
  3
_OPEN
  1

  0
LINE
  5
6E
100
AcDbEntity
  8
0
  6
BYBLOCK
 62
     0
100
AcDbLine
 10
-1.0
 20
0.166667
 30
0.0
 11
0.0
 21
0.0
 31
0.0
  0
LINE
  5
6F
100
AcDbEntity
  8
0
  6
BYBLOCK
 62
     0
100
AcDbLine
 10
0.0
 20
0.0
 30
0.0
 11
-1.0
 21
-0.166667
 31
0.0
  0
LINE
  5
70
100
AcDbEntity
  8
0
  6
BYBLOCK
 62
     0
100
AcDbLine
 10
0.0
 20
0.0
 30
0.0
 11
-1.0
 21
0.0
 31
0.0
  0
ENDBLK
  5
72
100
AcDbEntity
  8
0
100
AcDbBlockEnd
  0
BLOCK
  5
2E7
100
AcDbEntity
  8
0
100
AcDbBlockBegin
  2
*D1
 70
     1
 10
0.0
 20
0.0
 30
0.0
  3
*D1
  1

  0
LINE
  5
2E8
100
AcDbEntity
  8
0
  6
BYBLOCK
 62
     0
100
AcDbLine
 10
608.5
 20
-113.5
 30
0.0
 11
608.5
 21
-151.231976
 31
0.0
  0
LINE
  5
2E9
100
AcDbEntity
  8
0
  6
BYBLOCK
 62
     0
100
AcDbLine
 10
791.5
 20
-113.5
 30
0.0
 11
791.5
 21
-151.231976
 31
0.0
  0
LINE
  5
2EA
100
AcDbEntity
  8
0
  6
BYBLOCK
 62
     0
100
AcDbLine
 10
628.5
 20
-149.231976
 30
0.0
 11
771.5
 21
-149.231976
 31
0.0
  0
INSERT
  5
2EB
100
AcDbEntity
  8
0
  6
BYBLOCK
 62
     0
100
AcDbBlockReference
  2
_OPEN
 10
608.5
 20
-149.231976
 30
0.0
 41
20.0
 42
20.0
 43
20.0
 50
180.0
  0
INSERT
  5
2EC
100
AcDbEntity
  8
0
  6
BYBLOCK
 62
     0
100
AcDbBlockReference
  2
_OPEN
 10
791.5
 20
-149.231976
 30
0.0
 41
20.0
 42
20.0
 43
20.0
  0
MTEXT
  5
2ED
100
AcDbEntity
  8
0
  6
BYBLOCK
 62
     0
100
AcDbMText
 10
700.0
 20
-136.231976
 30
0.0
 40
20.0
 41
0.0
 71
     5
 72
     1
  1
\A1;183
  7
SIMPLEX
  0
POINT
  5
2EE
100
AcDbEntity
  8
DEFPOINTS
  6
BYBLOCK
 62
     0
100
AcDbPoint
 10
608.5
 20
-112.5
 30
0.0
  0
POINT
  5
2EF
100
AcDbEntity
  8
DEFPOINTS
  6
BYBLOCK
 62
     0
100
AcDbPoint
 10
791.5
 20
-112.5
 30
0.0
  0
POINT
  5
2F0
100
AcDbEntity
  8
DEFPOINTS
  6
BYBLOCK
 62
     0
100
AcDbPoint
 10
791.5
 20
-149.231976
 30
0.0
  0
ENDBLK
  5
2F1
100
AcDbEntity
  8
0
100
AcDbBlockEnd
  0
BLOCK
  5
4C5
100
AcDbEntity
  8
0
100
AcDbBlockBegin
  2
*D2
 70
     1
 10
0.0
 20
0.0
 30
0.0
  3
*D2
  1

  0
LINE
  5
4C6
100
AcDbEntity
  8
0
  6
BYBLOCK
 62
     0
100
AcDbLine
 10
50.0
 20
-63.5
 30
0.0
 11
50.0
 21
-153.235646
 31
0.0
  0
LINE
  5
4C7
100
AcDbEntity
  8
0
  6
BYBLOCK
 62
     0
100
AcDbLine
 10
430.0
 20
-63.5
 30
0.0
 11
430.0
 21
-153.235646
 31
0.0
  0
LINE
  5
4C8
100
AcDbEntity
  8
0
  6
BYBLOCK
 62
     0
100
AcDbLine
 10
70.0
 20
-151.235646
 30
0.0
 11
410.0
 21
-151.235646
 31
0.0
  0
MTEXT
  5
4C9
100
AcDbEntity
  8
0
  6
BYBLOCK
 62
     0
100
AcDbMText
 10
246.727826
 20
-138.117323
 30
0.0
 40
20.0
 41
0.0
 71
     5
 72
     1
  1
\A1;380
  7
SIMPLEX
  0
INSERT
  5
4CA
100
AcDbEntity
  8
0
  6
BYBLOCK
 62
     0
100
AcDbBlockReference
  2
_OPEN
 10
50.0
 20
-151.235646
 30
0.0
 41
20.0
 42
20.0
 43
20.0
 50
180.0
  0
INSERT
  5
4CB
100
AcDbEntity
  8
0
  6
BYBLOCK
 62
     0
100
AcDbBlockReference
  2
_OPEN
 10
430.0
 20
-151.235646
 30
0.0
 41
20.0
 42
20.0
 43
20.0
  0
POINT
  5
4CC
100
AcDbEntity
  8
DEFPOINTS
  6
BYBLOCK
 62
     0
100
AcDbPoint
 10
50.0
 20
-62.5
 30
0.0
  0
POINT
  5
4CD
100
AcDbEntity
  8
DEFPOINTS
  6
BYBLOCK
 62
     0
100
AcDbPoint
 10
430.0
 20
-62.5
 30
0.0
  0
POINT
  5
4CE
100
AcDbEntity
  8
DEFPOINTS
  6
BYBLOCK
 62
     0
100
AcDbPoint
 10
430.0
 20
-151.235646
 30
0.0
  0
ENDBLK
  5
4CF
100
AcDbEntity
  8
0
100
AcDbBlockEnd
  0
BLOCK
  5
2FD
100
AcDbEntity
  8
0
100
AcDbBlockBegin
  2
*D3
 70
     1
 10
0.0
 20
0.0
 30
0.0
  3
*D3
  1

  0
LINE
  5
2FE
100
AcDbEntity
  8
0
  6
BYBLOCK
 62
     0
100
AcDbLine
 10
792.5
 20
-112.5
 30
0.0
 11
831.048794
 21
-112.5
 31
0.0
  0
LINE
  5
2FF
100
AcDbEntity
  8
0
  6
BYBLOCK
 62
     0
100
AcDbLine
 10
795.5
 20
112.5
 30
0.0
 11
831.048794
 21
112.5
 31
0.0
  0
LINE
  5
300
100
AcDbEntity
  8
0
  6
BYBLOCK
 62
     0
100
AcDbLine
 10
829.048794
 20
-92.5
 30
0.0
 11
829.048794
 21
92.5
 31
0.0
  0
INSERT
  5
301
100
AcDbEntity
  8
0
  6
BYBLOCK
 62
     0
100
AcDbBlockReference
  2
_OPEN
 10
829.048794
 20
-112.5
 30
0.0
 41
20.0
 42
20.0
 43
20.0
 50
270.0
  0
INSERT
  5
302
100
AcDbEntity
  8
0
  6
BYBLOCK
 62
     0
100
AcDbBlockReference
  2
_OPEN
 10
829.048794
 20
112.5
 30
0.0
 41
20.0
 42
20.0
 43
20.0
 50
90.0
  0
MTEXT
  5
303
100
AcDbEntity
  8
0
  6
BYBLOCK
 62
     0
100
AcDbMText
 10
816.048794
 20
0.0
 30
0.0
 40
20.0
 41
0.0
 71
     5
 72
     1
  1
\A1;225
  7
SIMPLEX
 11
0.0
 21
1.0
 31
0.0
  0
POINT
  5
304
100
AcDbEntity
  8
DEFPOINTS
  6
BYBLOCK
 62
     0
100
AcDbPoint
 10
791.5
 20
-112.5
 30
0.0
  0
POINT
  5
305
100
AcDbEntity
  8
DEFPOINTS
  6
BYBLOCK
 62
     0
100
AcDbPoint
 10
794.5
 20
112.5
 30
0.0
  0
POINT
  5
306
100
AcDbEntity
  8
DEFPOINTS
  6
BYBLOCK
 62
     0
100
AcDbPoint
 10
829.048794
 20
112.5
 30
0.0
  0
ENDBLK
  5
307
100
AcDbEntity
  8
0
100
AcDbBlockEnd
  0
BLOCK
  5
362
100
AcDbEntity
  8
0
100
AcDbBlockBegin
  2
*D4
 70
     1
 10
0.0
 20
0.0
 30
0.0
  3
*D4
  1

  0
LINE
  5
363
100
AcDbEntity
  8
0
  6
BYBLOCK
 62
     0
100
AcDbLine
 10
430.625
 20
62.5
 30
0.0
 11
472.668671
 21
62.5
 31
0.0
  0
LINE
  5
364
100
AcDbEntity
  8
0
  6
BYBLOCK
 62
     0
100
AcDbLine
 10
430.625
 20
-62.5
 30
0.0
 11
472.668671
 21
-62.5
 31
0.0
  0
LINE
  5
365
100
AcDbEntity
  8
0
  6
BYBLOCK
 62
     0
100
AcDbLine
 10
471.418671
 20
42.5
 30
0.0
 11
471.418671
 21
-42.5
 31
0.0
  0
INSERT
  5
366
100
AcDbEntity
  8
0
  6
BYBLOCK
 62
     0
100
AcDbBlockReference
  2
_OPEN
 10
471.418671
 20
62.5
 30
0.0
 41
20.0
 42
20.0
 43
20.0
 50
90.0
  0
INSERT
  5
367
100
AcDbEntity
  8
0
  6
BYBLOCK
 62
     0
100
AcDbBlockReference
  2
_OPEN
 10
471.418671
 20
-62.5
 30
0.0
 41
20.0
 42
20.0
 43
20.0
 50
270.0
  0
MTEXT
  5
368
100
AcDbEntity
  8
0
  6
BYBLOCK
 62
     0
100
AcDbMText
 10
458.418671
 20
-2.110017
 30
0.0
 40
20.0
 41
0.0
 71
     5
 72
     1
  1
\A1;\U+2205125
  7
SIMPLEX
 11
0.0
 21
1.0
 31
0.0
  0
POINT
  5
369
100
AcDbEntity
  8
DEFPOINTS
  6
BYBLOCK
 62
     0
100
AcDbPoint
 10
430.0
 20
62.5
 30
0.0
  0
POINT
  5
36A
100
AcDbEntity
  8
DEFPOINTS
  6
BYBLOCK
 62
     0
100
AcDbPoint
 10
430.0
 20
-62.5
 30
0.0
  0
POINT
  5
36B
100
AcDbEntity
  8
DEFPOINTS
  6
BYBLOCK
 62
     0
100
AcDbPoint
 10
471.418671
 20
-62.5
 30
0.0
  0
ENDBLK
  5
36C
100
AcDbEntity
  8
0
100
AcDbBlockEnd
  0
BLOCK
  5
486
100
AcDbEntity
  8
0
100
AcDbBlockBegin
  2
*D5
 70
     1
 10
0.0
 20
0.0
 30
0.0
  3
*D5
  1

  0
LINE
  5
487
100
AcDbEntity
  8
0
  6
BYBLOCK
 62
     0
100
AcDbLine
 10
630.0
 20
99.540421
 30
0.0
 11
630.0
 21
147.730799
 31
0.0
  0
LINE
  5
488
100
AcDbEntity
  8
0
  6
BYBLOCK
 62
     0
100
AcDbLine
 10
770.0
 20
99.540421
 30
0.0
 11
770.0
 21
147.730799
 31
0.0
  0
LINE
  5
489
100
AcDbEntity
  8
0
  6
BYBLOCK
 62
     0
100
AcDbLine
 10
650.0
 20
146.480799
 30
0.0
 11
750.0
 21
146.480799
 31
0.0
  0
INSERT
  5
48A
100
AcDbEntity
  8
0
  6
BYBLOCK
 62
     0
100
AcDbBlockReference
  2
_OPEN
 10
630.0
 20
146.480799
 30
0.0
 41
20.0
 42
20.0
 43
20.0
 50
180.0
  0
INSERT
  5
48B
100
AcDbEntity
  8
0
  6
BYBLOCK
 62
     0
100
AcDbBlockReference
  2
_OPEN
 10
770.0
 20
146.480799
 30
0.0
 41
20.0
 42
20.0
 43
20.0
  0
MTEXT
  5
48C
100
AcDbEntity
  8
0
  6
BYBLOCK
 62
     0
100
AcDbMText
 10
700.0
 20
159.480799
 30
0.0
 40
20.0
 41
0.0
 71
     5
 72
     1
  1
\A1;140
  7
SIMPLEX
  0
POINT
  5
48D
100
AcDbEntity
  8
DEFPOINTS
  6
BYBLOCK
 62
     0
100
AcDbPoint
 10
630.0
 20
98.915421
 30
0.0
  0
POINT
  5
48E
100
AcDbEntity
  8
DEFPOINTS
  6
BYBLOCK
 62
     0
100
AcDbPoint
 10
770.0
 20
98.915421
 30
0.0
  0
POINT
  5
48F
100
AcDbEntity
  8
DEFPOINTS
  6
BYBLOCK
 62
     0
100
AcDbPoint
 10
770.0
 20
146.480799
 30
0.0
  0
ENDBLK
  5
490
100
AcDbEntity
  8
0
100
AcDbBlockEnd
  0
BLOCK
  5
497
100
AcDbEntity
  8
0
100
AcDbBlockBegin
  2
*D6
 70
     1
 10
0.0
 20
0.0
 30
0.0
  3
*D6
  1

  0
LINE
  5
498
100
AcDbEntity
  8
0
  6
BYBLOCK
 62
     0
100
AcDbLine
 10
50.0
 20
-64.125
 30
0.0
 11
50.0
 21
-139.367323
 31
0.0
  0
LINE
  5
499
100
AcDbEntity
  8
0
  6
BYBLOCK
 62
     0
100
AcDbLine
 10
90.0
 20
-56.875
 30
0.0
 11
90.0
 21
-139.367323
 31
0.0
  0
LINE
  5
49A
100
AcDbEntity
  8
0
  6
BYBLOCK
 62
     0
100
AcDbLine
 10
30.0
 20
-138.117323
 30
0.0
 11
10.0
 21
-138.117323
 31
0.0
  0
LINE
  5
49B
100
AcDbEntity
  8
0
  6
BYBLOCK
 62
     0
100
AcDbLine
 10
110.0
 20
-138.117323
 30
0.0
 11
130.0
 21
-138.117323
 31
0.0
  0
INSERT
  5
49C
100
AcDbEntity
  8
0
  6
BYBLOCK
 62
     0
100
AcDbBlockReference
  2
_OPEN
 10
50.0
 20
-138.117323
 30
0.0
 41
20.0
 42
20.0
 43
20.0
  0
INSERT
  5
49D
100
AcDbEntity
  8
0
  6
BYBLOCK
 62
     0
100
AcDbBlockReference
  2
_OPEN
 10
90.0
 20
-138.117323
 30
0.0
 41
20.0
 42
20.0
 43
20.0
 50
180.0
  0
MTEXT
  5
49E
100
AcDbEntity
  8
0
  6
BYBLOCK
 62
     0
100
AcDbMText
 10
70.0
 20
-125.117323
 30
0.0
 40
20.0
 41
0.0
 71
     5
 72
     1
  1
\A1;40
  7
SIMPLEX
  0
POINT
  5
49F
100
AcDbEntity
  8
DEFPOINTS
  6
BYBLOCK
 62
     0
100
AcDbPoint
 10
50.0
 20
-63.5
 30
0.0
  0
POINT
  5
4A0
100
AcDbEntity
  8
DEFPOINTS
  6
BYBLOCK
 62
     0
100
AcDbPoint
 10
90.0
 20
-56.25
 30
0.0
  0
POINT
  5
4A1
100
AcDbEntity
  8
DEFPOINTS
  6
BYBLOCK
 62
     0
100
AcDbPoint
 10
90.0
 20
-138.117323
 30
0.0
  0
ENDBLK
  5
4A2
100
AcDbEntity
  8
0
100
AcDbBlockEnd
  0
BLOCK
  5
576
100
AcDbEntity
  8
0
100
AcDbBlockBegin
  2
ABBB
 70
     0
 10
0.0
 20
0.0
 30
0.0
  3
ABBB
  1

  0
ENDBLK
  5
577
100
AcDbEntity
  8
0
100
AcDbBlockEnd
  0
ENDSEC
  0
SECTION
  2
ENTITIES
  0
LINE
  5
1C0
100
AcDbEntity
  8
V0-OBRYS
  6
CONTINUOUS
 62
    90
100
AcDbLine
 10
50.0
 20
90.0
 30
0.0
 11
50.0
 21
85.0
 31
0.0
  0
LINE
  5
1C1
100
AcDbEntity
  8
V0-VYPLNE
  6
DASHDOT
 62
    63
 48
20.0
100
AcDbLine
 10
95.379578
 20
87.5
 30
0.0
 11
42.700928
 21
87.5
 31
0.0
  0
LINE
  5
1C2
100
AcDbEntity
  8
V0-VYPLNE
  6
DASHDOT
 62
    63
 48
20.0
100
AcDbLine
 10
424.955855
 20
0.0
 30
0.0
 11
42.080452
 21
0.0
 31
0.0
  0
LINE
  5
1C3
100
AcDbEntity
  8
V0-VYPLNE
  6
DASHDOT
 62
    63
 48
20.0
100
AcDbLine
 10
445.195923
 20
-340.0
 30
0.0
 11
42.080452
 21
-340.0
 31
0.0
  0
LINE
  5
1C4
100
AcDbEntity
  8
V0-VYPLNE
  6
DASHDOT
 62
    63
 48
20.0
100
AcDbLine
 10
85.0
 20
-270.0
 30
0.0
 11
42.700928
 21
-270.0
 31
0.0
  0
LINE
  5
1C5
100
AcDbEntity
  8
V0-OBRYS
  6
CONTINUOUS
 62
    90
100
AcDbLine
 10
50.0
 20
-412.5
 30
0.0
 11
50.0
 21
-407.5
 31
0.0
  0
LINE
  5
1C6
100
AcDbEntity
  8
V0-VYPLNE
  6
DASHDOT
 62
    63
 48
20.0
100
AcDbLine
 10
85.0
 20
-410.0
 30
0.0
 11
42.700928
 21
-410.0
 31
0.0
  0
LINE
  5
1C7
100
AcDbEntity
  8
V0-VYPLNE
  6
DASHDOT
 62
    63
 48
20.0
100
AcDbLine
 10
617.508972
 20
87.5
 30
0.0
 11
642.495483
 21
87.5
 31
0.0
  0
LINE
  5
1C8
100
AcDbEntity
  8
V0-VYPLNE
  6
DASHDOT
 62
    63
 48
20.0
100
AcDbLine
 10
630.0
 20
98.915421
 30
0.0
 11
630.0
 21
73.201599
 31
0.0
  0
LINE
  5
1C9
100
AcDbEntity
  8
V0-VYPLNE
  6
DASHDOT
 62
    63
 48
20.0
100
AcDbLine
 10
782.491028
 20
87.5
 30
0.0
 11
757.504517
 21
87.5
 31
0.0
  0
TEXT
  5
1CA
100
AcDbEntity
  8
V0-NAZVY
  6
CONTINUOUS
 62
   210
100
AcDbText
 10
570.611944
 20
-276.059113
 30
0.0
 40
30.0
  1
MBW-125
  7
SIMPLEX
 72
     1
 11
674.183372
 21
-276.059113
 31
0.0
100
AcDbText
  0
TEXT
  5
1CB
100
AcDbEntity
  8
V0-ZBYTEK
  6
CONTINUOUS
 62
    51
100
AcDbText
 10
549.039546
 20
-359.151489
 30
0.0
 40
15.0
  1
PRO KRUHOVA POTRUBI
  7
SIMPLEX
 72
     1
 11
683.682404
 21
-359.151489
 31
0.0
100
AcDbText
  0
TEXT
  5
1CC
100
AcDbEntity
  8
V0-ZBYTEK
  6
CONTINUOUS
 62
   130
100
AcDbText
 10
536.468471
 20
-324.936981
 30
0.0
 40
25.0
  1
VODNI OHRIVAC
  7
SIMPLEX
 72
     1
 11
680.51609
 21
-324.936981
 31
0.0
100
AcDbText
  0
LINE
  5
1CD
100
AcDbEntity
  8
V0-OBRYS
  6
CONTINUOUS
 62
    90
100
AcDbLine
 10
50.0
 20
0.0
 30
0.0
 11
50.0
 21
62.5
 31
0.0
  0
LINE
  5
1CE
100
AcDbEntity
  8
V0-OBRYS
  6
CONTINUOUS
 62
    90
100
AcDbLine
 10
59.345802
 20
0.0
 30
0.0
 11
59.345802
 21
65.720371
 31
0.0
  0
LINE
  5
1CF
100
AcDbEntity
  8
V0-OBRYS
  6
CONTINUOUS
 62
    90
100
AcDbLine
 10
59.345802
 20
65.720371
 30
0.0
 11
64.130844
 21
65.720371
 31
0.0
  0
LINE
  5
1D0
100
AcDbEntity
  8
V0-OBRYS
  6
CONTINUOUS
 62
    90
100
AcDbLine
 10
64.130844
 20
65.720371
 30
0.0
 11
64.130844
 21
-0.100907
 31
0.0
  0
LINE
  5
1D1
100
AcDbEntity
  8
V0-OBRYS
  6
CONTINUOUS
 62
    90
100
AcDbLine
 10
59.358932
 20
62.5
 30
0.0
 11
50.0
 21
62.5
 31
0.0
  0
LINE
  5
1D2
100
AcDbEntity
  8
V0-OBRYS
  6
CONTINUOUS
 62
    90
100
AcDbLine
 10
64.146248
 20
62.5
 30
0.0
 11
90.0
 21
62.5
 31
0.0
  0
LINE
  5
1D3
100
AcDbEntity
  8
V0-OBRYS
  6
CONTINUOUS
 62
    90
100
AcDbLine
 10
430.0
 20
0.0
 30
0.0
 11
430.0
 21
62.5
 31
0.0
  0
LINE
  5
1D4
100
AcDbEntity
  8
V0-OBRYS
  6
CONTINUOUS
 62
    90
100
AcDbLine
 10
420.654205
 20
0.0
 30
0.0
 11
420.654205
 21
65.720364
 31
0.0
  0
LINE
  5
1D5
100
AcDbEntity
  8
V0-OBRYS
  6
CONTINUOUS
 62
    90
100
AcDbLine
 10
420.654205
 20
65.720364
 30
0.0
 11
415.869141
 21
65.720364
 31
0.0
  0
LINE
  5
1D6
100
AcDbEntity
  8
V0-OBRYS
  6
CONTINUOUS
 62
    90
100
AcDbLine
 10
415.869141
 20
65.720364
 30
0.0
 11
415.869141
 21
-0.100906
 31
0.0
  0
LINE
  5
1D7
100
AcDbEntity
  8
V0-OBRYS
  6
CONTINUOUS
 62
    90
100
AcDbLine
 10
420.641052
 20
62.5
 30
0.0
 11
430.0
 21
62.5
 31
0.0
  0
LINE
  5
1D8
100
AcDbEntity
  8
V0-OBRYS
  6
CONTINUOUS
 62
    90
100
AcDbLine
 10
415.85376
 20
62.5
 30
0.0
 11
390.0
 21
62.5
 31
0.0
  0
LINE
  5
1D9
100
AcDbEntity
  8
V0-OBRYS
  6
CONTINUOUS
 62
    90
100
AcDbLine
 10
90.0
 20
85.0
 30
0.0
 11
50.0
 21
85.0
 31
0.0
  0
LINE
  5
1DA
100
AcDbEntity
  8
V0-OBRYS
  6
CONTINUOUS
 62
    90
100
AcDbLine
 10
90.0
 20
90.0
 30
0.0
 11
50.0
 21
90.0
 31
0.0
  0
LINE
  5
1DB
100
AcDbEntity
  8
V0-OBRYS
  6
CONTINUOUS
 62
    90
100
AcDbLine
 10
90.0
 20
-112.5
 30
0.0
 11
90.0
 21
0.0
 31
0.0
  0
LINE
  5
1DC
100
AcDbEntity
  8
V0-OBRYS
  6
CONTINUOUS
 62
    90
100
AcDbLine
 10
90.0
 20
-112.5
 30
0.0
 11
390.0
 21
-112.5
 31
0.0
  0
LINE
  5
1DD
100
AcDbEntity
  8
V0-OBRYS
  6
CONTINUOUS
 62
    90
100
AcDbLine
 10
50.0
 20
0.0
 30
0.0
 11
50.0
 21
-62.5
 31
0.0
  0
LINE
  5
1DE
100
AcDbEntity
  8
V0-OBRYS
  6
CONTINUOUS
 62
    90
100
AcDbLine
 10
59.345802
 20
0.0
 30
0.0
 11
59.345802
 21
-65.720371
 31
0.0
  0
LINE
  5
1DF
100
AcDbEntity
  8
V0-OBRYS
  6
CONTINUOUS
 62
    90
100
AcDbLine
 10
59.345802
 20
-65.720371
 30
0.0
 11
64.130844
 21
-65.720371
 31
0.0
  0
LINE
  5
1E0
100
AcDbEntity
  8
V0-OBRYS
  6
CONTINUOUS
 62
    90
100
AcDbLine
 10
64.130844
 20
-65.720371
 30
0.0
 11
64.130844
 21
0.100907
 31
0.0
  0
LINE
  5
1E1
100
AcDbEntity
  8
V0-OBRYS
  6
CONTINUOUS
 62
    90
100
AcDbLine
 10
59.358932
 20
-62.5
 30
0.0
 11
50.0
 21
-62.5
 31
0.0
  0
LINE
  5
1E2
100
AcDbEntity
  8
V0-OBRYS
  6
CONTINUOUS
 62
    90
100
AcDbLine
 10
64.146248
 20
-62.5
 30
0.0
 11
90.0
 21
-62.5
 31
0.0
  0
LINE
  5
1E3
100
AcDbEntity
  8
V0-OBRYS
  6
CONTINUOUS
 62
    90
100
AcDbLine
 10
430.0
 20
0.0
 30
0.0
 11
430.0
 21
-62.5
 31
0.0
  0
LINE
  5
1E4
100
AcDbEntity
  8
V0-OBRYS
  6
CONTINUOUS
 62
    90
100
AcDbLine
 10
420.654205
 20
0.0
 30
0.0
 11
420.654205
 21
-65.720371
 31
0.0
  0
LINE
  5
1E5
100
AcDbEntity
  8
V0-OBRYS
  6
CONTINUOUS
 62
    90
100
AcDbLine
 10
420.654205
 20
-65.720371
 30
0.0
 11
415.869141
 21
-65.720371
 31
0.0
  0
LINE
  5
1E6
100
AcDbEntity
  8
V0-OBRYS
  6
CONTINUOUS
 62
    90
100
AcDbLine
 10
415.869141
 20
-65.720371
 30
0.0
 11
415.869141
 21
0.100906
 31
0.0
  0
LINE
  5
1E7
100
AcDbEntity
  8
V0-OBRYS
  6
CONTINUOUS
 62
    90
100
AcDbLine
 10
420.641052
 20
-62.5
 30
0.0
 11
430.0
 21
-62.5
 31
0.0
  0
LINE
  5
1E8
100
AcDbEntity
  8
V0-OBRYS
  6
CONTINUOUS
 62
    90
100
AcDbLine
 10
415.85376
 20
-62.5
 30
0.0
 11
390.0
 21
-62.5
 31
0.0
  0
CIRCLE
  5
1E9
100
AcDbEntity
  8
V0-OBRYS
  6
CONTINUOUS
 62
    90
100
AcDbCircle
 10
700.0
 20
0.0
 30
0.0
 40
50.0
  0
CIRCLE
  5
1EA
100
AcDbEntity
  8
V0-OBRYS
  6
CONTINUOUS
 62
    90
100
AcDbCircle
 10
700.0
 20
0.0
 30
0.0
 40
53.794373
  0
LINE
  5
1EB
100
AcDbEntity
  8
V0-OBRYS
  6
CONTINUOUS
 62
    90
100
AcDbLine
 10
608.5
 20
-112.5
 30
0.0
 11
700.0
 21
-112.5
 31
0.0
  0
LINE
  5
1EC
100
AcDbEntity
  8
V0-OBRYS
  6
CONTINUOUS
 62
    90
100
AcDbLine
 10
700.0
 20
-102.5
 30
0.0
 11
618.5
 21
-102.5
 31
0.0
  0
LINE
  5
1ED
100
AcDbEntity
  8
V0-OBRYS
  6
CONTINUOUS
 62
    90
100
AcDbLine
 10
608.5
 20
-112.5
 30
0.0
 11
608.5
 21
102.5
 31
0.0
  0
LINE
  5
1EE
100
AcDbEntity
  8
V0-OBRYS
  6
CONTINUOUS
 62
    90
100
AcDbLine
 10
618.5
 20
-102.5
 30
0.0
 11
618.5
 21
102.5
 31
0.0
  0
LINE
  5
1EF
100
AcDbEntity
  8
V0-OBRYS
  6
CONTINUOUS
 62
    90
100
AcDbLine
 10
84.513985
 20
112.146317
 30
0.0
 11
85.0
 21
112.146317
 31
0.0
  0
LINE
  5
1F0
100
AcDbEntity
  8
V0-OBRYS
  6
CONTINUOUS
 62
    90
100
AcDbLine
 10
85.0
 20
112.146317
 30
0.0
 11
85.0
 21
102.5
 31
0.0
  0
LINE
  5
1F1
100
AcDbEntity
  8
V0-OBRYS
  6
CONTINUOUS
 62
    90
100
AcDbLine
 10
395.0
 20
112.146317
 30
0.0
 11
395.0
 21
102.5
 31
0.0
  0
LINE
  5
1F2
100
AcDbEntity
  8
V0-OBRYS
  6
CONTINUOUS
 62
    90
100
AcDbLine
 10
85.0
 20
102.5
 30
0.0
 11
395.0
 21
102.5
 31
0.0
  0
LINE
  5
1F3
100
AcDbEntity
  8
V0-OBRYS
  6
CONTINUOUS
 62
    90
100
AcDbLine
 10
395.0
 20
112.5
 30
0.0
 11
85.0
 21
112.5
 31
0.0
  0
LINE
  5
1F4
100
AcDbEntity
  8
V0-OBRYS
  6
CONTINUOUS
 62
    90
100
AcDbLine
 10
605.5
 20
112.5
 30
0.0
 11
605.5
 21
103.057465
 31
0.0
  0
LINE
  5
1F5
100
AcDbEntity
  8
V0-OBRYS
  6
CONTINUOUS
 62
    90
100
AcDbLine
 10
605.5
 20
112.5
 30
0.0
 11
700.0
 21
112.5
 31
0.0
  0
LINE
  5
1F6
100
AcDbEntity
  8
V0-OBRYS
  6
CONTINUOUS
 62
    90
100
AcDbLine
 10
605.5
 20
102.5
 30
0.0
 11
700.0
 21
102.5
 31
0.0
  0
LINE
  5
1F7
100
AcDbEntity
  8
V0-OBRYS
  6
CONTINUOUS
 62
    90
100
AcDbLine
 10
791.5
 20
-112.5
 30
0.0
 11
700.0
 21
-112.5
 31
0.0
  0
LINE
  5
1F8
100
AcDbEntity
  8
V0-OBRYS
  6
CONTINUOUS
 62
    90
100
AcDbLine
 10
700.0
 20
-102.5
 30
0.0
 11
781.5
 21
-102.5
 31
0.0
  0
LINE
  5
1F9
100
AcDbEntity
  8
V0-OBRYS
  6
CONTINUOUS
 62
    90
100
AcDbLine
 10
791.5
 20
-112.5
 30
0.0
 11
791.5
 21
102.5
 31
0.0
  0
LINE
  5
1FA
100
AcDbEntity
  8
V0-OBRYS
  6
CONTINUOUS
 62
    90
100
AcDbLine
 10
781.5
 20
-102.5
 30
0.0
 11
781.5
 21
102.5
 31
0.0
  0
LINE
  5
1FB
100
AcDbEntity
  8
V0-OBRYS
  6
CONTINUOUS
 62
    90
100
AcDbLine
 10
794.5
 20
112.5
 30
0.0
 11
794.5
 21
103.057465
 31
0.0
  0
LINE
  5
1FC
100
AcDbEntity
  8
V0-OBRYS
  6
CONTINUOUS
 62
    90
100
AcDbLine
 10
794.5
 20
112.5
 30
0.0
 11
700.0
 21
112.5
 31
0.0
  0
LINE
  5
1FD
100
AcDbEntity
  8
V0-OBRYS
  6
CONTINUOUS
 62
    90
100
AcDbLine
 10
794.5
 20
102.5
 30
0.0
 11
700.0
 21
102.5
 31
0.0
  0
LINE
  5
1FE
100
AcDbEntity
  8
V0-OBRYS
  6
CONTINUOUS
 62
    90
100
AcDbLine
 10
395.0
 20
-253.5
 30
0.0
 11
85.0
 21
-253.5
 31
0.0
  0
LINE
  5
1FF
100
AcDbEntity
  8
V0-OBRYS
  6
CONTINUOUS
 62
    90
100
AcDbLine
 10
395.0
 20
-426.5
 30
0.0
 11
85.0
 21
-426.5
 31
0.0
  0
LINE
  5
200
100
AcDbEntity
  8
V0-OBRYS
  6
CONTINUOUS
 62
    90
100
AcDbLine
 10
85.0
 20
-253.853683
 30
0.0
 11
85.0
 21
-426.5
 31
0.0
  0
LINE
  5
201
100
AcDbEntity
  8
V0-OBRYS
  6
CONTINUOUS
 62
    90
100
AcDbLine
 10
395.0
 20
-253.853683
 30
0.0
 11
395.0
 21
-426.5
 31
0.0
  0
LINE
  5
202
100
AcDbEntity
  8
V0-OBRYS
  6
CONTINUOUS
 62
    90
100
AcDbLine
 10
50.0
 20
-267.5
 30
0.0
 11
50.0
 21
-272.5
 31
0.0
  0
LINE
  5
203
100
AcDbEntity
  8
V0-OBRYS
  6
CONTINUOUS
 62
    90
100
AcDbLine
 10
85.0
 20
-272.5
 30
0.0
 11
50.0
 21
-272.5
 31
0.0
  0
LINE
  5
204
100
AcDbEntity
  8
V0-OBRYS
  6
CONTINUOUS
 62
    90
100
AcDbLine
 10
50.0
 20
-339.103973
 30
0.0
 11
50.0
 21
-273.603973
 31
0.0
  0
LINE
  5
205
100
AcDbEntity
  8
V0-OBRYS
  6
CONTINUOUS
 62
    90
100
AcDbLine
 10
59.345802
 20
-339.103973
 30
0.0
 11
59.345802
 21
-270.383606
 31
0.0
  0
LINE
  5
206
100
AcDbEntity
  8
V0-OBRYS
  6
CONTINUOUS
 62
    90
100
AcDbLine
 10
59.345802
 20
-270.383606
 30
0.0
 11
64.130844
 21
-270.383606
 31
0.0
  0
LINE
  5
207
100
AcDbEntity
  8
V0-OBRYS
  6
CONTINUOUS
 62
    90
100
AcDbLine
 10
64.130844
 20
-270.383606
 30
0.0
 11
64.130844
 21
-339.204895
 31
0.0
  0
LINE
  5
208
100
AcDbEntity
  8
V0-OBRYS
  6
CONTINUOUS
 62
    90
100
AcDbLine
 10
59.358932
 20
-273.603973
 30
0.0
 11
50.0
 21
-273.603973
 31
0.0
  0
LINE
  5
209
100
AcDbEntity
  8
V0-OBRYS
  6
CONTINUOUS
 62
    90
100
AcDbLine
 10
50.0
 20
-339.103973
 30
0.0
 11
50.0
 21
-402.5
 31
0.0
  0
LINE
  5
20A
100
AcDbEntity
  8
V0-OBRYS
  6
CONTINUOUS
 62
    90
100
AcDbLine
 10
59.345802
 20
-339.103973
 30
0.0
 11
59.345802
 21
-405.720367
 31
0.0
  0
LINE
  5
20B
100
AcDbEntity
  8
V0-OBRYS
  6
CONTINUOUS
 62
    90
100
AcDbLine
 10
59.345802
 20
-405.720367
 30
0.0
 11
64.130844
 21
-405.720367
 31
0.0
  0
LINE
  5
20C
100
AcDbEntity
  8
V0-OBRYS
  6
CONTINUOUS
 62
    90
100
AcDbLine
 10
64.130844
 20
-405.720367
 30
0.0
 11
64.130844
 21
-339.003052
 31
0.0
  0
LINE
  5
20D
100
AcDbEntity
  8
V0-OBRYS
  6
CONTINUOUS
 62
    90
100
AcDbLine
 10
59.358932
 20
-402.5
 30
0.0
 11
50.0
 21
-402.5
 31
0.0
  0
LINE
  5
20E
100
AcDbEntity
  8
V0-OBRYS
  6
CONTINUOUS
 62
    90
100
AcDbLine
 10
430.0
 20
-339.103973
 30
0.0
 11
430.0
 21
-273.603973
 31
0.0
  0
LINE
  5
20F
100
AcDbEntity
  8
V0-OBRYS
  6
CONTINUOUS
 62
    90
100
AcDbLine
 10
420.654205
 20
-339.103973
 30
0.0
 11
420.654205
 21
-270.383606
 31
0.0
  0
LINE
  5
210
100
AcDbEntity
  8
V0-OBRYS
  6
CONTINUOUS
 62
    90
100
AcDbLine
 10
420.654205
 20
-270.383606
 30
0.0
 11
415.869141
 21
-270.383606
 31
0.0
  0
LINE
  5
211
100
AcDbEntity
  8
V0-OBRYS
  6
CONTINUOUS
 62
    90
100
AcDbLine
 10
415.869141
 20
-270.383606
 30
0.0
 11
415.869141
 21
-339.204865
 31
0.0
  0
LINE
  5
212
100
AcDbEntity
  8
V0-OBRYS
  6
CONTINUOUS
 62
    90
100
AcDbLine
 10
420.641052
 20
-273.603973
 30
0.0
 11
430.0
 21
-273.603973
 31
0.0
  0
LINE
  5
213
100
AcDbEntity
  8
V0-OBRYS
  6
CONTINUOUS
 62
    90
100
AcDbLine
 10
430.0
 20
-339.103973
 30
0.0
 11
430.0
 21
-402.5
 31
0.0
  0
LINE
  5
214
100
AcDbEntity
  8
V0-OBRYS
  6
CONTINUOUS
 62
    90
100
AcDbLine
 10
420.654205
 20
-339.103973
 30
0.0
 11
420.654205
 21
-405.720367
 31
0.0
  0
LINE
  5
215
100
AcDbEntity
  8
V0-OBRYS
  6
CONTINUOUS
 62
    90
100
AcDbLine
 10
420.654205
 20
-405.720367
 30
0.0
 11
415.869141
 21
-405.720367
 31
0.0
  0
LINE
  5
216
100
AcDbEntity
  8
V0-OBRYS
  6
CONTINUOUS
 62
    90
100
AcDbLine
 10
415.869141
 20
-405.720367
 30
0.0
 11
415.869141
 21
-339.003082
 31
0.0
  0
LINE
  5
217
100
AcDbEntity
  8
V0-OBRYS
  6
CONTINUOUS
 62
    90
100
AcDbLine
 10
420.641052
 20
-402.5
 30
0.0
 11
430.0
 21
-402.5
 31
0.0
  0
LINE
  5
218
100
AcDbEntity
  8
V0-OBRYS
  6
CONTINUOUS
 62
    90
100
AcDbLine
 10
64.146248
 20
-273.603973
 30
0.0
 11
85.0
 21
-273.603973
 31
0.0
  0
LINE
  5
219
100
AcDbEntity
  8
V0-OBRYS
  6
CONTINUOUS
 62
    90
100
AcDbLine
 10
64.146248
 20
-402.5
 30
0.0
 11
85.0
 21
-402.5
 31
0.0
  0
LINE
  5
21A
100
AcDbEntity
  8
V0-OBRYS
  6
CONTINUOUS
 62
    90
100
AcDbLine
 10
415.85376
 20
-273.603973
 30
0.0
 11
395.0
 21
-273.603973
 31
0.0
  0
LINE
  5
21B
100
AcDbEntity
  8
V0-OBRYS
  6
CONTINUOUS
 62
    90
100
AcDbLine
 10
415.85376
 20
-402.5
 30
0.0
 11
395.0
 21
-402.5
 31
0.0
  0
LINE
  5
21C
100
AcDbEntity
  8
V0-OBRYS
  6
CONTINUOUS
 62
    90
100
AcDbLine
 10
390.0
 20
-112.5
 30
0.0
 11
390.0
 21
102.5
 31
0.0
  0
LINE
  5
21D
100
AcDbEntity
  8
V0-OBRYS
  6
CONTINUOUS
 62
    90
100
AcDbLine
 10
90.0
 20
0.0
 30
0.0
 11
90.0
 21
102.5
 31
0.0
  0
LINE
  5
21E
100
AcDbEntity
  8
V0-OBRYS
  6
CONTINUOUS
 62
    90
100
AcDbLine
 10
85.0
 20
-407.5
 30
0.0
 11
50.0
 21
-407.5
 31
0.0
  0
LINE
  5
21F
100
AcDbEntity
  8
V0-OBRYS
  6
CONTINUOUS
 62
    90
100
AcDbLine
 10
85.0
 20
-412.5
 30
0.0
 11
50.0
 21
-412.5
 31
0.0
  0
CIRCLE
  5
220
100
AcDbEntity
  8
V0-OBRYS
  6
CONTINUOUS
 62
    90
100
AcDbCircle
 10
630.0
 20
87.5
 30
0.0
 40
5.0
  0
CIRCLE
  5
221
100
AcDbEntity
  8
V0-OBRYS
  6
CONTINUOUS
 62
    90
100
AcDbCircle
 10
770.0
 20
87.5
 30
0.0
 40
3.832092
  0
CIRCLE
  5
222
100
AcDbEntity
  8
V0-OBRYS
  6
CONTINUOUS
 62
    90
100
AcDbCircle
 10
770.0
 20
87.5
 30
0.0
 40
5.0
  0
LINE
  5
223
100
AcDbEntity
  8
V0-VYPLNE
  6
DASHDOT
 62
    63
 48
20.0
100
AcDbLine
 10
770.0
 20
98.915421
 30
0.0
 11
770.0
 21
73.201599
 31
0.0
  0
CIRCLE
  5
224
100
AcDbEntity
  8
V0-OBRYS
  6
CONTINUOUS
 62
    90
100
AcDbCircle
 10
630.0
 20
87.5
 30
0.0
 40
3.832092
  0
LINE
  5
225
100
AcDbEntity
  8
V0-OBRYS
  6
CONTINUOUS
 62
    90
100
AcDbLine
 10
85.0
 20
-267.5
 30
0.0
 11
50.0
 21
-267.5
 31
0.0
  0
LINE
  5
226
100
AcDbEntity
  8
V0-VYPLNE
  6
DASHDOT
 62
    63
 48
20.0
100
AcDbLine
 10
636.759033
 20
0.0
 30
0.0
 11
767.878357
 21
0.0
 31
0.0
  0
LINE
  5
228
100
AcDbEntity
  8
V0-VYPLNE
  6
CONTINUOUS
 62
    52
100
AcDbLine
 10
237.831253
 20
-339.580963
 30
0.0
 11
237.831253
 21
-311.191071
 31
0.0
  0
LINE
  5
229
100
AcDbEntity
  8
V0-VYPLNE
  6
CONTINUOUS
 62
    52
100
AcDbLine
 10
237.831253
 20
-311.191071
 30
0.0
 11
271.90918
 21
-341.250977
 31
0.0
  0
LINE
  5
22A
100
AcDbEntity
  8
V0-VYPLNE
  6
CONTINUOUS
 62
    52
100
AcDbLine
 10
237.831253
 20
-339.008759
 30
0.0
 11
237.831253
 21
-367.398651
 31
0.0
  0
LINE
  5
22B
100
AcDbEntity
  8
V0-VYPLNE
  6
CONTINUOUS
 62
    52
100
AcDbLine
 10
237.831253
 20
-367.398651
 30
0.0
 11
271.90918
 21
-337.338745
 31
0.0
  0
POINT
  5
230
100
AcDbEntity
  8
V0-OBRYS
  6
CONTINUOUS
 62
    90
100
AcDbPoint
 10
50.0
 20
0.0
 30
0.0
  0
TEXT
  5
233
100
AcDbEntity
  8
V0-NAZVY
  6
CONTINUOUS
 62
   210
100
AcDbText
 10
180.952377
 20
50.0
 30
0.0
 40
20.0
  1
MBW-125
  7
SIMPLEX
 72
     1
 11
249.999996
 21
50.0
 31
0.0
100
AcDbText
  0
TEXT
  5
234
100
AcDbEntity
  8
V0-NAZVY
  6
CONTINUOUS
 62
   210
100
AcDbText
 10
180.952377
 20
-300.0
 30
0.0
 40
20.0
  1
MBW-125
  7
SIMPLEX
 72
     1
 11
249.999996
 21
-300.0
 31
0.0
100
AcDbText
  0
TEXT
  5
235
100
AcDbEntity
  8
V0-NAZVY
  6
CONTINUOUS
 62
   210
100
AcDbText
 10
635.952377
 20
65.0
 30
0.0
 40
20.0
  1
MBW-125
  7
SIMPLEX
 72
     1
 11
704.999996
 21
65.0
 31
0.0
100
AcDbText
  0
LINE
  5
236
100
AcDbEntity
  8
V0-VYPLNE
  6
CONTINUOUS
 62
    52
100
AcDbLine
 10
663.0
 20
33.630344
 30
0.0
 11
663.0
 21
-33.630344
 31
0.0
  0
LINE
  5
237
100
AcDbEntity
  8
V0-VYPLNE
  6
CONTINUOUS
 62
    52
100
AcDbLine
 10
657.0
 20
25.514702
 30
0.0
 11
657.0
 21
-25.514702
 31
0.0
  0
LINE
  5
238
100
AcDbEntity
  8
V0-VYPLNE
  6
CONTINUOUS
 62
    52
100
AcDbLine
 10
677.0
 20
44.395947
 30
0.0
 11
677.0
 21
-44.395947
 31
0.0
  0
LINE
  5
239
100
AcDbEntity
  8
V0-VYPLNE
  6
CONTINUOUS
 62
    52
100
AcDbLine
 10
683.0
 20
47.021271
 30
0.0
 11
683.0
 21
-47.021271
 31
0.0
  0
LINE
  5
23A
100
AcDbEntity
  8
V0-VYPLNE
  6
CONTINUOUS
 62
    52
100
AcDbLine
 10
697.0
 20
49.90992
 30
0.0
 11
697.0
 21
-49.90992
 31
0.0
  0
LINE
  5
23B
100
AcDbEntity
  8
V0-VYPLNE
  6
CONTINUOUS
 62
    52
100
AcDbLine
 10
737.0
 20
33.630344
 30
0.0
 11
737.0
 21
-33.630344
 31
0.0
  0
LINE
  5
23C
100
AcDbEntity
  8
V0-VYPLNE
  6
CONTINUOUS
 62
    52
100
AcDbLine
 10
743.0
 20
25.514709
 30
0.0
 11
743.0
 21
-25.514702
 31
0.0
  0
LINE
  5
23D
100
AcDbEntity
  8
V0-VYPLNE
  6
CONTINUOUS
 62
    52
100
AcDbLine
 10
723.0
 20
44.395947
 30
0.0
 11
723.0
 21
-44.395947
 31
0.0
  0
LINE
  5
23E
100
AcDbEntity
  8
V0-VYPLNE
  6
CONTINUOUS
 62
    52
100
AcDbLine
 10
717.0
 20
47.021263
 30
0.0
 11
717.0
 21
-47.021271
 31
0.0
  0
LINE
  5
23F
100
AcDbEntity
  8
V0-VYPLNE
  6
CONTINUOUS
 62
    52
100
AcDbLine
 10
703.0
 20
49.909927
 30
0.0
 11
703.0
 21
-49.90992
 31
0.0
  0
DIMENSION
  5
241
100
AcDbEntity
  8
V0-VYPLNE
  6
CONTINUOUS
 62
    41
100
AcDbDimension
  2
*D1
 10
791.5
 20
-149.231976
 30
0.0
 11
700.0
 21
-136.231976
 31
0.0
 70
    32
  3
STANDARD
100
AcDbAlignedDimension
 13
608.5
 23
-112.5
 33
0.0
 14
791.5
 24
-112.5
 34
0.0
100
AcDbRotatedDimension
1001
ACAD
1000
DSTYLE
1002
{
1070
    78
1070
     1
1070
   288
1070
     1
1070
   284
1070
     1
1070
   140
1040
20.0
1070
   340
1005
CE
1070
    74
1070
     0
1070
    73
1070
     0
1070
   272
1070
     2
1070
    77
1070
     1
1070
   173
1070
     1
1070
   147
1040
3.0
1070
   287
1070
     5
1070
    42
1040
1.0
1070
    44
1040
2.0
1070
   271
1070
     0
1070
     7
1000
_OPEN
1070
     6
1000
_OPEN
1070
    41
1040
20.0
1070
   285
1070
     1
1070
   286
1070
     1
1002
}
  0
DIMENSION
  5
242
100
AcDbEntity
  8
V0-VYPLNE
  6
CONTINUOUS
 62
    41
100
AcDbDimension
  2
*D2
 10
430.0
 20
-151.235646
 30
0.0
 11
246.727826
 21
-138.117323
 31
0.0
 70
   160
  3
STANDARD
100
AcDbAlignedDimension
 13
50.0
 23
-62.5
 33
0.0
 14
430.0
 24
-62.5
 34
0.0
100
AcDbRotatedDimension
1001
ACAD
1000
DSTYLE
1002
{
1070
    78
1070
     1
1070
   288
1070
     1
1070
   284
1070
     1
1070
   140
1040
20.0
1070
   340
1005
CE
1070
    74
1070
     0
1070
    73
1070
     0
1070
   272
1070
     2
1070
    77
1070
     1
1070
   173
1070
     1
1070
   147
1040
3.0
1070
   287
1070
     5
1070
    42
1040
1.0
1070
    44
1040
2.0
1070
   271
1070
     0
1070
     7
1000
_OPEN
1070
     6
1000
_OPEN
1070
    41
1040
20.0
1070
   285
1070
     1
1070
   286
1070
     1
1002
}
  0
DIMENSION
  5
243
100
AcDbEntity
  8
V0-VYPLNE
  6
CONTINUOUS
 62
    41
100
AcDbDimension
  2
*D3
 10
829.048794
 20
112.5
 30
0.0
 11
816.048794
 21
0.0
 31
0.0
 70
    32
  3
STANDARD
100
AcDbAlignedDimension
 13
791.5
 23
-112.5
 33
0.0
 14
794.5
 24
112.5
 34
0.0
 50
90.0
100
AcDbRotatedDimension
1001
ACAD
1000
DSTYLE
1002
{
1070
    78
1070
     1
1070
   288
1070
     1
1070
   284
1070
     1
1070
   140
1040
20.0
1070
   340
1005
CE
1070
    74
1070
     0
1070
    73
1070
     0
1070
   272
1070
     2
1070
    77
1070
     1
1070
   173
1070
     1
1070
   147
1040
3.0
1070
   287
1070
     5
1070
    42
1040
1.0
1070
    44
1040
2.0
1070
   271
1070
     0
1070
     7
1000
_OPEN
1070
     6
1000
_OPEN
1070
    41
1040
20.0
1070
   285
1070
     1
1070
   286
1070
     1
1002
}
  0
LINE
  5
244
100
AcDbEntity
  8
V0-VYPLNE
  6
CONTINUOUS
 62
    52
100
AcDbLine
 10
743.420124
 20
-24.48529
 30
0.0
 11
743.000004
 21
-24.485291
 31
0.0
  0
LINE
  5
245
100
AcDbEntity
  8
V0-VYPLNE
  6
CONTINUOUS
 62
    52
100
AcDbLine
 10
745.460718
 20
-19.48529
 30
0.0
 11
743.000003
 21
-19.485291
 31
0.0
  0
LINE
  5
246
100
AcDbEntity
  8
V0-VYPLNE
  6
CONTINUOUS
 62
    52
100
AcDbLine
 10
747.501311
 20
-14.48529
 30
0.0
 11
743.000003
 21
-14.485291
 31
0.0
  0
LINE
  5
247
100
AcDbEntity
  8
V0-VYPLNE
  6
CONTINUOUS
 62
    52
100
AcDbLine
 10
748.805143
 20
-9.48529
 30
0.0
 11
743.000003
 21
-9.485291
 31
0.0
  0
LINE
  5
248
100
AcDbEntity
  8
V0-VYPLNE
  6
CONTINUOUS
 62
    52
100
AcDbLine
 10
749.43499
 20
-4.48529
 30
0.0
 11
743.000002
 21
-4.485291
 31
0.0
  0
LINE
  5
249
100
AcDbEntity
  8
V0-VYPLNE
  6
CONTINUOUS
 62
    52
100
AcDbLine
 10
749.919784
 20
0.51471
 30
0.0
 11
743.000002
 21
0.514709
 31
0.0
  0
LINE
  5
24A
100
AcDbEntity
  8
V0-VYPLNE
  6
CONTINUOUS
 62
    52
100
AcDbLine
 10
749.140564
 20
5.51471
 30
0.0
 11
743.000002
 21
5.514709
 31
0.0
  0
LINE
  5
24B
100
AcDbEntity
  8
V0-VYPLNE
  6
CONTINUOUS
 62
    52
100
AcDbLine
 10
748.361344
 20
10.51471
 30
0.0
 11
743.000001
 21
10.514709
 31
0.0
  0
LINE
  5
24C
100
AcDbEntity
  8
V0-VYPLNE
  6
CONTINUOUS
 62
    52
100
AcDbLine
 10
747.453819
 20
15.51471
 30
0.0
 11
743.000001
 21
15.514709
 31
0.0
  0
LINE
  5
24D
100
AcDbEntity
  8
V0-VYPLNE
  6
CONTINUOUS
 62
    52
100
AcDbLine
 10
745.22691
 20
20.51471
 30
0.0
 11
743.0
 21
20.514709
 31
0.0
  0
LINE
  5
24E
100
AcDbEntity
  8
V0-VYPLNE
  6
CONTINUOUS
 62
    52
100
AcDbLine
 10
726.935518
 20
-41.369656
 30
0.0
 11
723.000015
 21
-41.369657
 31
0.0
  0
LINE
  5
24F
100
AcDbEntity
  8
V0-VYPLNE
  6
CONTINUOUS
 62
    52
100
AcDbLine
 10
733.437702
 20
-36.369656
 30
0.0
 11
723.000015
 21
-36.369657
 31
0.0
  0
LINE
  5
250
100
AcDbEntity
  8
V0-VYPLNE
  6
CONTINUOUS
 62
    52
100
AcDbLine
 10
737.000005
 20
-31.369656
 30
0.0
 11
723.000013
 21
-31.369657
 31
0.0
  0
LINE
  5
251
100
AcDbEntity
  8
V0-VYPLNE
  6
CONTINUOUS
 62
    52
100
AcDbLine
 10
737.000005
 20
-26.369656
 30
0.0
 11
723.000013
 21
-26.369657
 31
0.0
  0
LINE
  5
252
100
AcDbEntity
  8
V0-VYPLNE
  6
CONTINUOUS
 62
    52
100
AcDbLine
 10
737.000004
 20
-21.369656
 30
0.0
 11
723.000011
 21
-21.369657
 31
0.0
  0
LINE
  5
253
100
AcDbEntity
  8
V0-VYPLNE
  6
CONTINUOUS
 62
    52
100
AcDbLine
 10
737.000004
 20
-16.369656
 30
0.0
 11
723.000011
 21
-16.369657
 31
0.0
  0
LINE
  5
254
100
AcDbEntity
  8
V0-VYPLNE
  6
CONTINUOUS
 62
    52
100
AcDbLine
 10
737.000003
 20
-11.369656
 30
0.0
 11
723.000011
 21
-11.369657
 31
0.0
  0
LINE
  5
255
100
AcDbEntity
  8
V0-VYPLNE
  6
CONTINUOUS
 62
    52
100
AcDbLine
 10
737.000003
 20
-6.369656
 30
0.0
 11
723.000008
 21
-6.369657
 31
0.0
  0
LINE
  5
256
100
AcDbEntity
  8
V0-VYPLNE
  6
CONTINUOUS
 62
    52
100
AcDbLine
 10
737.000003
 20
-1.369656
 30
0.0
 11
723.000008
 21
-1.369657
 31
0.0
  0
LINE
  5
257
100
AcDbEntity
  8
V0-VYPLNE
  6
CONTINUOUS
 62
    52
100
AcDbLine
 10
737.000002
 20
3.630344
 30
0.0
 11
723.000006
 21
3.630343
 31
0.0
  0
LINE
  5
258
100
AcDbEntity
  8
V0-VYPLNE
  6
CONTINUOUS
 62
    52
100
AcDbLine
 10
737.000002
 20
8.630344
 30
0.0
 11
723.000006
 21
8.630343
 31
0.0
  0
LINE
  5
259
100
AcDbEntity
  8
V0-VYPLNE
  6
CONTINUOUS
 62
    52
100
AcDbLine
 10
737.000002
 20
13.630344
 30
0.0
 11
723.000006
 21
13.630343
 31
0.0
  0
LINE
  5
25A
100
AcDbEntity
  8
V0-VYPLNE
  6
CONTINUOUS
 62
    52
100
AcDbLine
 10
737.000001
 20
18.630344
 30
0.0
 11
723.000004
 21
18.630343
 31
0.0
  0
LINE
  5
25B
100
AcDbEntity
  8
V0-VYPLNE
  6
CONTINUOUS
 62
    52
100
AcDbLine
 10
737.000001
 20
23.630344
 30
0.0
 11
723.000004
 21
23.630343
 31
0.0
  0
LINE
  5
25C
100
AcDbEntity
  8
V0-VYPLNE
  6
CONTINUOUS
 62
    52
100
AcDbLine
 10
737.0
 20
28.630344
 30
0.0
 11
723.000002
 21
28.630343
 31
0.0
  0
LINE
  5
25D
100
AcDbEntity
  8
V0-VYPLNE
  6
CONTINUOUS
 62
    52
100
AcDbLine
 10
737.0
 20
33.630344
 30
0.0
 11
723.000002
 21
33.630343
 31
0.0
  0
LINE
  5
25E
100
AcDbEntity
  8
V0-VYPLNE
  6
CONTINUOUS
 62
    52
100
AcDbLine
 10
730.497808
 20
38.630344
 30
0.0
 11
723.000001
 21
38.630343
 31
0.0
  0
LINE
  5
25F
100
AcDbEntity
  8
V0-VYPLNE
  6
CONTINUOUS
 62
    52
100
AcDbLine
 10
723.995616
 20
43.630343
 30
0.0
 11
722.999999
 21
43.630343
 31
0.0
  0
LINE
  5
260
100
AcDbEntity
  8
V0-VYPLNE
  6
CONTINUOUS
 62
    52
100
AcDbLine
 10
717.126587
 20
45.352684
 30
0.0
 11
717.0
 21
47.021263
 31
0.0
  0
LINE
  5
261
100
AcDbEntity
  8
V0-VYPLNE
  6
CONTINUOUS
 62
    52
100
AcDbLine
 10
704.272761
 20
-49.647317
 30
0.0
 11
702.999998
 21
-49.647317
 31
0.0
  0
LINE
  5
262
100
AcDbEntity
  8
V0-VYPLNE
  6
CONTINUOUS
 62
    52
100
AcDbLine
 10
717.000002
 20
-44.647316
 30
0.0
 11
702.999998
 21
-44.647317
 31
0.0
  0
LINE
  5
263
100
AcDbEntity
  8
V0-VYPLNE
  6
CONTINUOUS
 62
    52
100
AcDbLine
 10
717.000002
 20
-39.647316
 30
0.0
 11
702.999998
 21
-39.647317
 31
0.0
  0
LINE
  5
264
100
AcDbEntity
  8
V0-VYPLNE
  6
CONTINUOUS
 62
    52
100
AcDbLine
 10
717.000002
 20
-34.647316
 30
0.0
 11
702.999998
 21
-34.647317
 31
0.0
  0
LINE
  5
265
100
AcDbEntity
  8
V0-VYPLNE
  6
CONTINUOUS
 62
    52
100
AcDbLine
 10
717.000001
 20
-29.647316
 30
0.0
 11
702.999998
 21
-29.647317
 31
0.0
  0
LINE
  5
266
100
AcDbEntity
  8
V0-VYPLNE
  6
CONTINUOUS
 62
    52
100
AcDbLine
 10
717.000001
 20
-24.647316
 30
0.0
 11
702.999999
 21
-24.647317
 31
0.0
  0
LINE
  5
267
100
AcDbEntity
  8
V0-VYPLNE
  6
CONTINUOUS
 62
    52
100
AcDbLine
 10
717.000001
 20
-19.647316
 30
0.0
 11
702.999999
 21
-19.647317
 31
0.0
  0
LINE
  5
268
100
AcDbEntity
  8
V0-VYPLNE
  6
CONTINUOUS
 62
    52
100
AcDbLine
 10
717.000001
 20
-14.647316
 30
0.0
 11
703.0
 21
-14.647317
 31
0.0
  0
LINE
  5
269
100
AcDbEntity
  8
V0-VYPLNE
  6
CONTINUOUS
 62
    52
100
AcDbLine
 10
717.000001
 20
-9.647316
 30
0.0
 11
702.999999
 21
-9.647317
 31
0.0
  0
LINE
  5
26A
100
AcDbEntity
  8
V0-VYPLNE
  6
CONTINUOUS
 62
    52
100
AcDbLine
 10
717.000001
 20
-4.647316
 30
0.0
 11
702.999999
 21
-4.647317
 31
0.0
  0
LINE
  5
26B
100
AcDbEntity
  8
V0-VYPLNE
  6
CONTINUOUS
 62
    52
100
AcDbLine
 10
717.000001
 20
0.352684
 30
0.0
 11
702.999999
 21
0.352683
 31
0.0
  0
LINE
  5
26C
100
AcDbEntity
  8
V0-VYPLNE
  6
CONTINUOUS
 62
    52
100
AcDbLine
 10
717.000001
 20
5.352684
 30
0.0
 11
702.999999
 21
5.352683
 31
0.0
  0
LINE
  5
26D
100
AcDbEntity
  8
V0-VYPLNE
  6
CONTINUOUS
 62
    52
100
AcDbLine
 10
717.000001
 20
10.352684
 30
0.0
 11
702.999999
 21
10.352683
 31
0.0
  0
LINE
  5
26E
100
AcDbEntity
  8
V0-VYPLNE
  6
CONTINUOUS
 62
    52
100
AcDbLine
 10
717.000001
 20
15.352684
 30
0.0
 11
702.999999
 21
15.352683
 31
0.0
  0
LINE
  5
26F
100
AcDbEntity
  8
V0-VYPLNE
  6
CONTINUOUS
 62
    52
100
AcDbLine
 10
717.0
 20
20.352684
 30
0.0
 11
703.0
 21
20.352683
 31
0.0
  0
LINE
  5
270
100
AcDbEntity
  8
V0-VYPLNE
  6
CONTINUOUS
 62
    52
100
AcDbLine
 10
717.0
 20
25.352684
 30
0.0
 11
703.0
 21
25.352683
 31
0.0
  0
LINE
  5
271
100
AcDbEntity
  8
V0-VYPLNE
  6
CONTINUOUS
 62
    52
100
AcDbLine
 10
717.0
 20
30.352684
 30
0.0
 11
703.0
 21
30.352683
 31
0.0
  0
LINE
  5
272
100
AcDbEntity
  8
V0-VYPLNE
  6
CONTINUOUS
 62
    52
100
AcDbLine
 10
717.0
 20
35.352684
 30
0.0
 11
703.0
 21
35.352683
 31
0.0
  0
LINE
  5
273
100
AcDbEntity
  8
V0-VYPLNE
  6
CONTINUOUS
 62
    52
100
AcDbLine
 10
717.0
 20
40.352684
 30
0.0
 11
703.0
 21
40.352683
 31
0.0
  0
LINE
  5
274
100
AcDbEntity
  8
V0-VYPLNE
  6
CONTINUOUS
 62
    52
100
AcDbLine
 10
717.126587
 20
45.352684
 30
0.0
 11
717.0
 21
45.352684
 31
0.0
  0
LINE
  5
275
100
AcDbEntity
  8
V0-VYPLNE
  6
CONTINUOUS
 62
    52
100
AcDbLine
 10
717.0
 20
45.352684
 30
0.0
 11
703.0
 21
45.352683
 31
0.0
  0
LINE
  5
276
100
AcDbEntity
  8
V0-VYPLNE
  6
CONTINUOUS
 62
    52
100
AcDbLine
 10
710.0
 20
-10.0
 30
0.0
 11
690.0
 21
10.0
 31
0.0
  0
LINE
  5
277
100
AcDbEntity
  8
V0-VYPLNE
  6
CONTINUOUS
 62
    52
100
AcDbLine
 10
710.0
 20
10.0
 30
0.0
 11
690.0
 21
-10.0
 31
0.0
  0
LINE
  5
278
100
AcDbEntity
  8
V0-VYPLNE
  6
CONTINUOUS
 62
    52
100
AcDbLine
 10
656.579881
 20
-24.485298
 30
0.0
 11
657.000001
 21
-24.485298
 31
0.0
  0
LINE
  5
279
100
AcDbEntity
  8
V0-VYPLNE
  6
CONTINUOUS
 62
    52
100
AcDbLine
 10
654.539286
 20
-19.485298
 30
0.0
 11
657.000001
 21
-19.485298
 31
0.0
  0
LINE
  5
27A
100
AcDbEntity
  8
V0-VYPLNE
  6
CONTINUOUS
 62
    52
100
AcDbLine
 10
652.498692
 20
-14.485298
 30
0.0
 11
657.0
 21
-14.485298
 31
0.0
  0
LINE
  5
27B
100
AcDbEntity
  8
V0-VYPLNE
  6
CONTINUOUS
 62
    52
100
AcDbLine
 10
651.19486
 20
-9.485298
 30
0.0
 11
657.0
 21
-9.485298
 31
0.0
  0
LINE
  5
27C
100
AcDbEntity
  8
V0-VYPLNE
  6
CONTINUOUS
 62
    52
100
AcDbLine
 10
650.565012
 20
-4.485298
 30
0.0
 11
657.0
 21
-4.485298
 31
0.0
  0
LINE
  5
27D
100
AcDbEntity
  8
V0-VYPLNE
  6
CONTINUOUS
 62
    52
100
AcDbLine
 10
650.080218
 20
0.514702
 30
0.0
 11
657.0
 21
0.514702
 31
0.0
  0
LINE
  5
27E
100
AcDbEntity
  8
V0-VYPLNE
  6
CONTINUOUS
 62
    52
100
AcDbLine
 10
650.859438
 20
5.514702
 30
0.0
 11
657.0
 21
5.514702
 31
0.0
  0
LINE
  5
27F
100
AcDbEntity
  8
V0-VYPLNE
  6
CONTINUOUS
 62
    52
100
AcDbLine
 10
651.638658
 20
10.514702
 30
0.0
 11
657.0
 21
10.514702
 31
0.0
  0
LINE
  5
280
100
AcDbEntity
  8
V0-VYPLNE
  6
CONTINUOUS
 62
    52
100
AcDbLine
 10
652.546182
 20
15.514702
 30
0.0
 11
657.0
 21
15.514702
 31
0.0
  0
LINE
  5
281
100
AcDbEntity
  8
V0-VYPLNE
  6
CONTINUOUS
 62
    52
100
AcDbLine
 10
654.773091
 20
20.514702
 30
0.0
 11
657.0
 21
20.514702
 31
0.0
  0
LINE
  5
282
100
AcDbEntity
  8
V0-VYPLNE
  6
CONTINUOUS
 62
    52
100
AcDbLine
 10
673.064488
 20
-41.369656
 30
0.0
 11
676.999991
 21
-41.369656
 31
0.0
  0
LINE
  5
283
100
AcDbEntity
  8
V0-VYPLNE
  6
CONTINUOUS
 62
    52
100
AcDbLine
 10
666.562304
 20
-36.369656
 30
0.0
 11
676.999991
 21
-36.369656
 31
0.0
  0
LINE
  5
284
100
AcDbEntity
  8
V0-VYPLNE
  6
CONTINUOUS
 62
    52
100
AcDbLine
 10
663.000001
 20
-31.369656
 30
0.0
 11
676.999992
 21
-31.369656
 31
0.0
  0
LINE
  5
285
100
AcDbEntity
  8
V0-VYPLNE
  6
CONTINUOUS
 62
    52
100
AcDbLine
 10
663.000001
 20
-26.369656
 30
0.0
 11
676.999992
 21
-26.369656
 31
0.0
  0
LINE
  5
286
100
AcDbEntity
  8
V0-VYPLNE
  6
CONTINUOUS
 62
    52
100
AcDbLine
 10
663.000001
 20
-21.369656
 30
0.0
 11
676.999993
 21
-21.369656
 31
0.0
  0
LINE
  5
287
100
AcDbEntity
  8
V0-VYPLNE
  6
CONTINUOUS
 62
    52
100
AcDbLine
 10
663.000001
 20
-16.369656
 30
0.0
 11
676.999993
 21
-16.369656
 31
0.0
  0
LINE
  5
288
100
AcDbEntity
  8
V0-VYPLNE
  6
CONTINUOUS
 62
    52
100
AcDbLine
 10
663.000001
 20
-11.369656
 30
0.0
 11
676.999993
 21
-11.369656
 31
0.0
  0
LINE
  5
289
100
AcDbEntity
  8
V0-VYPLNE
  6
CONTINUOUS
 62
    52
100
AcDbLine
 10
663.0
 20
-6.369656
 30
0.0
 11
676.999995
 21
-6.369656
 31
0.0
  0
LINE
  5
28A
100
AcDbEntity
  8
V0-VYPLNE
  6
CONTINUOUS
 62
    52
100
AcDbLine
 10
663.0
 20
-1.369656
 30
0.0
 11
676.999995
 21
-1.369656
 31
0.0
  0
LINE
  5
28B
100
AcDbEntity
  8
V0-VYPLNE
  6
CONTINUOUS
 62
    52
100
AcDbLine
 10
663.0
 20
3.630344
 30
0.0
 11
676.999996
 21
3.630344
 31
0.0
  0
LINE
  5
28C
100
AcDbEntity
  8
V0-VYPLNE
  6
CONTINUOUS
 62
    52
100
AcDbLine
 10
663.0
 20
8.630344
 30
0.0
 11
676.999996
 21
8.630344
 31
0.0
  0
LINE
  5
28D
100
AcDbEntity
  8
V0-VYPLNE
  6
CONTINUOUS
 62
    52
100
AcDbLine
 10
663.0
 20
13.630344
 30
0.0
 11
676.999996
 21
13.630344
 31
0.0
  0
LINE
  5
28E
100
AcDbEntity
  8
V0-VYPLNE
  6
CONTINUOUS
 62
    52
100
AcDbLine
 10
663.0
 20
18.630344
 30
0.0
 11
676.999997
 21
18.630344
 31
0.0
  0
LINE
  5
28F
100
AcDbEntity
  8
V0-VYPLNE
  6
CONTINUOUS
 62
    52
100
AcDbLine
 10
663.0
 20
23.630344
 30
0.0
 11
676.999997
 21
23.630344
 31
0.0
  0
LINE
  5
290
100
AcDbEntity
  8
V0-VYPLNE
  6
CONTINUOUS
 62
    52
100
AcDbLine
 10
663.0
 20
28.630344
 30
0.0
 11
676.999998
 21
28.630344
 31
0.0
  0
LINE
  5
291
100
AcDbEntity
  8
V0-VYPLNE
  6
CONTINUOUS
 62
    52
100
AcDbLine
 10
663.0
 20
33.630344
 30
0.0
 11
676.999998
 21
33.630344
 31
0.0
  0
LINE
  5
292
100
AcDbEntity
  8
V0-VYPLNE
  6
CONTINUOUS
 62
    52
100
AcDbLine
 10
669.502192
 20
38.630344
 30
0.0
 11
676.999998
 21
38.630344
 31
0.0
  0
LINE
  5
293
100
AcDbEntity
  8
V0-VYPLNE
  6
CONTINUOUS
 62
    52
100
AcDbLine
 10
676.004383
 20
43.630344
 30
0.0
 11
677.0
 21
43.630344
 31
0.0
  0
LINE
  5
294
100
AcDbEntity
  8
V0-VYPLNE
  6
CONTINUOUS
 62
    52
100
AcDbLine
 10
682.873413
 20
45.352692
 30
0.0
 11
683.0
 21
47.021271
 31
0.0
  0
LINE
  5
295
100
AcDbEntity
  8
V0-VYPLNE
  6
CONTINUOUS
 62
    52
100
AcDbLine
 10
695.727247
 20
-49.647308
 30
0.0
 11
697.00001
 21
-49.647308
 31
0.0
  0
LINE
  5
296
100
AcDbEntity
  8
V0-VYPLNE
  6
CONTINUOUS
 62
    52
100
AcDbLine
 10
683.000006
 20
-44.647308
 30
0.0
 11
697.00001
 21
-44.647308
 31
0.0
  0
LINE
  5
297
100
AcDbEntity
  8
V0-VYPLNE
  6
CONTINUOUS
 62
    52
100
AcDbLine
 10
683.000006
 20
-39.647308
 30
0.0
 11
697.00001
 21
-39.647308
 31
0.0
  0
LINE
  5
298
100
AcDbEntity
  8
V0-VYPLNE
  6
CONTINUOUS
 62
    52
100
AcDbLine
 10
683.000005
 20
-34.647308
 30
0.0
 11
697.000009
 21
-34.647308
 31
0.0
  0
LINE
  5
299
100
AcDbEntity
  8
V0-VYPLNE
  6
CONTINUOUS
 62
    52
100
AcDbLine
 10
683.000005
 20
-29.647308
 30
0.0
 11
697.000009
 21
-29.647308
 31
0.0
  0
LINE
  5
29A
100
AcDbEntity
  8
V0-VYPLNE
  6
CONTINUOUS
 62
    52
100
AcDbLine
 10
683.000005
 20
-24.647308
 30
0.0
 11
697.000007
 21
-24.647308
 31
0.0
  0
LINE
  5
29B
100
AcDbEntity
  8
V0-VYPLNE
  6
CONTINUOUS
 62
    52
100
AcDbLine
 10
683.000004
 20
-19.647308
 30
0.0
 11
697.000007
 21
-19.647308
 31
0.0
  0
LINE
  5
29C
100
AcDbEntity
  8
V0-VYPLNE
  6
CONTINUOUS
 62
    52
100
AcDbLine
 10
683.000004
 20
-14.647308
 30
0.0
 11
697.000006
 21
-14.647308
 31
0.0
  0
LINE
  5
29D
100
AcDbEntity
  8
V0-VYPLNE
  6
CONTINUOUS
 62
    52
100
AcDbLine
 10
683.000004
 20
-9.647308
 30
0.0
 11
697.000006
 21
-9.647308
 31
0.0
  0
LINE
  5
29E
100
AcDbEntity
  8
V0-VYPLNE
  6
CONTINUOUS
 62
    52
100
AcDbLine
 10
683.000003
 20
-4.647308
 30
0.0
 11
697.000006
 21
-4.647308
 31
0.0
  0
LINE
  5
29F
100
AcDbEntity
  8
V0-VYPLNE
  6
CONTINUOUS
 62
    52
100
AcDbLine
 10
683.000003
 20
0.352692
 30
0.0
 11
697.000005
 21
0.352692
 31
0.0
  0
LINE
  5
2A0
100
AcDbEntity
  8
V0-VYPLNE
  6
CONTINUOUS
 62
    52
100
AcDbLine
 10
683.000003
 20
5.352692
 30
0.0
 11
697.000005
 21
5.352692
 31
0.0
  0
LINE
  5
2A1
100
AcDbEntity
  8
V0-VYPLNE
  6
CONTINUOUS
 62
    52
100
AcDbLine
 10
683.000002
 20
10.352692
 30
0.0
 11
697.000004
 21
10.352692
 31
0.0
  0
LINE
  5
2A2
100
AcDbEntity
  8
V0-VYPLNE
  6
CONTINUOUS
 62
    52
100
AcDbLine
 10
683.000002
 20
15.352692
 30
0.0
 11
697.000004
 21
15.352692
 31
0.0
  0
LINE
  5
2A3
100
AcDbEntity
  8
V0-VYPLNE
  6
CONTINUOUS
 62
    52
100
AcDbLine
 10
683.000002
 20
20.352692
 30
0.0
 11
697.000002
 21
20.352692
 31
0.0
  0
LINE
  5
2A4
100
AcDbEntity
  8
V0-VYPLNE
  6
CONTINUOUS
 62
    52
100
AcDbLine
 10
683.000001
 20
25.352692
 30
0.0
 11
697.000002
 21
25.352692
 31
0.0
  0
LINE
  5
2A5
100
AcDbEntity
  8
V0-VYPLNE
  6
CONTINUOUS
 62
    52
100
AcDbLine
 10
683.000001
 20
30.352692
 30
0.0
 11
697.000001
 21
30.352692
 31
0.0
  0
LINE
  5
2A6
100
AcDbEntity
  8
V0-VYPLNE
  6
CONTINUOUS
 62
    52
100
AcDbLine
 10
683.000001
 20
35.352692
 30
0.0
 11
697.000001
 21
35.352692
 31
0.0
  0
LINE
  5
2A7
100
AcDbEntity
  8
V0-VYPLNE
  6
CONTINUOUS
 62
    52
100
AcDbLine
 10
683.0
 20
40.352692
 30
0.0
 11
697.0
 21
40.352692
 31
0.0
  0
LINE
  5
2A8
100
AcDbEntity
  8
V0-VYPLNE
  6
CONTINUOUS
 62
    52
100
AcDbLine
 10
682.873413
 20
45.352692
 30
0.0
 11
683.0
 21
45.352692
 31
0.0
  0
LINE
  5
2A9
100
AcDbEntity
  8
V0-VYPLNE
  6
CONTINUOUS
 62
    52
100
AcDbLine
 10
683.0
 20
45.352692
 30
0.0
 11
697.0
 21
45.352692
 31
0.0
  0
LINE
  5
2AA
100
AcDbEntity
  8
V0-VYPLNE
  6
CONTINUOUS
 62
    52
100
AcDbLine
 10
690.0
 20
-10.0
 30
0.0
 11
710.0
 21
10.0
 31
0.0
  0
LINE
  5
2AB
100
AcDbEntity
  8
V0-VYPLNE
  6
CONTINUOUS
 62
    52
100
AcDbLine
 10
690.0
 20
10.0
 30
0.0
 11
710.0
 21
-10.0
 31
0.0
  0
DIMENSION
  5
314
100
AcDbEntity
  8
V0-VYPLNE
  6
CONTINUOUS
 62
    41
100
AcDbDimension
  2
*D4
 10
471.418671
 20
-62.5
 30
0.0
 11
471.418671
 21
-2.110017
 31
0.0
 70
   160
  1
%%c<>
  3
STANDARD
100
AcDbAlignedDimension
 13
430.0
 23
62.5
 33
0.0
 14
430.0
 24
-62.5
 34
0.0
 50
90.0
100
AcDbRotatedDimension
1001
ACAD
1000
DSTYLE
1002
{
1070
    78
1070
     8
1070
   140
1040
20.0
1070
   340
1005
CE
1070
    74
1070
     0
1070
    73
1070
     0
1070
    77
1070
     1
1070
   173
1070
     1
1070
   147
1040
3.0
1070
    42
1040
0.625
1070
    44
1040
1.25
1070
    43
1040
3.75
1070
   271
1070
     0
1070
   141
1040
2.5
1070
     7
1000
_OPEN
1070
     6
1000
_OPEN
1070
    41
1040
20.0
1070
   273
1070
     8
1070
   274
1070
     4
1070
   143
1040
0.0394
1070
   171
1070
     4
1002
}
  0
MTEXT
  5
482
100
AcDbEntity
  8
KOTY
100
AcDbMText
 10
585.506185
 20
144.202971
 30
0.0
 40
20.0
 41
0.0
 71
     6
 72
     1
  1
\A1;
  7
SIMPLEX
  0
LEADER
  5
483
100
AcDbEntity
  8
V0-VYPLNE
  6
CONTINUOUS
 62
    41
100
AcDbLeader
  3
STANDARD
 73
     0
 75
     1
 40
20.0
 41
46.666667
 76
     3
 10
626.553873
 20
90.747633
 30
0.0
 10
597.543896
 20
146.350238
 30
0.0
 10
577.543896
 20
146.350238
 30
0.0
 77
    41
340
484
1001
ACAD
1000
DSTYLE
1002
{
1070
    78
1070
     8
1070
   140
1040
20.0
1070
   340
1005
CE
1070
    74
1070
     0
1070
    73
1070
     0
1070
    77
1070
     1
1070
   173
1070
     1
1070
   147
1040
3.0
1070
    42
1040
0.625
1070
    44
1040
1.25
1070
    43
1040
3.75
1070
   271
1070
     0
1070
   141
1040
2.5
1070
     7
1000
_OPEN
1070
     6
1000
_OPEN
1070
    41
1040
20.0
1070
   273
1070
     8
1070
   274
1070
     4
1070
   143
1040
0.0394
1070
   171
1070
     4
1002
}
  0
MTEXT
  5
484
102
{ACAD_REACTORS
330
483
102
}
100
AcDbEntity
  8
V0-VYPLNE
  6
CONTINUOUS
 62
    41
100
AcDbMText
 10
574.543896
 20
159.350238
 30
0.0
 40
20.0
 41
0.0
 71
     6
 72
     1
  1
\A1;%%c10
  7
SIMPLEX
  0
DIMENSION
  5
491
100
AcDbEntity
  8
V0-VYPLNE
  6
CONTINUOUS
 62
    41
100
AcDbDimension
  2
*D5
 10
770.0
 20
146.480799
 30
0.0
 11
700.0
 21
159.480799
 31
0.0
 70
    32
  3
STANDARD
100
AcDbAlignedDimension
 13
630.0
 23
98.915421
 33
0.0
 14
770.0
 24
98.915421
 34
0.0
100
AcDbRotatedDimension
1001
ACAD
1000
DSTYLE
1002
{
1070
    78
1070
     8
1070
   140
1040
20.0
1070
   340
1005
CE
1070
    74
1070
     0
1070
    73
1070
     0
1070
    77
1070
     1
1070
   173
1070
     1
1070
   147
1040
3.0
1070
    42
1040
0.625
1070
    44
1040
1.25
1070
    43
1040
3.75
1070
   271
1070
     0
1070
   141
1040
2.5
1070
     7
1000
_OPEN
1070
     6
1000
_OPEN
1070
    41
1040
20.0
1070
   273
1070
     8
1070
   274
1070
     4
1070
   143
1040
0.0394
1070
   171
1070
     4
1002
}
  0
DIMENSION
  5
4A3
100
AcDbEntity
  8
V0-VYPLNE
  6
CONTINUOUS
 62
    41
100
AcDbDimension
  2
*D6
 10
90.0
 20
-138.117323
 30
0.0
 11
70.0
 21
-125.117323
 31
0.0
 70
    32
  3
STANDARD
100
AcDbAlignedDimension
 13
50.0
 23
-63.5
 33
0.0
 14
90.0
 24
-56.25
 34
0.0
100
AcDbRotatedDimension
1001
ACAD
1000
DSTYLE
1002
{
1070
    78
1070
     8
1070
   140
1040
20.0
1070
   340
1005
CE
1070
    74
1070
     0
1070
    73
1070
     0
1070
    77
1070
     1
1070
   173
1070
     1
1070
   147
1040
3.0
1070
    42
1040
0.625
1070
    44
1040
1.25
1070
    43
1040
3.75
1070
   271
1070
     0
1070
   141
1040
2.5
1070
     7
1000
_OPEN
1070
     6
1000
_OPEN
1070
    41
1040
20.0
1070
   273
1070
     8
1070
   274
1070
     4
1070
   143
1040
0.0394
1070
   171
1070
     4
1002
}
  0
INSERT
  5
579
100
AcDbEntity
  8
KOTY
100
AcDbBlockReference
  2
ABBB
 10
0.524522
 20
122.99428
 30
0.0
  0
POINT
  5
581
100
AcDbEntity
  8
V0-VYPLNE
  6
CONTINUOUS
 62
    52
100
AcDbPoint
 10
700.0
 20
0.0
 30
0.0
  0
LINE
  5
582
100
AcDbEntity
  8
V0-VYPLNE
  6
CONTINUOUS
 62
    52
100
AcDbLine
 10
232.831253
 20
-27.221809
 30
0.0
 11
266.90918
 21
2.838097
 31
0.0
  0
LINE
  5
583
100
AcDbEntity
  8
V0-VYPLNE
  6
CONTINUOUS
 62
    52
100
AcDbLine
 10
232.831253
 20
1.168083
 30
0.0
 11
232.831253
 21
-27.221809
 31
0.0
  0
LINE
  5
584
100
AcDbEntity
  8
V0-VYPLNE
  6
CONTINUOUS
 62
    52
100
AcDbLine
 10
232.831253
 20
28.985771
 30
0.0
 11
266.90918
 21
-1.074135
 31
0.0
  0
LINE
  5
585
100
AcDbEntity
  8
V0-VYPLNE
  6
CONTINUOUS
 62
    52
100
AcDbLine
 10
232.831253
 20
0.595879
 30
0.0
 11
232.831253
 21
28.985771
 31
0.0
  0
POINT
  5
586
100
AcDbEntity
  8
KOTY
100
AcDbPoint
 10
85.0
 20
-340.0
 30
0.0
  0
POINT
  5
587
100
AcDbEntity
  8
KOTY
100
AcDbPoint
 10
90.0
 20
0.0
 30
0.0
  0
ENDSEC
  0
SECTION
  2
OBJECTS
  0
DICTIONARY
  5
C
100
AcDbDictionary
  3
ACAD_GROUP
350
D
  3
ACAD_MLINESTYLE
350
1B
  0
DICTIONARY
  5
D
102
{ACAD_REACTORS
330
C
102
}
100
AcDbDictionary
  0
DICTIONARY
  5
1B
102
{ACAD_REACTORS
330
C
102
}
100
AcDbDictionary
  3
STANDARD
350
1C
  0
MLINESTYLE
  5
1C
102
{ACAD_REACTORS
330
1B
102
}
100
AcDbMlineStyle
  2
STANDARD
 70
     0
  3

 62
   256
 51
90.0
 52
90.0
 71
     2
 49
0.5
 62
   256
  6
BYLAYER
 49
-0.5
 62
   256
  6
BYLAYER
  0
ENDSEC
  0
EOF
