  0
SECTION
  2
HEADER
  9
$ACADVER
  1
AC1014
  9
$ACADMAINTVER
 70
     0
  9
$DWGCODEPAGE
  3
ANSI_1250
  9
$INSBASE
 10
0.0
 20
0.0
 30
0.0
  9
$EXTMIN
 10
15.515052
 20
-1104.102732
 30
0.0
  9
$EXTMAX
 10
1345.744755
 20
438.349541
 30
0.0
  9
$LIMMIN
 10
0.0
 20
0.0
  9
$LIMMAX
 10
420.0
 20
297.0
  9
$ORTHOMODE
 70
     1
  9
$REGENMODE
 70
     1
  9
$FILLMODE
 70
     1
  9
$QTEXTMODE
 70
     0
  9
$MIRRTEXT
 70
     1
  9
$DRAGMODE
 70
     2
  9
$LTSCALE
 40
1.0
  9
$OSMODE
 70
    37
  9
$ATTMODE
 70
     1
  9
$TEXTSIZE
 40
2.5
  9
$TRACEWID
 40
1.0
  9
$TEXTSTYLE
  7
STANDARD
  9
$CLAYER
  8
0
  9
$CELTYPE
  6
BYLAYER
  9
$CECOLOR
 62
   256
  9
$CELTSCALE
 40
1.0
  9
$DELOBJ
 70
     1
  9
$DISPSILH
 70
     0
  9
$DIMSCALE
 40
1.0
  9
$DIMASZ
 40
25.0
  9
$DIMEXO
 40
0.625
  9
$DIMDLI
 40
3.75
  9
$DIMRND
 40
0.0
  9
$DIMDLE
 40
0.0
  9
$DIMEXE
 40
1.25
  9
$DIMTP
 40
0.0
  9
$DIMTM
 40
0.0
  9
$DIMTXT
 40
25.0
  9
$DIMCEN
 40
2.5
  9
$DIMTSZ
 40
0.0
  9
$DIMTOL
 70
     0
  9
$DIMLIM
 70
     0
  9
$DIMTIH
 70
     0
  9
$DIMTOH
 70
     0
  9
$DIMSE1
 70
     0
  9
$DIMSE2
 70
     0
  9
$DIMTAD
 70
     1
  9
$DIMZIN
 70
     8
  9
$DIMBLK
  1

  9
$DIMASO
 70
     1
  9
$DIMSHO
 70
     1
  9
$DIMPOST
  1

  9
$DIMAPOST
  1

  9
$DIMALT
 70
     0
  9
$DIMALTD
 70
     4
  9
$DIMALTF
 40
0.0394
  9
$DIMLFAC
 40
1.0
  9
$DIMTOFL
 70
     0
  9
$DIMTVP
 40
0.0
  9
$DIMTIX
 70
     0
  9
$DIMSOXD
 70
     0
  9
$DIMSAH
 70
     1
  9
$DIMBLK1
  1
_OPEN
  9
$DIMBLK2
  1
_OPEN
  9
$DIMSTYLE
  2
STANDARD
  9
$DIMCLRD
 70
     0
  9
$DIMCLRE
 70
     0
  9
$DIMCLRT
 70
     0
  9
$DIMTFAC
 40
1.0
  9
$DIMGAP
 40
3.0
  9
$DIMJUST
 70
     0
  9
$DIMSD1
 70
     0
  9
$DIMSD2
 70
     0
  9
$DIMTOLJ
 70
     1
  9
$DIMTZIN
 70
     0
  9
$DIMALTZ
 70
     0
  9
$DIMALTTZ
 70
     0
  9
$DIMFIT
 70
     3
  9
$DIMUPT
 70
     0
  9
$DIMUNIT
 70
     2
  9
$DIMDEC
 70
     0
  9
$DIMTDEC
 70
     4
  9
$DIMALTU
 70
     8
  9
$DIMALTTD
 70
     4
  9
$DIMTXSTY
  7
STANDARD
  9
$DIMAUNIT
 70
     0
  9
$LUNITS
 70
     2
  9
$LUPREC
 70
     4
  9
$SKETCHINC
 40
1.0
  9
$FILLETRAD
 40
10.0
  9
$AUNITS
 70
     0
  9
$AUPREC
 70
     0
  9
$MENU
  1
.
  9
$ELEVATION
 40
0.0
  9
$PELEVATION
 40
0.0
  9
$THICKNESS
 40
0.0
  9
$LIMCHECK
 70
     0
  9
$BLIPMODE
 70
     0
  9
$CHAMFERA
 40
10.0
  9
$CHAMFERB
 40
10.0
  9
$CHAMFERC
 40
20.0
  9
$CHAMFERD
 40
0.0
  9
$SKPOLY
 70
     0
  9
$TDCREATE
 40
2451201.446247917
  9
$TDUPDATE
 40
2453315.463680741
  9
$TDINDWG
 40
0.2004161111
  9
$TDUSRTIMER
 40
0.2004161111
  9
$USRTIMER
 70
     1
  9
$ANGBASE
 50
0.0
  9
$ANGDIR
 70
     0
  9
$PDMODE
 70
     3
  9
$PDSIZE
 40
20.0
  9
$PLINEWID
 40
0.0
  9
$COORDS
 70
     1
  9
$SPLFRAME
 70
     0
  9
$SPLINETYPE
 70
     6
  9
$SPLINESEGS
 70
     8
  9
$ATTDIA
 70
     0
  9
$ATTREQ
 70
     1
  9
$HANDLING
 70
     1
  9
$HANDSEED
  5
1095
  9
$SURFTAB1
 70
     6
  9
$SURFTAB2
 70
     6
  9
$SURFTYPE
 70
     6
  9
$SURFU
 70
     6
  9
$SURFV
 70
     6
  9
$UCSNAME
  2

  9
$UCSORG
 10
95.0
 20
-613.9684415448591
 30
0.0
  9
$UCSXDIR
 10
1.0
 20
0.0
 30
0.0
  9
$UCSYDIR
 10
0.0
 20
1.0
 30
0.0
  9
$PUCSNAME
  2

  9
$PUCSORG
 10
0.0
 20
0.0
 30
0.0
  9
$PUCSXDIR
 10
1.0
 20
0.0
 30
0.0
  9
$PUCSYDIR
 10
0.0
 20
1.0
 30
0.0
  9
$USERI1
 70
     0
  9
$USERI2
 70
     0
  9
$USERI3
 70
     0
  9
$USERI4
 70
     0
  9
$USERI5
 70
     0
  9
$USERR1
 40
0.0
  9
$USERR2
 40
0.0
  9
$USERR3
 40
0.0
  9
$USERR4
 40
0.0
  9
$USERR5
 40
0.0
  9
$WORLDVIEW
 70
     1
  9
$SHADEDGE
 70
     3
  9
$SHADEDIF
 70
    70
  9
$TILEMODE
 70
     1
  9
$MAXACTVP
 70
    48
  9
$PINSBASE
 10
0.0
 20
0.0
 30
0.0
  9
$PLIMCHECK
 70
     0
  9
$PEXTMIN
 10
1.000000E+20
 20
1.000000E+20
 30
1.000000E+20
  9
$PEXTMAX
 10
-1.000000E+20
 20
-1.000000E+20
 30
-1.000000E+20
  9
$PLIMMIN
 10
0.0
 20
0.0
  9
$PLIMMAX
 10
420.0
 20
297.0
  9
$UNITMODE
 70
     0
  9
$VISRETAIN
 70
     1
  9
$PLINEGEN
 70
     0
  9
$PSLTSCALE
 70
     1
  9
$TREEDEPTH
 70
  3020
  9
$PICKSTYLE
 70
     1
  9
$CMLSTYLE
  2
STANDARD
  9
$CMLJUST
 70
     1
  9
$CMLSCALE
 40
22.0
  9
$PROXYGRAPHICS
 70
     1
  9
$MEASUREMENT
 70
     1
  0
ENDSEC
  0
SECTION
  2
CLASSES
  0
ENDSEC
  0
SECTION
  2
TABLES
  0
TABLE
  2
VPORT
  5
8
100
AcDbSymbolTable
 70
     2
  0
VPORT
  5
1094
100
AcDbSymbolTableRecord
100
AcDbViewportTableRecord
  2
*ACTIVE
 70
     0
 10
0.0
 20
0.0
 11
1.0
 21
1.0
 12
617.603709
 22
-307.500599
 13
0.0
 23
0.0
 14
10.0
 24
10.0
 15
10.0
 25
10.0
 16
0.0
 26
0.0
 36
1.0
 17
0.0
 27
0.0
 37
0.0
 40
1649.229513
 41
1.523346
 42
50.0
 43
0.0
 44
0.0
 50
0.0
 51
0.0
 71
     0
 72
   100
 73
     1
 74
     1
 75
     0
 76
     0
 77
     0
 78
     0
  0
ENDTAB
  0
TABLE
  2
LTYPE
  5
5
100
AcDbSymbolTable
 70
     2
  0
LTYPE
  5
12
100
AcDbSymbolTableRecord
100
AcDbLinetypeTableRecord
  2
BYBLOCK
 70
     0
  3

 72
    65
 73
     0
 40
0.0
  0
LTYPE
  5
13
100
AcDbSymbolTableRecord
100
AcDbLinetypeTableRecord
  2
BYLAYER
 70
     0
  3

 72
    65
 73
     0
 40
0.0
  0
LTYPE
  5
14
100
AcDbSymbolTableRecord
100
AcDbLinetypeTableRecord
  2
CONTINUOUS
 70
     0
  3
Solid line
 72
    65
 73
     0
 40
0.0
  0
LTYPE
  5
75
100
AcDbSymbolTableRecord
100
AcDbLinetypeTableRecord
  2
DASHDOT
 70
     0
  3
__ . __ . __ . __ . __ . __ . __ . __ . __ . __
 72
    65
 73
     4
 40
1.0
 49
0.5
 74
     0
 49
-0.25
 74
     0
 49
0.0
 74
     0
 49
-0.25
 74
     0
  0
ENDTAB
  0
TABLE
  2
LAYER
  5
2
100
AcDbSymbolTable
 70
     6
  0
LAYER
  5
E
100
AcDbSymbolTableRecord
100
AcDbLayerTableRecord
  2
0
 70
     0
 62
     7
  6
CONTINUOUS
  0
LAYER
  5
242
100
AcDbSymbolTableRecord
100
AcDbLayerTableRecord
  2
DEFPOINTS
 70
     0
 62
    52
  6
CONTINUOUS
  0
LAYER
  5
C77
100
AcDbSymbolTableRecord
100
AcDbLayerTableRecord
  2
V0-OBRYS
 70
     0
 62
    90
  6
CONTINUOUS
  0
LAYER
  5
C78
100
AcDbSymbolTableRecord
100
AcDbLayerTableRecord
  2
V0-VYPLNE
 70
     0
 62
    52
  6
CONTINUOUS
  0
LAYER
  5
C79
100
AcDbSymbolTableRecord
100
AcDbLayerTableRecord
  2
V0-NAZVY
 70
     0
 62
   210
  6
CONTINUOUS
  0
LAYER
  5
C7A
100
AcDbSymbolTableRecord
100
AcDbLayerTableRecord
  2
V0-ZBYTEK
 70
     0
 62
    51
  6
CONTINUOUS
  0
ENDTAB
  0
TABLE
  2
STYLE
  5
3
100
AcDbSymbolTable
 70
     2
  0
STYLE
  5
F
100
AcDbSymbolTableRecord
100
AcDbTextStyleTableRecord
  2
STANDARD
 70
     0
 40
0.0
 41
1.0
 50
0.0
 71
     0
 42
2.5
  3
txt
  4

  0
STYLE
  5
93
100
AcDbSymbolTableRecord
100
AcDbTextStyleTableRecord
  2
SIMPLEX
 70
     0
 40
0.0
 41
1.0
 50
0.0
 71
     0
 42
0.2
  3
SIMPLEX
  4

  0
ENDTAB
  0
TABLE
  2
VIEW
  5
6
100
AcDbSymbolTable
 70
     0
  0
ENDTAB
  0
TABLE
  2
UCS
  5
7
100
AcDbSymbolTable
 70
     0
  0
ENDTAB
  0
TABLE
  2
APPID
  5
9
100
AcDbSymbolTable
 70
     1
  0
APPID
  5
10
100
AcDbSymbolTableRecord
100
AcDbRegAppTableRecord
  2
ACAD
 70
     0
  0
ENDTAB
  0
TABLE
  2
DIMSTYLE
  5
A
100
AcDbSymbolTable
 70
     1
  0
DIMSTYLE
105
1D
102
{ACAD_REACTORS
330
26E
330
90C
330
984
330
991
330
A00
330
A24
330
286
102
}
100
AcDbSymbolTableRecord
100
AcDbDimStyleTableRecord
  2
STANDARD
 70
     0
  3

  4

  5

  6

  7

 40
1.0
 41
0.18
 42
0.0625
 43
0.38
 44
0.18
 45
0.0
 46
0.0
 47
0.0
 48
0.0
140
0.18
141
0.09
142
0.0
143
25.4
144
1.0
145
0.0
146
1.0
147
0.09
 71
     0
 72
     0
 73
     1
 74
     1
 75
     0
 76
     0
 77
     0
 78
     0
170
     0
171
     2
172
     0
173
     0
174
     0
175
     0
176
     0
177
     0
178
     0
270
     2
271
     4
272
     4
273
     2
274
     2
340
F
275
     0
280
     0
281
     0
282
     0
283
     1
284
     0
285
     0
286
     0
287
     3
288
     0
  0
ENDTAB
  0
TABLE
  2
BLOCK_RECORD
  5
1
100
AcDbSymbolTable
 70
    12
  0
BLOCK_RECORD
  5
18
100
AcDbSymbolTableRecord
100
AcDbBlockTableRecord
  2
*MODEL_SPACE
  0
BLOCK_RECORD
  5
15
100
AcDbSymbolTableRecord
100
AcDbBlockTableRecord
  2
*PAPER_SPACE
  0
BLOCK_RECORD
  5
234
100
AcDbSymbolTableRecord
100
AcDbBlockTableRecord
  2
_OPEN
  0
BLOCK_RECORD
  5
262
100
AcDbSymbolTableRecord
100
AcDbBlockTableRecord
  2
*D1
  0
BLOCK_RECORD
  5
27A
100
AcDbSymbolTableRecord
100
AcDbBlockTableRecord
  2
*D2
  0
BLOCK_RECORD
  5
900
100
AcDbSymbolTableRecord
100
AcDbBlockTableRecord
  2
*D3
  0
BLOCK_RECORD
  5
978
100
AcDbSymbolTableRecord
100
AcDbBlockTableRecord
  2
*D4
  0
BLOCK_RECORD
  5
985
100
AcDbSymbolTableRecord
100
AcDbBlockTableRecord
  2
*D5
  0
BLOCK_RECORD
  5
9F4
100
AcDbSymbolTableRecord
100
AcDbBlockTableRecord
  2
*D6
  0
BLOCK_RECORD
  5
A17
100
AcDbSymbolTableRecord
100
AcDbBlockTableRecord
  2
*D7
  0
ENDTAB
  0
ENDSEC
  0
SECTION
  2
BLOCKS
  0
BLOCK
  5
19
100
AcDbEntity
  8
0
100
AcDbBlockBegin
  2
*MODEL_SPACE
 70
     0
 10
0.0
 20
0.0
 30
0.0
  3
*MODEL_SPACE
  1

  0
ENDBLK
  5
1A
100
AcDbEntity
  8
0
100
AcDbBlockEnd
  0
BLOCK
  5
16
100
AcDbEntity
 67
     1
  8
0
100
AcDbBlockBegin
  2
*PAPER_SPACE
 70
     0
 10
0.0
 20
0.0
 30
0.0
  3
*PAPER_SPACE
  1

  0
ENDBLK
  5
17
100
AcDbEntity
 67
     1
  8
0
100
AcDbBlockEnd
  0
BLOCK
  5
235
100
AcDbEntity
  8
0
100
AcDbBlockBegin
  2
_OPEN
 70
     0
 10
0.0
 20
0.0
 30
0.0
  3
_OPEN
  1

  0
LINE
  5
236
100
AcDbEntity
  8
0
  6
BYBLOCK
 62
     0
100
AcDbLine
 10
-1.0
 20
0.166667
 30
0.0
 11
0.0
 21
0.0
 31
0.0
  0
LINE
  5
237
100
AcDbEntity
  8
0
  6
BYBLOCK
 62
     0
100
AcDbLine
 10
0.0
 20
0.0
 30
0.0
 11
-1.0
 21
-0.166667
 31
0.0
  0
LINE
  5
238
100
AcDbEntity
  8
0
  6
BYBLOCK
 62
     0
100
AcDbLine
 10
0.0
 20
0.0
 30
0.0
 11
-1.0
 21
0.0
 31
0.0
  0
ENDBLK
  5
239
100
AcDbEntity
  8
0
100
AcDbBlockEnd
  0
BLOCK
  5
104D
100
AcDbEntity
  8
0
100
AcDbBlockBegin
  2
*D1
 70
     1
 10
0.0
 20
0.0
 30
0.0
  3
*D1
  1

  0
LINE
  5
104E
100
AcDbEntity
  8
0
  6
BYBLOCK
 62
     0
100
AcDbLine
 10
1239.994966
 20
344.063956
 30
0.0
 11
1316.203348
 21
344.063956
 31
0.0
  0
LINE
  5
104F
100
AcDbEntity
  8
0
  6
BYBLOCK
 62
     0
100
AcDbLine
 10
1237.619966
 20
-340.936044
 30
0.0
 11
1316.203348
 21
-340.936044
 31
0.0
  0
LINE
  5
1050
100
AcDbEntity
  8
0
  6
BYBLOCK
 62
     0
100
AcDbLine
 10
1314.953348
 20
319.063956
 30
0.0
 11
1314.953348
 21
-315.936044
 31
0.0
  0
INSERT
  5
1051
100
AcDbEntity
  8
0
  6
BYBLOCK
 62
     0
100
AcDbBlockReference
  2
_OPEN
 10
1314.953348
 20
344.063956
 30
0.0
 41
25.0
 42
25.0
 43
25.0
 50
90.0
  0
INSERT
  5
1052
100
AcDbEntity
  8
0
  6
BYBLOCK
 62
     0
100
AcDbBlockReference
  2
_OPEN
 10
1314.953348
 20
-340.936044
 30
0.0
 41
25.0
 42
25.0
 43
25.0
 50
270.0
  0
MTEXT
  5
1053
100
AcDbEntity
  8
0
  6
BYBLOCK
 62
     0
100
AcDbMText
 10
1299.453348
 20
1.563956
 30
0.0
 40
25.0
 41
0.0
 71
     5
 72
     1
  1
\A1;685
 11
0.0
 21
1.0
 31
0.0
  0
POINT
  5
1054
100
AcDbEntity
  8
DEFPOINTS
  6
BYBLOCK
 62
     0
100
AcDbPoint
 10
1239.369966
 20
344.063956
 30
0.0
  0
POINT
  5
1055
100
AcDbEntity
  8
DEFPOINTS
  6
BYBLOCK
 62
     0
100
AcDbPoint
 10
1236.994966
 20
-340.936044
 30
0.0
  0
POINT
  5
1056
100
AcDbEntity
  8
DEFPOINTS
  6
BYBLOCK
 62
     0
100
AcDbPoint
 10
1314.953348
 20
-340.936044
 30
0.0
  0
ENDBLK
  5
1057
100
AcDbEntity
  8
0
100
AcDbBlockEnd
  0
BLOCK
  5
1042
100
AcDbEntity
  8
0
100
AcDbBlockBegin
  2
*D2
 70
     1
 10
0.0
 20
0.0
 30
0.0
  3
*D2
  1

  0
LINE
  5
1043
100
AcDbEntity
  8
0
  6
BYBLOCK
 62
     0
100
AcDbLine
 10
760.619966
 20
326.104376
 30
0.0
 11
760.619966
 21
409.167571
 31
0.0
  0
LINE
  5
1044
100
AcDbEntity
  8
0
  6
BYBLOCK
 62
     0
100
AcDbLine
 10
1185.619966
 20
326.104376
 30
0.0
 11
1185.619966
 21
409.167571
 31
0.0
  0
LINE
  5
1045
100
AcDbEntity
  8
0
  6
BYBLOCK
 62
     0
100
AcDbLine
 10
785.619966
 20
407.917571
 30
0.0
 11
1160.619966
 21
407.917571
 31
0.0
  0
INSERT
  5
1046
100
AcDbEntity
  8
0
  6
BYBLOCK
 62
     0
100
AcDbBlockReference
  2
_OPEN
 10
760.619966
 20
407.917571
 30
0.0
 41
25.0
 42
25.0
 43
25.0
 50
180.0
  0
INSERT
  5
1047
100
AcDbEntity
  8
0
  6
BYBLOCK
 62
     0
100
AcDbBlockReference
  2
_OPEN
 10
1185.619966
 20
407.917571
 30
0.0
 41
25.0
 42
25.0
 43
25.0
  0
MTEXT
  5
1048
100
AcDbEntity
  8
0
  6
BYBLOCK
 62
     0
100
AcDbMText
 10
973.119966
 20
423.417571
 30
0.0
 40
25.0
 41
0.0
 71
     5
 72
     1
  1
\A1;425
  0
POINT
  5
1049
100
AcDbEntity
  8
DEFPOINTS
  6
BYBLOCK
 62
     0
100
AcDbPoint
 10
760.619966
 20
325.479376
 30
0.0
  0
POINT
  5
104A
100
AcDbEntity
  8
DEFPOINTS
  6
BYBLOCK
 62
     0
100
AcDbPoint
 10
1185.619966
 20
325.479376
 30
0.0
  0
POINT
  5
104B
100
AcDbEntity
  8
DEFPOINTS
  6
BYBLOCK
 62
     0
100
AcDbPoint
 10
1185.619966
 20
407.917571
 30
0.0
  0
ENDBLK
  5
104C
100
AcDbEntity
  8
0
100
AcDbBlockEnd
  0
BLOCK
  5
1058
100
AcDbEntity
  8
0
100
AcDbBlockBegin
  2
*D3
 70
     1
 10
0.0
 20
0.0
 30
0.0
  3
*D3
  1

  0
LINE
  5
1059
100
AcDbEntity
  8
0
  6
BYBLOCK
 62
     0
100
AcDbLine
 10
708.619966
 20
-341.561044
 30
0.0
 11
708.619966
 21
-430.204254
 31
0.0
  0
LINE
  5
105A
100
AcDbEntity
  8
0
  6
BYBLOCK
 62
     0
100
AcDbLine
 10
1237.619966
 20
-341.561044
 30
0.0
 11
1237.619966
 21
-430.204254
 31
0.0
  0
LINE
  5
105B
100
AcDbEntity
  8
0
  6
BYBLOCK
 62
     0
100
AcDbLine
 10
733.619966
 20
-428.954254
 30
0.0
 11
1212.619966
 21
-428.954254
 31
0.0
  0
INSERT
  5
105C
100
AcDbEntity
  8
0
  6
BYBLOCK
 62
     0
100
AcDbBlockReference
  2
_OPEN
 10
708.619966
 20
-428.954254
 30
0.0
 41
25.0
 42
25.0
 43
25.0
 50
180.0
  0
INSERT
  5
105D
100
AcDbEntity
  8
0
  6
BYBLOCK
 62
     0
100
AcDbBlockReference
  2
_OPEN
 10
1237.619966
 20
-428.954254
 30
0.0
 41
25.0
 42
25.0
 43
25.0
  0
MTEXT
  5
105E
100
AcDbEntity
  8
0
  6
BYBLOCK
 62
     0
100
AcDbMText
 10
973.119966
 20
-413.454254
 30
0.0
 40
25.0
 41
0.0
 71
     5
 72
     1
  1
\A1;529
  0
POINT
  5
105F
100
AcDbEntity
  8
DEFPOINTS
  6
BYBLOCK
 62
     0
100
AcDbPoint
 10
708.619966
 20
-340.936044
 30
0.0
  0
POINT
  5
1060
100
AcDbEntity
  8
DEFPOINTS
  6
BYBLOCK
 62
     0
100
AcDbPoint
 10
1237.619966
 20
-340.936044
 30
0.0
  0
POINT
  5
1061
100
AcDbEntity
  8
DEFPOINTS
  6
BYBLOCK
 62
     0
100
AcDbPoint
 10
1237.619966
 20
-428.954254
 30
0.0
  0
ENDBLK
  5
1062
100
AcDbEntity
  8
0
100
AcDbBlockEnd
  0
BLOCK
  5
1084
100
AcDbEntity
  8
0
100
AcDbBlockBegin
  2
*D4
 70
     1
 10
0.0
 20
0.0
 30
0.0
  3
*D4
  1

  0
LINE
  5
1085
100
AcDbEntity
  8
0
  6
BYBLOCK
 62
     0
100
AcDbLine
 10
454.625
 20
250.0
 30
0.0
 11
541.720228
 21
250.0
 31
0.0
  0
LINE
  5
1086
100
AcDbEntity
  8
0
  6
BYBLOCK
 62
     0
100
AcDbLine
 10
454.625
 20
-250.0
 30
0.0
 11
541.720228
 21
-250.0
 31
0.0
  0
LINE
  5
1087
100
AcDbEntity
  8
0
  6
BYBLOCK
 62
     0
100
AcDbLine
 10
540.470228
 20
225.0
 30
0.0
 11
540.470228
 21
-225.0
 31
0.0
  0
INSERT
  5
1088
100
AcDbEntity
  8
0
  6
BYBLOCK
 62
     0
100
AcDbBlockReference
  2
_OPEN
 10
540.470228
 20
250.0
 30
0.0
 41
25.0
 42
25.0
 43
25.0
 50
90.0
  0
INSERT
  5
1089
100
AcDbEntity
  8
0
  6
BYBLOCK
 62
     0
100
AcDbBlockReference
  2
_OPEN
 10
540.470228
 20
-250.0
 30
0.0
 41
25.0
 42
25.0
 43
25.0
 50
270.0
  0
MTEXT
  5
108A
100
AcDbEntity
  8
0
  6
BYBLOCK
 62
     0
100
AcDbMText
 10
524.970228
 20
0.0
 30
0.0
 40
25.0
 41
0.0
 71
     5
 72
     1
  1
\A1;\U+2205500
 11
0.0
 21
1.0
 31
0.0
  0
POINT
  5
108B
100
AcDbEntity
  8
DEFPOINTS
  6
BYBLOCK
 62
     0
100
AcDbPoint
 10
454.0
 20
250.0
 30
0.0
  0
POINT
  5
108C
100
AcDbEntity
  8
DEFPOINTS
  6
BYBLOCK
 62
     0
100
AcDbPoint
 10
454.0
 20
-250.0
 30
0.0
  0
POINT
  5
108D
100
AcDbEntity
  8
DEFPOINTS
  6
BYBLOCK
 62
     0
100
AcDbPoint
 10
540.470228
 20
-250.0
 30
0.0
  0
ENDBLK
  5
108E
100
AcDbEntity
  8
0
100
AcDbBlockEnd
  0
BLOCK
  5
1079
100
AcDbEntity
  8
0
100
AcDbBlockBegin
  2
*D5
 70
     1
 10
0.0
 20
0.0
 30
0.0
  3
*D5
  1

  0
LINE
  5
107A
100
AcDbEntity
  8
0
  6
BYBLOCK
 62
     0
100
AcDbLine
 10
395.625
 20
336.853683
 30
0.0
 11
592.093115
 21
336.853683
 31
0.0
  0
LINE
  5
107B
100
AcDbEntity
  8
0
  6
BYBLOCK
 62
     0
100
AcDbLine
 10
390.625
 20
-348.167815
 30
0.0
 11
592.093115
 21
-348.167815
 31
0.0
  0
LINE
  5
107C
100
AcDbEntity
  8
0
  6
BYBLOCK
 62
     0
100
AcDbLine
 10
590.843115
 20
311.853683
 30
0.0
 11
590.843115
 21
-323.167815
 31
0.0
  0
INSERT
  5
107D
100
AcDbEntity
  8
0
  6
BYBLOCK
 62
     0
100
AcDbBlockReference
  2
_OPEN
 10
590.843115
 20
336.853683
 30
0.0
 41
25.0
 42
25.0
 43
25.0
 50
90.0
  0
INSERT
  5
107E
100
AcDbEntity
  8
0
  6
BYBLOCK
 62
     0
100
AcDbBlockReference
  2
_OPEN
 10
590.843115
 20
-348.167815
 30
0.0
 41
25.0
 42
25.0
 43
25.0
 50
270.0
  0
MTEXT
  5
107F
100
AcDbEntity
  8
0
  6
BYBLOCK
 62
     0
100
AcDbMText
 10
575.343115
 20
-5.657066
 30
0.0
 40
25.0
 41
0.0
 71
     5
 72
     1
  1
\A1;685
 11
0.0
 21
1.0
 31
0.0
  0
POINT
  5
1080
100
AcDbEntity
  8
DEFPOINTS
  6
BYBLOCK
 62
     0
100
AcDbPoint
 10
395.0
 20
336.853683
 30
0.0
  0
POINT
  5
1081
100
AcDbEntity
  8
DEFPOINTS
  6
BYBLOCK
 62
     0
100
AcDbPoint
 10
390.0
 20
-348.167815
 30
0.0
  0
POINT
  5
1082
100
AcDbEntity
  8
DEFPOINTS
  6
BYBLOCK
 62
     0
100
AcDbPoint
 10
590.843115
 20
-348.167815
 30
0.0
  0
ENDBLK
  5
1083
100
AcDbEntity
  8
0
100
AcDbBlockEnd
  0
BLOCK
  5
106E
100
AcDbEntity
  8
0
100
AcDbBlockBegin
  2
*D6
 70
     1
 10
0.0
 20
0.0
 30
0.0
  3
*D6
  1

  0
LINE
  5
106F
100
AcDbEntity
  8
0
  6
BYBLOCK
 62
     0
100
AcDbLine
 10
25.0
 20
-250.625
 30
0.0
 11
25.0
 21
-461.665602
 31
0.0
  0
LINE
  5
1070
100
AcDbEntity
  8
0
  6
BYBLOCK
 62
     0
100
AcDbLine
 10
454.625
 20
-250.625
 30
0.0
 11
454.625
 21
-461.665602
 31
0.0
  0
LINE
  5
1071
100
AcDbEntity
  8
0
  6
BYBLOCK
 62
     0
100
AcDbLine
 10
50.0
 20
-460.415602
 30
0.0
 11
429.625
 21
-460.415602
 31
0.0
  0
INSERT
  5
1072
100
AcDbEntity
  8
0
  6
BYBLOCK
 62
     0
100
AcDbBlockReference
  2
_OPEN
 10
25.0
 20
-460.415602
 30
0.0
 41
25.0
 42
25.0
 43
25.0
 50
180.0
  0
INSERT
  5
1073
100
AcDbEntity
  8
0
  6
BYBLOCK
 62
     0
100
AcDbBlockReference
  2
_OPEN
 10
454.625
 20
-460.415602
 30
0.0
 41
25.0
 42
25.0
 43
25.0
  0
MTEXT
  5
1074
100
AcDbEntity
  8
0
  6
BYBLOCK
 62
     0
100
AcDbMText
 10
240.3125
 20
-444.915602
 30
0.0
 40
25.0
 41
0.0
 71
     5
 72
     1
  1
\A1;430
  0
POINT
  5
1075
100
AcDbEntity
  8
DEFPOINTS
  6
BYBLOCK
 62
     0
100
AcDbPoint
 10
25.0
 20
-250.0
 30
0.0
  0
POINT
  5
1076
100
AcDbEntity
  8
DEFPOINTS
  6
BYBLOCK
 62
     0
100
AcDbPoint
 10
454.625
 20
-250.0
 30
0.0
  0
POINT
  5
1077
100
AcDbEntity
  8
DEFPOINTS
  6
BYBLOCK
 62
     0
100
AcDbPoint
 10
454.625
 20
-460.415602
 30
0.0
  0
ENDBLK
  5
1078
100
AcDbEntity
  8
0
100
AcDbBlockEnd
  0
BLOCK
  5
1063
100
AcDbEntity
  8
0
100
AcDbBlockBegin
  2
*D7
 70
     1
 10
0.0
 20
0.0
 30
0.0
  3
*D7
  1

  0
LINE
  5
1064
100
AcDbEntity
  8
0
  6
BYBLOCK
 62
     0
100
AcDbLine
 10
25.0
 20
-250.625
 30
0.0
 11
25.0
 21
-408.181313
 31
0.0
  0
LINE
  5
1065
100
AcDbEntity
  8
0
  6
BYBLOCK
 62
     0
100
AcDbLine
 10
90.0
 20
-348.792815
 30
0.0
 11
90.0
 21
-408.181313
 31
0.0
  0
LINE
  5
1066
100
AcDbEntity
  8
0
  6
BYBLOCK
 62
     0
100
AcDbLine
 10
50.0
 20
-406.931313
 30
0.0
 11
65.0
 21
-406.931313
 31
0.0
  0
INSERT
  5
1067
100
AcDbEntity
  8
0
  6
BYBLOCK
 62
     0
100
AcDbBlockReference
  2
_OPEN
 10
25.0
 20
-406.931313
 30
0.0
 41
25.0
 42
25.0
 43
25.0
 50
180.0
  0
INSERT
  5
1068
100
AcDbEntity
  8
0
  6
BYBLOCK
 62
     0
100
AcDbBlockReference
  2
_OPEN
 10
90.0
 20
-406.931313
 30
0.0
 41
25.0
 42
25.0
 43
25.0
  0
MTEXT
  5
1069
100
AcDbEntity
  8
0
  6
BYBLOCK
 62
     0
100
AcDbMText
 10
57.5
 20
-391.431313
 30
0.0
 40
25.0
 41
0.0
 71
     5
 72
     1
  1
\A1;65
  0
POINT
  5
106A
100
AcDbEntity
  8
DEFPOINTS
  6
BYBLOCK
 62
     0
100
AcDbPoint
 10
25.0
 20
-250.0
 30
0.0
  0
POINT
  5
106B
100
AcDbEntity
  8
DEFPOINTS
  6
BYBLOCK
 62
     0
100
AcDbPoint
 10
90.0
 20
-348.167815
 30
0.0
  0
POINT
  5
106C
100
AcDbEntity
  8
DEFPOINTS
  6
BYBLOCK
 62
     0
100
AcDbPoint
 10
90.0
 20
-406.931313
 30
0.0
  0
ENDBLK
  5
106D
100
AcDbEntity
  8
0
100
AcDbBlockEnd
  0
ENDSEC
  0
SECTION
  2
ENTITIES
  0
LINE
  5
124
100
AcDbEntity
  8
V0-VYPLNE
  6
DASHDOT
 62
    63
 48
20.0
100
AcDbLine
 10
469.195923
 20
0.0
 30
0.0
 11
17.080452
 21
0.0
 31
0.0
  0
LINE
  5
125
100
AcDbEntity
  8
V0-VYPLNE
  6
DASHDOT
 62
    63
 48
20.0
100
AcDbLine
 10
469.195923
 20
-839.047205
 30
0.0
 11
17.080452
 21
-839.047205
 31
0.0
  0
TEXT
  5
126
100
AcDbEntity
  8
V0-ZBYTEK
  6
CONTINUOUS
 62
    51
100
AcDbText
 10
710.895935
 20
-881.920988
 30
0.0
 40
22.5
  1
PRO KRUHOVA POTRUBI
  7
SIMPLEX
 72
     1
 11
912.860221
 21
-881.920988
 31
0.0
100
AcDbText
  0
TEXT
  5
127
100
AcDbEntity
  8
V0-ZBYTEK
  6
CONTINUOUS
 62
   130
100
AcDbText
 10
696.607564
 20
-830.599226
 30
0.0
 40
37.5
  1
VODNI OHRIVAC
  7
SIMPLEX
 72
     1
 11
912.678992
 21
-830.599226
 31
0.0
100
AcDbText
  0
LINE
  5
128
100
AcDbEntity
  8
V0-VYPLNE
  6
CONTINUOUS
 62
    52
100
AcDbLine
 10
250.557556
 20
-838.628168
 30
0.0
 11
250.557556
 21
-810.238276
 31
0.0
  0
LINE
  5
129
100
AcDbEntity
  8
V0-VYPLNE
  6
CONTINUOUS
 62
    52
100
AcDbLine
 10
250.557556
 20
-810.238276
 30
0.0
 11
284.635498
 21
-840.298182
 31
0.0
  0
LINE
  5
12A
100
AcDbEntity
  8
V0-VYPLNE
  6
CONTINUOUS
 62
    52
100
AcDbLine
 10
243.934814
 20
-0.572205
 30
0.0
 11
243.934814
 21
27.817688
 31
0.0
  0
LINE
  5
12B
100
AcDbEntity
  8
V0-VYPLNE
  6
CONTINUOUS
 62
    52
100
AcDbLine
 10
243.934814
 20
27.817688
 30
0.0
 11
278.012756
 21
-2.242249
 31
0.0
  0
LINE
  5
12C
100
AcDbEntity
  8
V0-VYPLNE
  6
CONTINUOUS
 62
    52
100
AcDbLine
 10
243.934814
 20
0.0
 30
0.0
 11
243.934814
 21
-28.389893
 31
0.0
  0
LINE
  5
12D
100
AcDbEntity
  8
V0-VYPLNE
  6
CONTINUOUS
 62
    52
100
AcDbLine
 10
243.934814
 20
-28.389893
 30
0.0
 11
278.012756
 21
1.669983
 31
0.0
  0
LINE
  5
132
100
AcDbEntity
  8
V0-OBRYS
  6
CONTINUOUS
 62
    90
100
AcDbLine
 10
90.0
 20
0.0
 30
0.0
 11
90.0
 21
326.853683
 31
0.0
  0
LINE
  5
133
100
AcDbEntity
  8
V0-OBRYS
  6
CONTINUOUS
 62
    90
100
AcDbLine
 10
84.513985
 20
336.5
 30
0.0
 11
85.0
 21
336.5
 31
0.0
  0
LINE
  5
134
100
AcDbEntity
  8
V0-OBRYS
  6
CONTINUOUS
 62
    90
100
AcDbLine
 10
85.0
 20
336.5
 30
0.0
 11
85.0
 21
326.853683
 31
0.0
  0
LINE
  5
135
100
AcDbEntity
  8
V0-OBRYS
  6
CONTINUOUS
 62
    90
100
AcDbLine
 10
395.0
 20
336.5
 30
0.0
 11
395.0
 21
326.853683
 31
0.0
  0
LINE
  5
136
100
AcDbEntity
  8
V0-OBRYS
  6
CONTINUOUS
 62
    90
100
AcDbLine
 10
85.0
 20
326.853683
 30
0.0
 11
395.0
 21
326.853683
 31
0.0
  0
LINE
  5
137
100
AcDbEntity
  8
V0-OBRYS
  6
CONTINUOUS
 62
    90
100
AcDbLine
 10
395.0
 20
336.853683
 30
0.0
 11
85.0
 21
336.853683
 31
0.0
  0
LINE
  5
13C
100
AcDbEntity
  8
V0-OBRYS
  6
CONTINUOUS
 62
    90
100
AcDbLine
 10
25.0
 20
0.0
 30
0.0
 11
25.0
 21
250.0
 31
0.0
  0
LINE
  5
13D
100
AcDbEntity
  8
V0-OBRYS
  6
CONTINUOUS
 62
    90
100
AcDbLine
 10
34.345802
 20
0.0
 30
0.0
 11
34.345802
 21
253.220367
 31
0.0
  0
LINE
  5
13E
100
AcDbEntity
  8
V0-OBRYS
  6
CONTINUOUS
 62
    90
100
AcDbLine
 10
34.345802
 20
253.220367
 30
0.0
 11
39.130844
 21
253.220367
 31
0.0
  0
LINE
  5
13F
100
AcDbEntity
  8
V0-OBRYS
  6
CONTINUOUS
 62
    90
100
AcDbLine
 10
39.130844
 20
253.220367
 30
0.0
 11
39.130844
 21
-0.100907
 31
0.0
  0
LINE
  5
140
100
AcDbEntity
  8
V0-OBRYS
  6
CONTINUOUS
 62
    90
100
AcDbLine
 10
34.358932
 20
250.0
 30
0.0
 11
25.0
 21
250.0
 31
0.0
  0
LINE
  5
141
100
AcDbEntity
  8
V0-OBRYS
  6
CONTINUOUS
 62
    90
100
AcDbLine
 10
39.146248
 20
250.0
 30
0.0
 11
90.0
 21
250.0
 31
0.0
  0
LINE
  5
142
100
AcDbEntity
  8
V0-OBRYS
  6
CONTINUOUS
 62
    90
100
AcDbLine
 10
454.0
 20
0.0
 30
0.0
 11
454.0
 21
250.0
 31
0.0
  0
LINE
  5
143
100
AcDbEntity
  8
V0-OBRYS
  6
CONTINUOUS
 62
    90
100
AcDbLine
 10
444.654205
 20
0.0
 30
0.0
 11
444.654205
 21
253.220367
 31
0.0
  0
LINE
  5
144
100
AcDbEntity
  8
V0-OBRYS
  6
CONTINUOUS
 62
    90
100
AcDbLine
 10
444.654205
 20
253.220367
 30
0.0
 11
439.869141
 21
253.220367
 31
0.0
  0
LINE
  5
145
100
AcDbEntity
  8
V0-OBRYS
  6
CONTINUOUS
 62
    90
100
AcDbLine
 10
439.869141
 20
253.220367
 30
0.0
 11
439.869141
 21
-0.100906
 31
0.0
  0
LINE
  5
146
100
AcDbEntity
  8
V0-OBRYS
  6
CONTINUOUS
 62
    90
100
AcDbLine
 10
444.641052
 20
250.0
 30
0.0
 11
454.0
 21
250.0
 31
0.0
  0
LINE
  5
147
100
AcDbEntity
  8
V0-OBRYS
  6
CONTINUOUS
 62
    90
100
AcDbLine
 10
439.85376
 20
250.0
 30
0.0
 11
390.0
 21
250.0
 31
0.0
  0
LINE
  5
154
100
AcDbEntity
  8
V0-OBRYS
  6
CONTINUOUS
 62
    90
100
AcDbLine
 10
390.0
 20
-574.193522
 30
0.0
 11
90.0
 21
-574.193522
 31
0.0
  0
LINE
  5
155
100
AcDbEntity
  8
V0-OBRYS
  6
CONTINUOUS
 62
    90
100
AcDbLine
 10
90.0
 20
-574.547205
 30
0.0
 11
90.0
 21
-839.047205
 31
0.0
  0
LINE
  5
156
100
AcDbEntity
  8
V0-OBRYS
  6
CONTINUOUS
 62
    90
100
AcDbLine
 10
390.0
 20
-574.547205
 30
0.0
 11
390.0
 21
-839.047205
 31
0.0
  0
LINE
  5
15D
100
AcDbEntity
  8
V0-OBRYS
  6
CONTINUOUS
 62
    90
100
AcDbLine
 10
454.0
 20
-839.047205
 30
0.0
 11
454.0
 21
-589.047205
 31
0.0
  0
LINE
  5
15E
100
AcDbEntity
  8
V0-OBRYS
  6
CONTINUOUS
 62
    90
100
AcDbLine
 10
444.654205
 20
-839.047205
 30
0.0
 11
444.654205
 21
-585.826838
 31
0.0
  0
LINE
  5
15F
100
AcDbEntity
  8
V0-OBRYS
  6
CONTINUOUS
 62
    90
100
AcDbLine
 10
444.654205
 20
-585.826838
 30
0.0
 11
439.869141
 21
-585.826838
 31
0.0
  0
LINE
  5
160
100
AcDbEntity
  8
V0-OBRYS
  6
CONTINUOUS
 62
    90
100
AcDbLine
 10
439.869141
 20
-585.826838
 30
0.0
 11
439.869141
 21
-839.148096
 31
0.0
  0
LINE
  5
161
100
AcDbEntity
  8
V0-OBRYS
  6
CONTINUOUS
 62
    90
100
AcDbLine
 10
444.641052
 20
-589.047205
 30
0.0
 11
454.0
 21
-589.047205
 31
0.0
  0
LINE
  5
16F
100
AcDbEntity
  8
V0-VYPLNE
  6
CONTINUOUS
 62
    52
100
AcDbLine
 10
250.557556
 20
-839.466242
 30
0.0
 11
250.557556
 21
-867.856135
 31
0.0
  0
LINE
  5
170
100
AcDbEntity
  8
V0-VYPLNE
  6
CONTINUOUS
 62
    52
100
AcDbLine
 10
250.557556
 20
-867.856135
 30
0.0
 11
284.635498
 21
-837.796229
 31
0.0
  0
LINE
  5
17B
100
AcDbEntity
  8
V0-OBRYS
  6
CONTINUOUS
 62
    90
100
AcDbLine
 10
439.85376
 20
-589.047205
 30
0.0
 11
390.0
 21
-589.047205
 31
0.0
  0
TEXT
  5
17D
100
AcDbEntity
  8
V0-NAZVY
  6
CONTINUOUS
 62
   210
100
AcDbText
 10
139.523768
 20
98.66355
 30
0.0
 40
30.0
  1
MBW-500
  7
SIMPLEX
 72
     1
 11
245.952339
 21
98.66355
 31
0.0
100
AcDbText
  0
TEXT
  5
17E
100
AcDbEntity
  8
V0-NAZVY
  6
CONTINUOUS
 62
   210
100
AcDbText
 10
142.042361
 20
-769.026609
 30
0.0
 40
30.0
  1
MBW-500
  7
SIMPLEX
 72
     1
 11
248.470932
 21
-769.026609
 31
0.0
100
AcDbText
  0
TEXT
  5
17F
100
AcDbEntity
  8
V0-NAZVY
  6
CONTINUOUS
 62
   210
100
AcDbText
 10
674.902141
 20
-737.400845
 30
0.0
 40
67.5
  1
MBW-500
  7
SIMPLEX
 72
     1
 11
914.366426
 21
-737.400845
 31
0.0
100
AcDbText
  0
LINE
  5
180
100
AcDbEntity
  8
V0-OBRYS
  6
CONTINUOUS
 62
    90
100
AcDbLine
 10
705.307761
 20
344.063956
 30
0.0
 11
705.307761
 21
334.62142
 31
0.0
  0
LINE
  5
181
100
AcDbEntity
  8
V0-OBRYS
  6
CONTINUOUS
 62
    90
100
AcDbLine
 10
705.307761
 20
344.063956
 30
0.0
 11
973.119966
 21
344.063956
 31
0.0
  0
LINE
  5
182
100
AcDbEntity
  8
V0-OBRYS
  6
CONTINUOUS
 62
    90
100
AcDbLine
 10
705.307761
 20
334.063956
 30
0.0
 11
973.119966
 21
334.063956
 31
0.0
  0
LINE
  5
186
100
AcDbEntity
  8
V0-OBRYS
  6
CONTINUOUS
 62
    90
100
AcDbLine
 10
718.932761
 20
-330.936044
 30
0.0
 11
718.307761
 21
334.063956
 31
0.0
  0
LINE
  5
187
100
AcDbEntity
  8
V0-OBRYS
  6
CONTINUOUS
 62
    90
100
AcDbLine
 10
1239.369966
 20
344.063956
 30
0.0
 11
1239.369966
 21
334.62142
 31
0.0
  0
LINE
  5
188
100
AcDbEntity
  8
V0-OBRYS
  6
CONTINUOUS
 62
    90
100
AcDbLine
 10
1239.369966
 20
344.063956
 30
0.0
 11
973.119966
 21
344.063956
 31
0.0
  0
LINE
  5
189
100
AcDbEntity
  8
V0-OBRYS
  6
CONTINUOUS
 62
    90
100
AcDbLine
 10
1239.369966
 20
334.063956
 30
0.0
 11
973.119966
 21
334.063956
 31
0.0
  0
TEXT
  5
18E
100
AcDbEntity
  8
V0-NAZVY
  6
CONTINUOUS
 62
   210
100
AcDbText
 10
878.245831
 20
284.617168
 30
0.0
 40
30.0
  1
MBW-500
  7
SIMPLEX
 72
     1
 11
984.674402
 21
284.617168
 31
0.0
100
AcDbText
  0
CIRCLE
  5
18F
100
AcDbEntity
  8
V0-OBRYS
  6
CONTINUOUS
 62
    90
100
AcDbCircle
 10
973.119966
 20
1.563956
 30
0.0
 40
232.296748
  0
CIRCLE
  5
190
100
AcDbEntity
  8
V0-OBRYS
  6
CONTINUOUS
 62
    90
100
AcDbCircle
 10
973.119966
 20
1.563956
 30
0.0
 40
249.92512
  0
LINE
  5
1A4
100
AcDbEntity
  8
V0-VYPLNE
  6
DASHDOT
 62
    63
 48
20.0
100
AcDbLine
 10
626.508631
 20
1.563956
 30
0.0
 11
1260.991271
 21
1.563956
 31
0.0
  0
LINE
  5
1A6
100
AcDbEntity
  8
V0-VYPLNE
  6
DASHDOT
 62
    63
 48
20.0
100
AcDbLine
 10
973.119966
 20
394.189926
 30
0.0
 11
973.119966
 21
-248.361165
 31
0.0
  0
LINE
  5
1AA
100
AcDbEntity
  8
V0-VYPLNE
  6
DASHDOT
 62
    63
 48
20.0
100
AcDbLine
 10
760.619966
 20
325.479376
 30
0.0
 11
760.619966
 21
299.765555
 31
0.0
  0
LINE
  5
1AE
100
AcDbEntity
  8
V0-VYPLNE
  6
DASHDOT
 62
    63
 48
20.0
100
AcDbLine
 10
1185.619966
 20
325.479376
 30
0.0
 11
1185.619966
 21
299.765555
 31
0.0
  0
LINE
  5
1B0
100
AcDbEntity
  8
V0-VYPLNE
  6
CONTINUOUS
 62
    52
100
AcDbLine
 10
819.804148
 20
176.080505
 30
0.0
 11
819.804148
 21
-172.952595
 31
0.0
  0
LINE
  5
1B2
100
AcDbEntity
  8
V0-VYPLNE
  6
CONTINUOUS
 62
    52
100
AcDbLine
 10
875.555369
 20
-209.250947
 30
0.0
 11
875.555369
 21
212.378857
 31
0.0
  0
LINE
  5
1B4
100
AcDbEntity
  8
V0-VYPLNE
  6
CONTINUOUS
 62
    52
100
AcDbLine
 10
854.579879
 20
-195.594297
 30
0.0
 11
875.555391
 21
-195.594297
 31
0.0
  0
LINE
  5
1B5
100
AcDbEntity
  8
V0-VYPLNE
  6
CONTINUOUS
 62
    52
100
AcDbLine
 10
819.804152
 20
-172.364622
 30
0.0
 11
875.555386
 21
-172.364622
 31
0.0
  0
LINE
  5
1B6
100
AcDbEntity
  8
V0-VYPLNE
  6
CONTINUOUS
 62
    52
100
AcDbLine
 10
819.804152
 20
-149.134947
 30
0.0
 11
875.555386
 21
-149.134947
 31
0.0
  0
LINE
  5
1B7
100
AcDbEntity
  8
V0-VYPLNE
  6
CONTINUOUS
 62
    52
100
AcDbLine
 10
819.804152
 20
-125.905271
 30
0.0
 11
875.555386
 21
-125.905271
 31
0.0
  0
LINE
  5
1B8
100
AcDbEntity
  8
V0-VYPLNE
  6
CONTINUOUS
 62
    52
100
AcDbLine
 10
819.804152
 20
-102.675596
 30
0.0
 11
875.555386
 21
-102.675596
 31
0.0
  0
LINE
  5
1B9
100
AcDbEntity
  8
V0-VYPLNE
  6
CONTINUOUS
 62
    52
100
AcDbLine
 10
819.804151
 20
-79.445921
 30
0.0
 11
875.555382
 21
-79.445921
 31
0.0
  0
LINE
  5
1BA
100
AcDbEntity
  8
V0-VYPLNE
  6
CONTINUOUS
 62
    52
100
AcDbLine
 10
819.804151
 20
-56.216246
 30
0.0
 11
875.555382
 21
-56.216246
 31
0.0
  0
LINE
  5
1BB
100
AcDbEntity
  8
V0-VYPLNE
  6
CONTINUOUS
 62
    52
100
AcDbLine
 10
819.804151
 20
-32.986571
 30
0.0
 11
875.555382
 21
-32.986571
 31
0.0
  0
LINE
  5
1BC
100
AcDbEntity
  8
V0-VYPLNE
  6
CONTINUOUS
 62
    52
100
AcDbLine
 10
819.80415
 20
-9.756896
 30
0.0
 11
875.555382
 21
-9.756896
 31
0.0
  0
LINE
  5
1BD
100
AcDbEntity
  8
V0-VYPLNE
  6
CONTINUOUS
 62
    52
100
AcDbLine
 10
819.80415
 20
13.472779
 30
0.0
 11
875.555382
 21
13.472779
 31
0.0
  0
LINE
  5
1BE
100
AcDbEntity
  8
V0-VYPLNE
  6
CONTINUOUS
 62
    52
100
AcDbLine
 10
819.80415
 20
36.702454
 30
0.0
 11
875.555377
 21
36.702454
 31
0.0
  0
LINE
  5
1BF
100
AcDbEntity
  8
V0-VYPLNE
  6
CONTINUOUS
 62
    52
100
AcDbLine
 10
819.80415
 20
59.932129
 30
0.0
 11
875.555377
 21
59.932129
 31
0.0
  0
LINE
  5
1C0
100
AcDbEntity
  8
V0-VYPLNE
  6
CONTINUOUS
 62
    52
100
AcDbLine
 10
819.804149
 20
83.161805
 30
0.0
 11
875.555377
 21
83.161805
 31
0.0
  0
LINE
  5
1C1
100
AcDbEntity
  8
V0-VYPLNE
  6
CONTINUOUS
 62
    52
100
AcDbLine
 10
819.804149
 20
106.39148
 30
0.0
 11
875.555377
 21
106.39148
 31
0.0
  0
LINE
  5
1C2
100
AcDbEntity
  8
V0-VYPLNE
  6
CONTINUOUS
 62
    52
100
AcDbLine
 10
819.804149
 20
129.621155
 30
0.0
 11
875.555369
 21
129.621155
 31
0.0
  0
LINE
  5
1C3
100
AcDbEntity
  8
V0-VYPLNE
  6
CONTINUOUS
 62
    52
100
AcDbLine
 10
819.804149
 20
152.85083
 30
0.0
 11
875.555369
 21
152.85083
 31
0.0
  0
LINE
  5
1C4
100
AcDbEntity
  8
V0-VYPLNE
  6
CONTINUOUS
 62
    52
100
AcDbLine
 10
819.804148
 20
176.080505
 30
0.0
 11
875.555369
 21
176.080505
 31
0.0
  0
LINE
  5
1C5
100
AcDbEntity
  8
V0-VYPLNE
  6
CONTINUOUS
 62
    52
100
AcDbLine
 10
855.482979
 20
199.31018
 30
0.0
 11
875.555369
 21
199.31018
 31
0.0
  0
LINE
  5
1CA
100
AcDbEntity
  8
V0-VYPLNE
  6
CONTINUOUS
 62
    52
100
AcDbLine
 10
791.928432
 20
-143.802592
 30
0.0
 11
791.928432
 21
146.930495
 31
0.0
  0
LINE
  5
1CB
100
AcDbEntity
  8
V0-VYPLNE
  6
CONTINUOUS
 62
    52
100
AcDbLine
 10
785.155616
 20
-131.825606
 30
0.0
 11
791.928436
 21
-131.825606
 31
0.0
  0
LINE
  5
1CC
100
AcDbEntity
  8
V0-VYPLNE
  6
CONTINUOUS
 62
    52
100
AcDbLine
 10
772.019558
 20
-108.595931
 30
0.0
 11
791.928435
 21
-108.595931
 31
0.0
  0
LINE
  5
1CD
100
AcDbEntity
  8
V0-VYPLNE
  6
CONTINUOUS
 62
    52
100
AcDbLine
 10
758.883503
 20
-85.366256
 30
0.0
 11
791.928435
 21
-85.366256
 31
0.0
  0
LINE
  5
1CE
100
AcDbEntity
  8
V0-VYPLNE
  6
CONTINUOUS
 62
    52
100
AcDbLine
 10
750.768861
 20
-62.136581
 30
0.0
 11
791.928435
 21
-62.136581
 31
0.0
  0
LINE
  5
1CF
100
AcDbEntity
  8
V0-VYPLNE
  6
CONTINUOUS
 62
    52
100
AcDbLine
 10
747.141958
 20
-38.906906
 30
0.0
 11
791.928434
 21
-38.906906
 31
0.0
  0
LINE
  5
1D0
100
AcDbEntity
  8
V0-VYPLNE
  6
CONTINUOUS
 62
    52
100
AcDbLine
 10
743.515051
 20
-15.677231
 30
0.0
 11
791.928434
 21
-15.677231
 31
0.0
  0
LINE
  5
1D1
100
AcDbEntity
  8
V0-VYPLNE
  6
CONTINUOUS
 62
    52
100
AcDbLine
 10
741.945277
 20
7.552444
 30
0.0
 11
791.928434
 21
7.552444
 31
0.0
  0
LINE
  5
1D2
100
AcDbEntity
  8
V0-VYPLNE
  6
CONTINUOUS
 62
    52
100
AcDbLine
 10
746.298037
 20
30.782119
 30
0.0
 11
791.928434
 21
30.782119
 31
0.0
  0
LINE
  5
1D3
100
AcDbEntity
  8
V0-VYPLNE
  6
CONTINUOUS
 62
    52
100
AcDbLine
 10
750.650792
 20
54.011795
 30
0.0
 11
791.928433
 21
54.011795
 31
0.0
  0
LINE
  5
1D4
100
AcDbEntity
  8
V0-VYPLNE
  6
CONTINUOUS
 62
    52
100
AcDbLine
 10
755.003547
 20
77.24147
 30
0.0
 11
791.928433
 21
77.24147
 31
0.0
  0
LINE
  5
1D5
100
AcDbEntity
  8
V0-VYPLNE
  6
CONTINUOUS
 62
    52
100
AcDbLine
 10
764.545054
 20
100.471145
 30
0.0
 11
791.928433
 21
100.471145
 31
0.0
  0
LINE
  5
1D6
100
AcDbEntity
  8
V0-VYPLNE
  6
CONTINUOUS
 62
    52
100
AcDbLine
 10
778.236743
 20
123.70082
 30
0.0
 11
791.928432
 21
123.70082
 31
0.0
  0
LINE
  5
1D7
100
AcDbEntity
  8
V0-OBRYS
  6
CONTINUOUS
 62
    90
100
AcDbLine
 10
903.430942
 20
223.16094
 30
0.0
 11
902.981491
 21
223.26749
 31
0.0
  0
LINE
  5
1D8
100
AcDbEntity
  8
V0-OBRYS
  6
CONTINUOUS
 62
    90
100
AcDbLine
 10
902.981491
 20
223.26749
 30
0.0
 11
903.430942
 21
223.16094
 31
0.0
  0
LINE
  5
1D9
100
AcDbEntity
  8
V0-VYPLNE
  6
CONTINUOUS
 62
    52
100
AcDbLine
 10
903.430942
 20
223.16094
 30
0.0
 11
903.430942
 21
-220.033018
 31
0.0
  0
LINE
  5
1DB
100
AcDbEntity
  8
V0-VYPLNE
  6
CONTINUOUS
 62
    52
100
AcDbLine
 10
959.182162
 20
-230.314283
 30
0.0
 11
959.182162
 21
233.442205
 31
0.0
  0
LINE
  5
1DD
100
AcDbEntity
  8
V0-VYPLNE
  6
CONTINUOUS
 62
    52
100
AcDbLine
 10
903.430947
 20
-218.202887
 30
0.0
 11
959.182158
 21
-218.202887
 31
0.0
  0
LINE
  5
1DE
100
AcDbEntity
  8
V0-VYPLNE
  6
CONTINUOUS
 62
    52
100
AcDbLine
 10
903.430947
 20
-194.973212
 30
0.0
 11
959.182158
 21
-194.973212
 31
0.0
  0
LINE
  5
1DF
100
AcDbEntity
  8
V0-VYPLNE
  6
CONTINUOUS
 62
    52
100
AcDbLine
 10
903.430947
 20
-171.743537
 30
0.0
 11
959.182158
 21
-171.743537
 31
0.0
  0
LINE
  5
1E0
100
AcDbEntity
  8
V0-VYPLNE
  6
CONTINUOUS
 62
    52
100
AcDbLine
 10
903.430946
 20
-148.513862
 30
0.0
 11
959.182158
 21
-148.513862
 31
0.0
  0
LINE
  5
1E1
100
AcDbEntity
  8
V0-VYPLNE
  6
CONTINUOUS
 62
    52
100
AcDbLine
 10
903.430946
 20
-125.284187
 30
0.0
 11
959.182158
 21
-125.284187
 31
0.0
  0
LINE
  5
1E2
100
AcDbEntity
  8
V0-VYPLNE
  6
CONTINUOUS
 62
    52
100
AcDbLine
 10
903.430946
 20
-102.054511
 30
0.0
 11
959.182158
 21
-102.054511
 31
0.0
  0
LINE
  5
1E3
100
AcDbEntity
  8
V0-VYPLNE
  6
CONTINUOUS
 62
    52
100
AcDbLine
 10
903.430946
 20
-78.824836
 30
0.0
 11
959.182158
 21
-78.824836
 31
0.0
  0
LINE
  5
1E4
100
AcDbEntity
  8
V0-VYPLNE
  6
CONTINUOUS
 62
    52
100
AcDbLine
 10
903.430945
 20
-55.595161
 30
0.0
 11
959.182158
 21
-55.595161
 31
0.0
  0
LINE
  5
1E5
100
AcDbEntity
  8
V0-VYPLNE
  6
CONTINUOUS
 62
    52
100
AcDbLine
 10
903.430945
 20
-32.365486
 30
0.0
 11
959.182158
 21
-32.365486
 31
0.0
  0
LINE
  5
1E6
100
AcDbEntity
  8
V0-VYPLNE
  6
CONTINUOUS
 62
    52
100
AcDbLine
 10
903.430945
 20
-9.135811
 30
0.0
 11
959.182158
 21
-9.135811
 31
0.0
  0
LINE
  5
1E7
100
AcDbEntity
  8
V0-VYPLNE
  6
CONTINUOUS
 62
    52
100
AcDbLine
 10
903.430944
 20
14.093864
 30
0.0
 11
959.182162
 21
14.093864
 31
0.0
  0
LINE
  5
1E8
100
AcDbEntity
  8
V0-VYPLNE
  6
CONTINUOUS
 62
    52
100
AcDbLine
 10
903.430944
 20
37.323539
 30
0.0
 11
959.182162
 21
37.323539
 31
0.0
  0
LINE
  5
1E9
100
AcDbEntity
  8
V0-VYPLNE
  6
CONTINUOUS
 62
    52
100
AcDbLine
 10
903.430944
 20
60.553214
 30
0.0
 11
959.182162
 21
60.553214
 31
0.0
  0
LINE
  5
1EA
100
AcDbEntity
  8
V0-VYPLNE
  6
CONTINUOUS
 62
    52
100
AcDbLine
 10
903.430944
 20
83.78289
 30
0.0
 11
959.182162
 21
83.78289
 31
0.0
  0
LINE
  5
1EB
100
AcDbEntity
  8
V0-VYPLNE
  6
CONTINUOUS
 62
    52
100
AcDbLine
 10
903.430943
 20
107.012565
 30
0.0
 11
959.182162
 21
107.012565
 31
0.0
  0
LINE
  5
1EC
100
AcDbEntity
  8
V0-VYPLNE
  6
CONTINUOUS
 62
    52
100
AcDbLine
 10
903.430943
 20
130.24224
 30
0.0
 11
959.182162
 21
130.24224
 31
0.0
  0
LINE
  5
1ED
100
AcDbEntity
  8
V0-VYPLNE
  6
CONTINUOUS
 62
    52
100
AcDbLine
 10
903.430943
 20
153.471915
 30
0.0
 11
959.182162
 21
153.471915
 31
0.0
  0
LINE
  5
1EE
100
AcDbEntity
  8
V0-VYPLNE
  6
CONTINUOUS
 62
    52
100
AcDbLine
 10
903.430943
 20
176.70159
 30
0.0
 11
959.182162
 21
176.70159
 31
0.0
  0
LINE
  5
1EF
100
AcDbEntity
  8
V0-VYPLNE
  6
CONTINUOUS
 62
    52
100
AcDbLine
 10
903.430942
 20
199.931265
 30
0.0
 11
959.182162
 21
199.931265
 31
0.0
  0
LINE
  5
1F0
100
AcDbEntity
  8
V0-OBRYS
  6
CONTINUOUS
 62
    90
100
AcDbLine
 10
903.430942
 20
223.16094
 30
0.0
 11
903.430942
 21
223.16094
 31
0.0
  0
LINE
  5
1F1
100
AcDbEntity
  8
V0-VYPLNE
  6
CONTINUOUS
 62
    52
100
AcDbLine
 10
903.430942
 20
223.16094
 30
0.0
 11
959.182162
 21
223.16094
 31
0.0
  0
LINE
  5
1F2
100
AcDbEntity
  8
V0-OBRYS
  6
CONTINUOUS
 62
    90
100
AcDbLine
 10
1042.808991
 20
223.16094
 30
0.0
 11
1043.258442
 21
223.26749
 31
0.0
  0
LINE
  5
1F3
100
AcDbEntity
  8
V0-OBRYS
  6
CONTINUOUS
 62
    90
100
AcDbLine
 10
1043.258442
 20
223.26749
 30
0.0
 11
1042.808991
 21
223.16094
 31
0.0
  0
LINE
  5
1F4
100
AcDbEntity
  8
V0-VYPLNE
  6
CONTINUOUS
 62
    52
100
AcDbLine
 10
1042.808991
 20
223.16094
 30
0.0
 11
1042.808991
 21
-220.033018
 31
0.0
  0
LINE
  5
1F6
100
AcDbEntity
  8
V0-VYPLNE
  6
CONTINUOUS
 62
    52
100
AcDbLine
 10
987.05777
 20
-230.314283
 30
0.0
 11
987.05777
 21
233.442205
 31
0.0
  0
LINE
  5
1F8
100
AcDbEntity
  8
V0-VYPLNE
  6
CONTINUOUS
 62
    52
100
AcDbLine
 10
1042.808985
 20
-218.202887
 30
0.0
 11
987.057775
 21
-218.202887
 31
0.0
  0
LINE
  5
1F9
100
AcDbEntity
  8
V0-VYPLNE
  6
CONTINUOUS
 62
    52
100
AcDbLine
 10
1042.808986
 20
-194.973212
 30
0.0
 11
987.057775
 21
-194.973212
 31
0.0
  0
LINE
  5
1FA
100
AcDbEntity
  8
V0-VYPLNE
  6
CONTINUOUS
 62
    52
100
AcDbLine
 10
1042.808986
 20
-171.743537
 30
0.0
 11
987.057775
 21
-171.743537
 31
0.0
  0
LINE
  5
1FB
100
AcDbEntity
  8
V0-VYPLNE
  6
CONTINUOUS
 62
    52
100
AcDbLine
 10
1042.808986
 20
-148.513862
 30
0.0
 11
987.057775
 21
-148.513862
 31
0.0
  0
LINE
  5
1FC
100
AcDbEntity
  8
V0-VYPLNE
  6
CONTINUOUS
 62
    52
100
AcDbLine
 10
1042.808986
 20
-125.284187
 30
0.0
 11
987.057775
 21
-125.284187
 31
0.0
  0
LINE
  5
1FD
100
AcDbEntity
  8
V0-VYPLNE
  6
CONTINUOUS
 62
    52
100
AcDbLine
 10
1042.808987
 20
-102.054511
 30
0.0
 11
987.057775
 21
-102.054511
 31
0.0
  0
LINE
  5
1FE
100
AcDbEntity
  8
V0-VYPLNE
  6
CONTINUOUS
 62
    52
100
AcDbLine
 10
1042.808987
 20
-78.824836
 30
0.0
 11
987.057775
 21
-78.824836
 31
0.0
  0
LINE
  5
1FF
100
AcDbEntity
  8
V0-VYPLNE
  6
CONTINUOUS
 62
    52
100
AcDbLine
 10
1042.808987
 20
-55.595161
 30
0.0
 11
987.057775
 21
-55.595161
 31
0.0
  0
LINE
  5
200
100
AcDbEntity
  8
V0-VYPLNE
  6
CONTINUOUS
 62
    52
100
AcDbLine
 10
1042.808988
 20
-32.365486
 30
0.0
 11
987.057775
 21
-32.365486
 31
0.0
  0
LINE
  5
201
100
AcDbEntity
  8
V0-VYPLNE
  6
CONTINUOUS
 62
    52
100
AcDbLine
 10
1042.808988
 20
-9.135811
 30
0.0
 11
987.057775
 21
-9.135811
 31
0.0
  0
LINE
  5
202
100
AcDbEntity
  8
V0-VYPLNE
  6
CONTINUOUS
 62
    52
100
AcDbLine
 10
1042.808988
 20
14.093864
 30
0.0
 11
987.05777
 21
14.093864
 31
0.0
  0
LINE
  5
203
100
AcDbEntity
  8
V0-VYPLNE
  6
CONTINUOUS
 62
    52
100
AcDbLine
 10
1042.808988
 20
37.323539
 30
0.0
 11
987.05777
 21
37.323539
 31
0.0
  0
LINE
  5
204
100
AcDbEntity
  8
V0-VYPLNE
  6
CONTINUOUS
 62
    52
100
AcDbLine
 10
1042.808989
 20
60.553214
 30
0.0
 11
987.05777
 21
60.553214
 31
0.0
  0
LINE
  5
205
100
AcDbEntity
  8
V0-VYPLNE
  6
CONTINUOUS
 62
    52
100
AcDbLine
 10
1042.808989
 20
83.78289
 30
0.0
 11
987.05777
 21
83.78289
 31
0.0
  0
LINE
  5
206
100
AcDbEntity
  8
V0-VYPLNE
  6
CONTINUOUS
 62
    52
100
AcDbLine
 10
1042.808989
 20
107.012565
 30
0.0
 11
987.05777
 21
107.012565
 31
0.0
  0
LINE
  5
207
100
AcDbEntity
  8
V0-VYPLNE
  6
CONTINUOUS
 62
    52
100
AcDbLine
 10
1042.80899
 20
130.24224
 30
0.0
 11
987.05777
 21
130.24224
 31
0.0
  0
LINE
  5
208
100
AcDbEntity
  8
V0-VYPLNE
  6
CONTINUOUS
 62
    52
100
AcDbLine
 10
1042.80899
 20
153.471915
 30
0.0
 11
987.05777
 21
153.471915
 31
0.0
  0
LINE
  5
209
100
AcDbEntity
  8
V0-VYPLNE
  6
CONTINUOUS
 62
    52
100
AcDbLine
 10
1042.80899
 20
176.70159
 30
0.0
 11
987.05777
 21
176.70159
 31
0.0
  0
LINE
  5
20A
100
AcDbEntity
  8
V0-VYPLNE
  6
CONTINUOUS
 62
    52
100
AcDbLine
 10
1042.80899
 20
199.931265
 30
0.0
 11
987.05777
 21
199.931265
 31
0.0
  0
LINE
  5
20B
100
AcDbEntity
  8
V0-OBRYS
  6
CONTINUOUS
 62
    90
100
AcDbLine
 10
1042.808991
 20
223.16094
 30
0.0
 11
1042.808991
 21
223.16094
 31
0.0
  0
LINE
  5
20C
100
AcDbEntity
  8
V0-VYPLNE
  6
CONTINUOUS
 62
    52
100
AcDbLine
 10
1042.808991
 20
223.16094
 30
0.0
 11
987.05777
 21
223.16094
 31
0.0
  0
LINE
  5
20D
100
AcDbEntity
  8
V0-VYPLNE
  6
CONTINUOUS
 62
    52
100
AcDbLine
 10
1126.435784
 20
176.080505
 30
0.0
 11
1126.435784
 21
-172.952595
 31
0.0
  0
LINE
  5
20F
100
AcDbEntity
  8
V0-VYPLNE
  6
CONTINUOUS
 62
    52
100
AcDbLine
 10
1070.684564
 20
-209.250947
 30
0.0
 11
1070.684564
 21
212.378857
 31
0.0
  0
LINE
  5
211
100
AcDbEntity
  8
V0-VYPLNE
  6
CONTINUOUS
 62
    52
100
AcDbLine
 10
1091.660054
 20
-195.594297
 30
0.0
 11
1070.684542
 21
-195.594297
 31
0.0
  0
LINE
  5
212
100
AcDbEntity
  8
V0-VYPLNE
  6
CONTINUOUS
 62
    52
100
AcDbLine
 10
1126.43578
 20
-172.364622
 30
0.0
 11
1070.684546
 21
-172.364622
 31
0.0
  0
LINE
  5
213
100
AcDbEntity
  8
V0-VYPLNE
  6
CONTINUOUS
 62
    52
100
AcDbLine
 10
1126.435781
 20
-149.134947
 30
0.0
 11
1070.684546
 21
-149.134947
 31
0.0
  0
LINE
  5
214
100
AcDbEntity
  8
V0-VYPLNE
  6
CONTINUOUS
 62
    52
100
AcDbLine
 10
1126.435781
 20
-125.905271
 30
0.0
 11
1070.684546
 21
-125.905271
 31
0.0
  0
LINE
  5
215
100
AcDbEntity
  8
V0-VYPLNE
  6
CONTINUOUS
 62
    52
100
AcDbLine
 10
1126.435781
 20
-102.675596
 30
0.0
 11
1070.684546
 21
-102.675596
 31
0.0
  0
LINE
  5
216
100
AcDbEntity
  8
V0-VYPLNE
  6
CONTINUOUS
 62
    52
100
AcDbLine
 10
1126.435781
 20
-79.445921
 30
0.0
 11
1070.684551
 21
-79.445921
 31
0.0
  0
LINE
  5
217
100
AcDbEntity
  8
V0-VYPLNE
  6
CONTINUOUS
 62
    52
100
AcDbLine
 10
1126.435782
 20
-56.216246
 30
0.0
 11
1070.684551
 21
-56.216246
 31
0.0
  0
LINE
  5
218
100
AcDbEntity
  8
V0-VYPLNE
  6
CONTINUOUS
 62
    52
100
AcDbLine
 10
1126.435782
 20
-32.986571
 30
0.0
 11
1070.684551
 21
-32.986571
 31
0.0
  0
LINE
  5
219
100
AcDbEntity
  8
V0-VYPLNE
  6
CONTINUOUS
 62
    52
100
AcDbLine
 10
1126.435782
 20
-9.756896
 30
0.0
 11
1070.684551
 21
-9.756896
 31
0.0
  0
LINE
  5
21A
100
AcDbEntity
  8
V0-VYPLNE
  6
CONTINUOUS
 62
    52
100
AcDbLine
 10
1126.435782
 20
13.472779
 30
0.0
 11
1070.684551
 21
13.472779
 31
0.0
  0
LINE
  5
21B
100
AcDbEntity
  8
V0-VYPLNE
  6
CONTINUOUS
 62
    52
100
AcDbLine
 10
1126.435783
 20
36.702454
 30
0.0
 11
1070.684555
 21
36.702454
 31
0.0
  0
LINE
  5
21C
100
AcDbEntity
  8
V0-VYPLNE
  6
CONTINUOUS
 62
    52
100
AcDbLine
 10
1126.435783
 20
59.932129
 30
0.0
 11
1070.684555
 21
59.932129
 31
0.0
  0
LINE
  5
21D
100
AcDbEntity
  8
V0-VYPLNE
  6
CONTINUOUS
 62
    52
100
AcDbLine
 10
1126.435783
 20
83.161805
 30
0.0
 11
1070.684555
 21
83.161805
 31
0.0
  0
LINE
  5
21E
100
AcDbEntity
  8
V0-VYPLNE
  6
CONTINUOUS
 62
    52
100
AcDbLine
 10
1126.435784
 20
106.39148
 30
0.0
 11
1070.684555
 21
106.39148
 31
0.0
  0
LINE
  5
21F
100
AcDbEntity
  8
V0-VYPLNE
  6
CONTINUOUS
 62
    52
100
AcDbLine
 10
1126.435784
 20
129.621155
 30
0.0
 11
1070.684564
 21
129.621155
 31
0.0
  0
LINE
  5
220
100
AcDbEntity
  8
V0-VYPLNE
  6
CONTINUOUS
 62
    52
100
AcDbLine
 10
1126.435784
 20
152.85083
 30
0.0
 11
1070.684564
 21
152.85083
 31
0.0
  0
LINE
  5
221
100
AcDbEntity
  8
V0-VYPLNE
  6
CONTINUOUS
 62
    52
100
AcDbLine
 10
1126.435784
 20
176.080505
 30
0.0
 11
1070.684564
 21
176.080505
 31
0.0
  0
LINE
  5
222
100
AcDbEntity
  8
V0-VYPLNE
  6
CONTINUOUS
 62
    52
100
AcDbLine
 10
1090.756954
 20
199.31018
 30
0.0
 11
1070.684564
 21
199.31018
 31
0.0
  0
LINE
  5
227
100
AcDbEntity
  8
V0-VYPLNE
  6
CONTINUOUS
 62
    52
100
AcDbLine
 10
1154.3115
 20
-143.802604
 30
0.0
 11
1154.3115
 21
146.930484
 31
0.0
  0
LINE
  5
228
100
AcDbEntity
  8
V0-VYPLNE
  6
CONTINUOUS
 62
    52
100
AcDbLine
 10
1161.084316
 20
-131.825618
 30
0.0
 11
1154.311497
 21
-131.825618
 31
0.0
  0
LINE
  5
229
100
AcDbEntity
  8
V0-VYPLNE
  6
CONTINUOUS
 62
    52
100
AcDbLine
 10
1174.220375
 20
-108.595942
 30
0.0
 11
1154.311497
 21
-108.595942
 31
0.0
  0
LINE
  5
22A
100
AcDbEntity
  8
V0-VYPLNE
  6
CONTINUOUS
 62
    52
100
AcDbLine
 10
1187.35643
 20
-85.366267
 30
0.0
 11
1154.311498
 21
-85.366267
 31
0.0
  0
LINE
  5
22B
100
AcDbEntity
  8
V0-VYPLNE
  6
CONTINUOUS
 62
    52
100
AcDbLine
 10
1195.471072
 20
-62.136592
 30
0.0
 11
1154.311498
 21
-62.136592
 31
0.0
  0
LINE
  5
22C
100
AcDbEntity
  8
V0-VYPLNE
  6
CONTINUOUS
 62
    52
100
AcDbLine
 10
1199.097975
 20
-38.906917
 30
0.0
 11
1154.311498
 21
-38.906917
 31
0.0
  0
LINE
  5
22D
100
AcDbEntity
  8
V0-VYPLNE
  6
CONTINUOUS
 62
    52
100
AcDbLine
 10
1202.724882
 20
-15.677242
 30
0.0
 11
1154.311499
 21
-15.677242
 31
0.0
  0
LINE
  5
22E
100
AcDbEntity
  8
V0-VYPLNE
  6
CONTINUOUS
 62
    52
100
AcDbLine
 10
1204.294656
 20
7.552433
 30
0.0
 11
1154.311499
 21
7.552433
 31
0.0
  0
LINE
  5
22F
100
AcDbEntity
  8
V0-VYPLNE
  6
CONTINUOUS
 62
    52
100
AcDbLine
 10
1199.941896
 20
30.782108
 30
0.0
 11
1154.311499
 21
30.782108
 31
0.0
  0
LINE
  5
230
100
AcDbEntity
  8
V0-VYPLNE
  6
CONTINUOUS
 62
    52
100
AcDbLine
 10
1195.589141
 20
54.011783
 30
0.0
 11
1154.311499
 21
54.011783
 31
0.0
  0
LINE
  5
231
100
AcDbEntity
  8
V0-VYPLNE
  6
CONTINUOUS
 62
    52
100
AcDbLine
 10
1191.236386
 20
77.241459
 30
0.0
 11
1154.3115
 21
77.241459
 31
0.0
  0
LINE
  5
232
100
AcDbEntity
  8
V0-VYPLNE
  6
CONTINUOUS
 62
    52
100
AcDbLine
 10
1181.694879
 20
100.471134
 30
0.0
 11
1154.3115
 21
100.471134
 31
0.0
  0
LINE
  5
233
100
AcDbEntity
  8
V0-VYPLNE
  6
CONTINUOUS
 62
    52
100
AcDbLine
 10
1168.00319
 20
123.700809
 30
0.0
 11
1154.3115
 21
123.700809
 31
0.0
  0
DIMENSION
  5
26E
100
AcDbEntity
  8
V0-VYPLNE
  6
CONTINUOUS
 62
    52
100
AcDbDimension
  2
*D1
 10
1314.953348
 20
-340.936044
 30
0.0
 11
1314.953348
 21
1.563956
 31
0.0
 70
   160
  3
STANDARD
100
AcDbAlignedDimension
 13
1239.369966
 23
344.063956
 33
0.0
 14
1236.994966
 24
-340.936044
 34
0.0
 50
90.0
100
AcDbRotatedDimension
1001
ACAD
1000
DSTYLE
1002
{
1070
    78
1070
     8
1070
   140
1040
25.0
1070
    74
1070
     0
1070
    73
1070
     0
1070
    77
1070
     1
1070
   173
1070
     1
1070
   147
1040
3.0
1070
    42
1040
0.625
1070
    44
1040
1.25
1070
    43
1040
3.75
1070
   271
1070
     0
1070
   141
1040
2.5
1070
     7
1000
_OPEN
1070
     6
1000
_OPEN
1070
    41
1040
25.0
1070
   273
1070
     8
1070
   274
1070
     4
1070
   143
1040
0.0394
1070
   171
1070
     4
1002
}
  0
DIMENSION
  5
286
100
AcDbEntity
  8
V0-VYPLNE
  6
CONTINUOUS
 62
    52
100
AcDbDimension
  2
*D2
 10
1185.619966
 20
407.917571
 30
0.0
 11
973.119966
 21
407.917571
 31
0.0
 70
   160
  3
STANDARD
100
AcDbAlignedDimension
 13
760.619966
 23
325.479376
 33
0.0
 14
1185.619966
 24
325.479376
 34
0.0
100
AcDbRotatedDimension
1001
ACAD
1000
DSTYLE
1002
{
1070
    78
1070
     8
1070
   140
1040
25.0
1070
    74
1070
     0
1070
    73
1070
     0
1070
    77
1070
     1
1070
   173
1070
     1
1070
   147
1040
3.0
1070
    42
1040
0.625
1070
    44
1040
1.25
1070
    43
1040
3.75
1070
   271
1070
     0
1070
   141
1040
2.5
1070
     7
1000
_OPEN
1070
     6
1000
_OPEN
1070
    41
1040
25.0
1070
   273
1070
     8
1070
   274
1070
     4
1070
   143
1040
0.0394
1070
   171
1070
     4
1002
}
  0
LINE
  5
6A2
100
AcDbEntity
  8
V0-OBRYS
  6
CONTINUOUS
 62
    90
100
AcDbLine
 10
708.619966
 20
1.563956
 30
0.0
 11
708.932761
 21
335.042639
 31
0.0
  0
LINE
  5
6C9
100
AcDbEntity
  8
V0-OBRYS
  6
CONTINUOUS
 62
    90
100
AcDbLine
 10
1226.994966
 20
-330.936044
 30
0.0
 11
1226.994966
 21
333.661345
 31
0.0
  0
LINE
  5
70A
100
AcDbEntity
  8
V0-OBRYS
  6
CONTINUOUS
 62
    90
100
AcDbLine
 10
708.619966
 20
-340.936044
 30
0.0
 11
708.619966
 21
1.563956
 31
0.0
  0
LINE
  5
70B
100
AcDbEntity
  8
V0-OBRYS
  6
CONTINUOUS
 62
    90
100
AcDbLine
 10
1237.619966
 20
-340.936044
 30
0.0
 11
1237.619966
 21
333.661345
 31
0.0
  0
POINT
  5
734
100
AcDbEntity
  8
V0-VYPLNE
  6
CONTINUOUS
 62
    52
100
AcDbPoint
 10
90.0
 20
-838.845362
 30
0.0
  0
POINT
  5
735
100
AcDbEntity
  8
V0-VYPLNE
  6
CONTINUOUS
 62
    52
100
AcDbPoint
 10
90.0
 20
0.0
 30
0.0
  0
POINT
  5
736
100
AcDbEntity
  8
V0-VYPLNE
  6
CONTINUOUS
 62
    52
100
AcDbPoint
 10
973.119966
 20
1.563956
 30
0.0
  0
LINE
  5
8FE
100
AcDbEntity
  8
V0-OBRYS
  6
CONTINUOUS
 62
    90
100
AcDbLine
 10
90.0
 20
-348.167815
 30
0.0
 11
390.0
 21
-348.167815
 31
0.0
  0
LINE
  5
8FF
100
AcDbEntity
  8
V0-OBRYS
  6
CONTINUOUS
 62
    90
100
AcDbLine
 10
718.932761
 20
-330.936044
 30
0.0
 11
1226.994966
 21
-330.936044
 31
0.0
  0
DIMENSION
  5
90C
100
AcDbEntity
  8
V0-VYPLNE
  6
CONTINUOUS
 62
    52
100
AcDbDimension
  2
*D3
 10
1237.619966
 20
-428.954254
 30
0.0
 11
973.119966
 21
-428.954254
 31
0.0
 70
   160
  3
STANDARD
100
AcDbAlignedDimension
 13
708.619966
 23
-340.936044
 33
0.0
 14
1237.619966
 24
-340.936044
 34
0.0
100
AcDbRotatedDimension
1001
ACAD
1000
DSTYLE
1002
{
1070
    78
1070
     8
1070
   140
1040
25.0
1070
    74
1070
     0
1070
    73
1070
     0
1070
    77
1070
     1
1070
   173
1070
     1
1070
   147
1040
3.0
1070
    42
1040
0.625
1070
    44
1040
1.25
1070
    43
1040
3.75
1070
   271
1070
     1
1070
   141
1040
2.5
1070
     7
1000
_OPEN
1070
     6
1000
_OPEN
1070
    41
1040
25.0
1070
   273
1070
     8
1070
   274
1070
     4
1070
   143
1040
0.0394
1070
   171
1070
     4
1002
}
  0
LINE
  5
923
100
AcDbEntity
  8
V0-VYPLNE
  6
DASHDOT
 62
    63
 48
20.0
100
AcDbLine
 10
15.515052
 20
306.832185
 30
0.0
 11
97.765012
 21
306.832185
 31
0.0
  0
LINE
  5
924
100
AcDbEntity
  8
V0-VYPLNE
  6
DASHDOT
 62
    63
 48
20.0
100
AcDbLine
 10
1142.75178
 20
314.063956
 30
0.0
 11
1226.994966
 21
314.063956
 31
0.0
  0
LINE
  5
926
100
AcDbEntity
  8
V0-OBRYS
  6
CONTINUOUS
 62
    90
100
AcDbLine
 10
390.0
 20
-1104.102732
 30
0.0
 11
90.0
 21
-1104.102732
 31
0.0
  0
LINE
  5
92A
100
AcDbEntity
  8
V0-OBRYS
  6
CONTINUOUS
 62
    90
100
AcDbLine
 10
90.0
 20
-1103.749048
 30
0.0
 11
90.0
 21
-839.249048
 31
0.0
  0
LINE
  5
932
100
AcDbEntity
  8
V0-OBRYS
  6
CONTINUOUS
 62
    90
100
AcDbLine
 10
439.869141
 20
-1092.469416
 30
0.0
 11
439.869141
 21
-839.148157
 31
0.0
  0
LINE
  5
933
100
AcDbEntity
  8
V0-OBRYS
  6
CONTINUOUS
 62
    90
100
AcDbLine
 10
444.654205
 20
-839.249048
 30
0.0
 11
444.654205
 21
-1092.469416
 31
0.0
  0
LINE
  5
934
100
AcDbEntity
  8
V0-OBRYS
  6
CONTINUOUS
 62
    90
100
AcDbLine
 10
454.0
 20
-839.249048
 30
0.0
 11
454.0
 21
-1089.249048
 31
0.0
  0
LINE
  5
935
100
AcDbEntity
  8
V0-OBRYS
  6
CONTINUOUS
 62
    90
100
AcDbLine
 10
390.0
 20
-1103.749048
 30
0.0
 11
390.0
 21
-839.249048
 31
0.0
  0
LINE
  5
936
100
AcDbEntity
  8
V0-OBRYS
  6
CONTINUOUS
 62
    90
100
AcDbLine
 10
444.654205
 20
-1092.469416
 30
0.0
 11
439.869141
 21
-1092.469416
 31
0.0
  0
LINE
  5
937
100
AcDbEntity
  8
V0-OBRYS
  6
CONTINUOUS
 62
    90
100
AcDbLine
 10
439.85376
 20
-1089.249048
 30
0.0
 11
390.0
 21
-1089.249048
 31
0.0
  0
LINE
  5
938
100
AcDbEntity
  8
V0-OBRYS
  6
CONTINUOUS
 62
    90
100
AcDbLine
 10
444.641052
 20
-1089.249048
 30
0.0
 11
454.0
 21
-1089.249048
 31
0.0
  0
LINE
  5
95A
100
AcDbEntity
  8
V0-OBRYS
  6
CONTINUOUS
 62
    90
100
AcDbLine
 10
25.0
 20
0.0
 30
0.0
 11
25.0
 21
-250.0
 31
0.0
  0
LINE
  5
95B
100
AcDbEntity
  8
V0-OBRYS
  6
CONTINUOUS
 62
    90
100
AcDbLine
 10
34.345802
 20
0.0
 30
0.0
 11
34.345802
 21
-253.220367
 31
0.0
  0
LINE
  5
95C
100
AcDbEntity
  8
V0-OBRYS
  6
CONTINUOUS
 62
    90
100
AcDbLine
 10
39.130844
 20
-253.220367
 30
0.0
 11
39.130844
 21
0.100907
 31
0.0
  0
LINE
  5
95D
100
AcDbEntity
  8
V0-OBRYS
  6
CONTINUOUS
 62
    90
100
AcDbLine
 10
90.0
 20
0.0
 30
0.0
 11
90.0
 21
-348.167815
 31
0.0
  0
LINE
  5
95E
100
AcDbEntity
  8
V0-OBRYS
  6
CONTINUOUS
 62
    90
100
AcDbLine
 10
39.146248
 20
-250.0
 30
0.0
 11
90.0
 21
-250.0
 31
0.0
  0
LINE
  5
95F
100
AcDbEntity
  8
V0-OBRYS
  6
CONTINUOUS
 62
    90
100
AcDbLine
 10
34.358932
 20
-250.0
 30
0.0
 11
25.0
 21
-250.0
 31
0.0
  0
LINE
  5
960
100
AcDbEntity
  8
V0-OBRYS
  6
CONTINUOUS
 62
    90
100
AcDbLine
 10
34.345802
 20
-253.220367
 30
0.0
 11
39.130844
 21
-253.220367
 31
0.0
  0
LINE
  5
961
100
AcDbEntity
  8
V0-OBRYS
  6
CONTINUOUS
 62
    90
100
AcDbLine
 10
454.0
 20
0.0
 30
0.0
 11
454.0
 21
-250.0
 31
0.0
  0
LINE
  5
962
100
AcDbEntity
  8
V0-OBRYS
  6
CONTINUOUS
 62
    90
100
AcDbLine
 10
444.654205
 20
0.0
 30
0.0
 11
444.654205
 21
-253.220367
 31
0.0
  0
LINE
  5
963
100
AcDbEntity
  8
V0-OBRYS
  6
CONTINUOUS
 62
    90
100
AcDbLine
 10
439.869141
 20
-253.220367
 30
0.0
 11
439.869141
 21
0.100906
 31
0.0
  0
LINE
  5
964
100
AcDbEntity
  8
V0-OBRYS
  6
CONTINUOUS
 62
    90
100
AcDbLine
 10
439.85376
 20
-250.0
 30
0.0
 11
390.0
 21
-250.0
 31
0.0
  0
LINE
  5
965
100
AcDbEntity
  8
V0-OBRYS
  6
CONTINUOUS
 62
    90
100
AcDbLine
 10
444.641052
 20
-250.0
 30
0.0
 11
454.0
 21
-250.0
 31
0.0
  0
LINE
  5
966
100
AcDbEntity
  8
V0-OBRYS
  6
CONTINUOUS
 62
    90
100
AcDbLine
 10
444.654205
 20
-253.220367
 30
0.0
 11
439.869141
 21
-253.220367
 31
0.0
  0
LINE
  5
969
100
AcDbEntity
  8
V0-OBRYS
  6
CONTINUOUS
 62
    90
100
AcDbLine
 10
390.0
 20
-348.167815
 30
0.0
 11
390.0
 21
326.104243
 31
0.0
  0
LINE
  5
96A
100
AcDbEntity
  8
V0-OBRYS
  6
CONTINUOUS
 62
    90
100
AcDbLine
 10
708.619966
 20
-340.936044
 30
0.0
 11
1237.619966
 21
-340.936044
 31
0.0
  0
DIMENSION
  5
984
100
AcDbEntity
  8
V0-VYPLNE
  6
CONTINUOUS
 62
    52
100
AcDbDimension
  2
*D4
 10
540.470228
 20
-250.0
 30
0.0
 11
540.470228
 21
0.0
 31
0.0
 70
   160
  1
%%c<>
  3
STANDARD
100
AcDbAlignedDimension
 13
454.0
 23
250.0
 33
0.0
 14
454.0
 24
-250.0
 34
0.0
 50
90.0
100
AcDbRotatedDimension
1001
ACAD
1000
DSTYLE
1002
{
1070
    78
1070
     8
1070
   140
1040
25.0
1070
    74
1070
     0
1070
    73
1070
     0
1070
    77
1070
     1
1070
   173
1070
     1
1070
   147
1040
3.0
1070
    42
1040
0.625
1070
    44
1040
1.25
1070
    43
1040
3.75
1070
   271
1070
     1
1070
   141
1040
2.5
1070
     7
1000
_OPEN
1070
     6
1000
_OPEN
1070
    41
1040
25.0
1070
   273
1070
     8
1070
   274
1070
     4
1070
   143
1040
0.0394
1070
   171
1070
     4
1002
}
  0
DIMENSION
  5
991
100
AcDbEntity
  8
V0-VYPLNE
  6
CONTINUOUS
 62
    52
100
AcDbDimension
  2
*D5
 10
590.843115
 20
-348.167815
 30
0.0
 11
590.843115
 21
-5.657066
 31
0.0
 70
   160
  3
STANDARD
100
AcDbAlignedDimension
 13
395.0
 23
336.853683
 33
0.0
 14
390.0
 24
-348.167815
 34
0.0
 50
90.0
100
AcDbRotatedDimension
1001
ACAD
1000
DSTYLE
1002
{
1070
    78
1070
     8
1070
   140
1040
25.0
1070
    74
1070
     0
1070
    73
1070
     0
1070
    77
1070
     1
1070
   173
1070
     1
1070
   147
1040
3.0
1070
    42
1040
0.625
1070
    44
1040
1.25
1070
    43
1040
3.75
1070
   271
1070
     1
1070
   141
1040
2.5
1070
     7
1000
_OPEN
1070
     6
1000
_OPEN
1070
    41
1040
25.0
1070
   273
1070
     8
1070
   274
1070
     4
1070
   143
1040
0.0394
1070
   171
1070
     4
1002
}
  0
DIMENSION
  5
A00
100
AcDbEntity
  8
V0-VYPLNE
  6
CONTINUOUS
 62
    52
100
AcDbDimension
  2
*D6
 10
454.625
 20
-460.415602
 30
0.0
 11
240.3125
 21
-460.415602
 31
0.0
 70
   160
  3
STANDARD
100
AcDbAlignedDimension
 13
25.0
 23
-250.0
 33
0.0
 14
454.625
 24
-250.0
 34
0.0
100
AcDbRotatedDimension
1001
ACAD
1000
DSTYLE
1002
{
1070
    78
1070
     8
1070
   140
1040
25.0
1070
    74
1070
     0
1070
    73
1070
     0
1070
    77
1070
     1
1070
   173
1070
     1
1070
   147
1040
3.0
1070
    42
1040
0.625
1070
    44
1040
1.25
1070
    43
1040
3.75
1070
   271
1070
     0
1070
   141
1040
2.5
1070
     7
1000
_OPEN
1070
     6
1000
_OPEN
1070
    41
1040
25.0
1070
   273
1070
     8
1070
   274
1070
     4
1070
   143
1040
0.0394
1070
   171
1070
     4
1002
}
  0
DIMENSION
  5
A24
100
AcDbEntity
  8
V0-VYPLNE
  6
CONTINUOUS
 62
    52
100
AcDbDimension
  2
*D7
 10
90.0
 20
-406.931313
 30
0.0
 11
57.5
 21
-406.931313
 31
0.0
 70
   160
  3
STANDARD
100
AcDbAlignedDimension
 13
25.0
 23
-250.0
 33
0.0
 14
90.0
 24
-348.167815
 34
0.0
100
AcDbRotatedDimension
1001
ACAD
1000
DSTYLE
1002
{
1070
    78
1070
     8
1070
   140
1040
25.0
1070
    74
1070
     0
1070
    73
1070
     0
1070
    77
1070
     1
1070
   173
1070
     1
1070
   147
1040
3.0
1070
    42
1040
0.625
1070
    44
1040
1.25
1070
    43
1040
3.75
1070
   271
1070
     0
1070
   141
1040
2.5
1070
     7
1000
_OPEN
1070
     6
1000
_OPEN
1070
    41
1040
25.0
1070
   273
1070
     8
1070
   274
1070
     4
1070
   143
1040
0.0394
1070
   171
1070
     4
1002
}
  0
CIRCLE
  5
AB2
100
AcDbEntity
  8
V0-OBRYS
  6
CONTINUOUS
 62
    90
100
AcDbCircle
 10
1185.619966
 20
314.063956
 30
0.0
 40
11.0
  0
CIRCLE
  5
AB3
100
AcDbEntity
  8
V0-OBRYS
  6
CONTINUOUS
 62
    90
100
AcDbCircle
 10
760.619966
 20
314.063956
 30
0.0
 40
11.0
  0
LEADER
  5
AB4
100
AcDbEntity
  8
V0-VYPLNE
  6
CONTINUOUS
 62
    52
100
AcDbLeader
  3
STANDARD
 73
     0
 74
     0
 75
     1
 40
25.0
 41
66.666667
 76
     3
 10
1185.619966
 20
326.104376
 30
0.0
 10
1251.078089
 20
410.349541
 30
0.0
 10
1276.078089
 20
410.349541
 30
0.0
 77
    52
340
AB5
1001
ACAD
1000
DSTYLE
1002
{
1070
    78
1070
     8
1070
   140
1040
25.0
1070
    74
1070
     0
1070
    73
1070
     0
1070
    77
1070
     1
1070
   173
1070
     1
1070
   147
1040
3.0
1070
    42
1040
0.625
1070
    44
1040
1.25
1070
    43
1040
3.75
1070
   271
1070
     0
1070
   141
1040
2.5
1070
     7
1000
_OPEN
1070
     6
1000
_OPEN
1070
    41
1040
25.0
1070
   273
1070
     8
1070
   274
1070
     4
1070
   143
1040
0.0394
1070
   171
1070
     4
1002
}
  0
MTEXT
  5
AB5
102
{ACAD_REACTORS
330
AB4
102
}
100
AcDbEntity
  8
V0-VYPLNE
  6
CONTINUOUS
 62
    52
100
AcDbMText
 10
1279.078089
 20
425.849541
 30
0.0
 40
25.0
 41
0.0
 71
     4
 72
     1
  1
\A1;%%c22
  0
LINE
  5
ADB
100
AcDbEntity
  8
V0-VYPLNE
  6
DASHDOT
 62
    63
 48
20.0
100
AcDbLine
 10
713.621048
 20
314.063956
 30
0.0
 11
806.230408
 21
314.063956
 31
0.0
  0
MLINE
  5
AE2
100
AcDbEntity
  8
V0-OBRYS
  6
CONTINUOUS
 62
    90
100
AcDbMline
  2
STANDARD
340
1C
 40
22.0
 70
     1
 71
     1
 72
     2
 73
     2
 10
90.0
 20
306.8321848118305
 30
0.0
210
0.0
220
0.0
230
1.0
 11
90.0
 21
306.8321848118305
 31
0.0
 12
-1.0
 22
0.0
 32
0.0
 13
-2.220446049250313E-16
 23
-1.0
 33
0.0
 74
     2
 41
11.0
 41
0.0
 75
     0
 74
     2
 41
-11.0
 41
0.0
 75
     0
 11
15.60083366321214
 21
306.8321848118305
 31
0.0
 12
-1.0
 22
0.0
 32
0.0
 13
-2.220446049250313E-16
 23
-1.0
 33
0.0
 74
     2
 41
11.0
 41
0.0
 75
     0
 74
     2
 41
-11.0
 41
0.0
 75
     0
  0
LINE
  5
AE3
100
AcDbEntity
  8
V0-OBRYS
  6
CONTINUOUS
 62
    90
100
AcDbLine
 10
15.600834
 20
317.832185
 30
0.0
 11
15.600834
 21
295.832185
 31
0.0
  0
LINE
  5
AE4
100
AcDbEntity
  8
V0-OBRYS
  6
CONTINUOUS
 62
    90
100
AcDbLine
 10
15.600834
 20
-615.547205
 30
0.0
 11
15.600834
 21
-637.547205
 31
0.0
  0
MLINE
  5
AE5
100
AcDbEntity
  8
V0-OBRYS
  6
CONTINUOUS
 62
    90
100
AcDbMline
  2
STANDARD
340
1C
 40
22.0
 70
     1
 71
     1
 72
     2
 73
     2
 10
90.0
 20
-626.5472051540946
 30
0.0
210
0.0
220
0.0
230
1.0
 11
90.0
 21
-626.5472051540946
 31
0.0
 12
-1.0
 22
0.0
 32
0.0
 13
-2.220446049250313E-16
 23
-1.0
 33
0.0
 74
     2
 41
11.0
 41
0.0
 75
     0
 74
     2
 41
-11.0
 41
0.0
 75
     0
 11
15.60083366321214
 21
-626.5472051540946
 31
0.0
 12
-1.0
 22
0.0
 32
0.0
 13
-2.220446049250313E-16
 23
-1.0
 33
0.0
 74
     2
 41
11.0
 41
0.0
 75
     0
 74
     2
 41
-11.0
 41
0.0
 75
     0
  0
LINE
  5
AE6
100
AcDbEntity
  8
V0-VYPLNE
  6
DASHDOT
 62
    63
 48
20.0
100
AcDbLine
 10
15.515052
 20
-626.547205
 30
0.0
 11
97.765012
 21
-626.547205
 31
0.0
  0
LINE
  5
AE7
100
AcDbEntity
  8
V0-VYPLNE
  6
DASHDOT
 62
    63
 48
20.0
100
AcDbLine
 10
15.515052
 20
-1051.547205
 30
0.0
 11
97.765012
 21
-1051.547205
 31
0.0
  0
MLINE
  5
AE8
100
AcDbEntity
  8
V0-OBRYS
  6
CONTINUOUS
 62
    90
100
AcDbMline
  2
STANDARD
340
1C
 40
-22.0
 70
     1
 71
     1
 72
     2
 73
     2
 10
90.0
 20
-1051.547205154094
 30
0.0
210
0.0
220
0.0
230
1.0
 11
90.0
 21
-1051.547205154094
 31
0.0
 12
-1.0
 22
0.0
 32
0.0
 13
-2.220446049250313E-16
 23
-1.0
 33
0.0
 74
     2
 41
-11.0
 41
0.0
 75
     0
 74
     2
 41
11.0
 41
0.0
 75
     0
 11
15.60083366321214
 21
-1051.547205154094
 31
0.0
 12
-1.0
 22
0.0
 32
0.0
 13
-2.220446049250313E-16
 23
-1.0
 33
0.0
 74
     2
 41
-11.0
 41
0.0
 75
     0
 74
     2
 41
11.0
 41
0.0
 75
     0
  0
LINE
  5
AE9
100
AcDbEntity
  8
V0-OBRYS
  6
CONTINUOUS
 62
    90
100
AcDbLine
 10
15.600834
 20
-1062.547205
 30
0.0
 11
15.600834
 21
-1040.547205
 31
0.0
  0
LINE
  5
FA5
100
AcDbEntity
  8
V0-OBRYS
  6
CONTINUOUS
 62
    90
100
AcDbLine
 10
40.130859
 20
-585.826838
 30
0.0
 11
40.130859
 21
-615.547205
 31
0.0
  0
LINE
  5
FA6
100
AcDbEntity
  8
V0-OBRYS
  6
CONTINUOUS
 62
    90
100
AcDbLine
 10
35.345795
 20
-839.047205
 30
0.0
 11
35.345795
 21
-637.547205
 31
0.0
  0
LINE
  5
FA7
100
AcDbEntity
  8
V0-OBRYS
  6
CONTINUOUS
 62
    90
100
AcDbLine
 10
26.0
 20
-839.047205
 30
0.0
 11
26.0
 21
-637.547205
 31
0.0
  0
LINE
  5
FA8
100
AcDbEntity
  8
V0-OBRYS
  6
CONTINUOUS
 62
    90
100
AcDbLine
 10
26.0
 20
-839.249048
 30
0.0
 11
26.0
 21
-1040.547205
 31
0.0
  0
LINE
  5
FA9
100
AcDbEntity
  8
V0-OBRYS
  6
CONTINUOUS
 62
    90
100
AcDbLine
 10
35.345795
 20
-839.249048
 30
0.0
 11
35.345795
 21
-1040.547205
 31
0.0
  0
LINE
  5
FAA
100
AcDbEntity
  8
V0-OBRYS
  6
CONTINUOUS
 62
    90
100
AcDbLine
 10
40.130859
 20
-1092.469416
 30
0.0
 11
40.130859
 21
-1062.547205
 31
0.0
  0
LINE
  5
FAB
100
AcDbEntity
  8
V0-OBRYS
  6
CONTINUOUS
 62
    90
100
AcDbLine
 10
40.14624
 20
-1089.249048
 30
0.0
 11
90.0
 21
-1089.249048
 31
0.0
  0
LINE
  5
FAC
100
AcDbEntity
  8
V0-OBRYS
  6
CONTINUOUS
 62
    90
100
AcDbLine
 10
35.345795
 20
-1092.469416
 30
0.0
 11
40.130859
 21
-1092.469416
 31
0.0
  0
LINE
  5
FAD
100
AcDbEntity
  8
V0-OBRYS
  6
CONTINUOUS
 62
    90
100
AcDbLine
 10
35.358948
 20
-1089.249048
 30
0.0
 11
26.0
 21
-1089.249048
 31
0.0
  0
LINE
  5
FAE
100
AcDbEntity
  8
V0-OBRYS
  6
CONTINUOUS
 62
    90
100
AcDbLine
 10
40.14624
 20
-589.047205
 30
0.0
 11
90.0
 21
-589.047205
 31
0.0
  0
LINE
  5
FAF
100
AcDbEntity
  8
V0-OBRYS
  6
CONTINUOUS
 62
    90
100
AcDbLine
 10
35.358948
 20
-589.047205
 30
0.0
 11
26.0
 21
-589.047205
 31
0.0
  0
LINE
  5
FB0
100
AcDbEntity
  8
V0-OBRYS
  6
CONTINUOUS
 62
    90
100
AcDbLine
 10
35.345795
 20
-585.826838
 30
0.0
 11
40.130859
 21
-585.826838
 31
0.0
  0
LINE
  5
FB1
100
AcDbEntity
  8
V0-OBRYS
  6
CONTINUOUS
 62
    90
100
AcDbLine
 10
40.130859
 20
-1040.547205
 30
0.0
 11
40.130859
 21
-839.148157
 31
0.0
  0
LINE
  5
FB2
100
AcDbEntity
  8
V0-OBRYS
  6
CONTINUOUS
 62
    90
100
AcDbLine
 10
35.345795
 20
-1062.547205
 30
0.0
 11
35.345795
 21
-1092.469416
 31
0.0
  0
LINE
  5
FB3
100
AcDbEntity
  8
V0-OBRYS
  6
CONTINUOUS
 62
    90
100
AcDbLine
 10
26.0
 20
-1062.547205
 30
0.0
 11
26.0
 21
-1089.249048
 31
0.0
  0
LINE
  5
FB4
100
AcDbEntity
  8
V0-OBRYS
  6
CONTINUOUS
 62
    90
100
AcDbLine
 10
35.345795
 20
-615.547205
 30
0.0
 11
35.345795
 21
-585.826838
 31
0.0
  0
LINE
  5
FB5
100
AcDbEntity
  8
V0-OBRYS
  6
CONTINUOUS
 62
    90
100
AcDbLine
 10
40.130859
 20
-637.547205
 30
0.0
 11
40.130859
 21
-839.148096
 31
0.0
  0
LINE
  5
FB6
100
AcDbEntity
  8
V0-OBRYS
  6
CONTINUOUS
 62
    90
100
AcDbLine
 10
26.0
 20
-615.547205
 30
0.0
 11
26.0
 21
-589.047205
 31
0.0
  0
ENDSEC
  0
SECTION
  2
OBJECTS
  0
DICTIONARY
  5
C
100
AcDbDictionary
  3
ACAD_GROUP
350
D
  3
ACAD_MLINESTYLE
350
1B
  0
DICTIONARY
  5
D
102
{ACAD_REACTORS
330
C
102
}
100
AcDbDictionary
  0
DICTIONARY
  5
1B
102
{ACAD_REACTORS
330
C
102
}
100
AcDbDictionary
  3
STANDARD
350
1C
  0
MLINESTYLE
  5
1C
102
{ACAD_REACTORS
330
1B
102
}
100
AcDbMlineStyle
  2
STANDARD
 70
     0
  3

 62
   256
 51
90.0
 52
90.0
 71
     2
 49
0.5
 62
   256
  6
BYLAYER
 49
-0.5
 62
   256
  6
BYLAYER
  0
ENDSEC
  0
EOF
