  0
SECTION
  2
HEADER
  9
$ACADVER
  1
AC1014
  9
$ACADMAINTVER
 70
     0
  9
$DWGCODEPAGE
  3
ANSI_1250
  9
$INSBASE
 10
0.0
 20
0.0
 30
0.0
  9
$EXTMIN
 10
-801.33933
 20
-689.786186
 30
0.0
  9
$EXTMAX
 10
-279.125
 20
-173.302197
 30
0.0
  9
$LIMMIN
 10
-1040.805314
 20
-347.068924
  9
$LIMMAX
 10
643.686187
 20
495.293187
  9
$ORTHOMODE
 70
     0
  9
$REGENMODE
 70
     1
  9
$FILLMODE
 70
     1
  9
$QTEXTMODE
 70
     0
  9
$MIRRTEXT
 70
     1
  9
$DRAGMODE
 70
     2
  9
$LTSCALE
 40
15.0
  9
$OSMODE
 70
  1023
  9
$ATTMODE
 70
     1
  9
$TEXTSIZE
 40
15.0
  9
$TRACEWID
 40
5.0
  9
$TEXTSTYLE
  7
STANDARD
  9
$CLAYER
  8
0
  9
$CELTYPE
  6
BYLAYER
  9
$CECOLOR
 62
   256
  9
$CELTSCALE
 40
2.0
  9
$DELOBJ
 70
     1
  9
$DISPSILH
 70
     0
  9
$DIMSCALE
 40
1.0
  9
$DIMASZ
 40
15.0
  9
$DIMEXO
 40
0.0625
  9
$DIMDLI
 40
0.38
  9
$DIMRND
 40
0.0
  9
$DIMDLE
 40
0.0
  9
$DIMEXE
 40
0.18
  9
$DIMTP
 40
0.0
  9
$DIMTM
 40
0.0
  9
$DIMTXT
 40
15.0
  9
$DIMCEN
 40
0.0
  9
$DIMTSZ
 40
0.0
  9
$DIMTOL
 70
     0
  9
$DIMLIM
 70
     0
  9
$DIMTIH
 70
     0
  9
$DIMTOH
 70
     0
  9
$DIMSE1
 70
     0
  9
$DIMSE2
 70
     0
  9
$DIMTAD
 70
     1
  9
$DIMZIN
 70
     0
  9
$DIMBLK
  1

  9
$DIMASO
 70
     1
  9
$DIMSHO
 70
     1
  9
$DIMPOST
  1

  9
$DIMAPOST
  1

  9
$DIMALT
 70
     0
  9
$DIMALTD
 70
     2
  9
$DIMALTF
 40
25.4
  9
$DIMLFAC
 40
1.0
  9
$DIMTOFL
 70
     0
  9
$DIMTVP
 40
0.0
  9
$DIMTIX
 70
     0
  9
$DIMSOXD
 70
     0
  9
$DIMSAH
 70
     1
  9
$DIMBLK1
  1
_OPEN
  9
$DIMBLK2
  1
_OPEN
  9
$DIMSTYLE
  2
STANDARD
  9
$DIMCLRD
 70
     0
  9
$DIMCLRE
 70
     0
  9
$DIMCLRT
 70
     0
  9
$DIMTFAC
 40
1.0
  9
$DIMGAP
 40
0.625
  9
$DIMJUST
 70
     0
  9
$DIMSD1
 70
     0
  9
$DIMSD2
 70
     0
  9
$DIMTOLJ
 70
     1
  9
$DIMTZIN
 70
     0
  9
$DIMALTZ
 70
     0
  9
$DIMALTTZ
 70
     0
  9
$DIMFIT
 70
     0
  9
$DIMUPT
 70
     0
  9
$DIMUNIT
 70
     2
  9
$DIMDEC
 70
     0
  9
$DIMTDEC
 70
     4
  9
$DIMALTU
 70
     2
  9
$DIMALTTD
 70
     2
  9
$DIMTXSTY
  7
STANDARD
  9
$DIMAUNIT
 70
     0
  9
$LUNITS
 70
     2
  9
$LUPREC
 70
     4
  9
$SKETCHINC
 40
1.0
  9
$FILLETRAD
 40
3.0
  9
$AUNITS
 70
     0
  9
$AUPREC
 70
     0
  9
$MENU
  1
.
  9
$ELEVATION
 40
0.0
  9
$PELEVATION
 40
0.0
  9
$THICKNESS
 40
0.0
  9
$LIMCHECK
 70
     0
  9
$BLIPMODE
 70
     1
  9
$CHAMFERA
 40
10.0
  9
$CHAMFERB
 40
10.0
  9
$CHAMFERC
 40
20.0
  9
$CHAMFERD
 40
0.0
  9
$SKPOLY
 70
     0
  9
$TDCREATE
 40
2450763.421427893
  9
$TDUPDATE
 40
2453315.713237407
  9
$TDINDWG
 40
1.4247361458
  9
$TDUSRTIMER
 40
1.4247361458
  9
$USRTIMER
 70
     1
  9
$ANGBASE
 50
0.0
  9
$ANGDIR
 70
     0
  9
$PDMODE
 70
     3
  9
$PDSIZE
 40
0.0
  9
$PLINEWID
 40
0.0
  9
$COORDS
 70
     2
  9
$SPLFRAME
 70
     0
  9
$SPLINETYPE
 70
     6
  9
$SPLINESEGS
 70
     8
  9
$ATTDIA
 70
     0
  9
$ATTREQ
 70
     1
  9
$HANDLING
 70
     1
  9
$HANDSEED
  5
2FCF
  9
$SURFTAB1
 70
     6
  9
$SURFTAB2
 70
     6
  9
$SURFTYPE
 70
     6
  9
$SURFU
 70
     6
  9
$SURFV
 70
     6
  9
$UCSNAME
  2

  9
$UCSORG
 10
-645.0
 20
-650.3824445955723
 30
0.0
  9
$UCSXDIR
 10
1.0
 20
0.0
 30
0.0
  9
$UCSYDIR
 10
0.0
 20
1.0
 30
0.0
  9
$PUCSNAME
  2

  9
$PUCSORG
 10
0.0
 20
0.0
 30
0.0
  9
$PUCSXDIR
 10
1.0
 20
0.0
 30
0.0
  9
$PUCSYDIR
 10
0.0
 20
1.0
 30
0.0
  9
$USERI1
 70
     0
  9
$USERI2
 70
     0
  9
$USERI3
 70
     0
  9
$USERI4
 70
     0
  9
$USERI5
 70
     0
  9
$USERR1
 40
0.0
  9
$USERR2
 40
0.0
  9
$USERR3
 40
0.0
  9
$USERR4
 40
0.0
  9
$USERR5
 40
0.0
  9
$WORLDVIEW
 70
     1
  9
$SHADEDGE
 70
     3
  9
$SHADEDIF
 70
    70
  9
$TILEMODE
 70
     1
  9
$MAXACTVP
 70
    16
  9
$PINSBASE
 10
0.0
 20
0.0
 30
0.0
  9
$PLIMCHECK
 70
     0
  9
$PEXTMIN
 10
131.177948
 20
159.528081
 30
0.0
  9
$PEXTMAX
 10
254.393018
 20
159.528081
 30
0.0
  9
$PLIMMIN
 10
0.0
 20
0.0
  9
$PLIMMAX
 10
420.0
 20
297.0
  9
$UNITMODE
 70
     0
  9
$VISRETAIN
 70
     0
  9
$PLINEGEN
 70
     0
  9
$PSLTSCALE
 70
     0
  9
$TREEDEPTH
 70
  3020
  9
$PICKSTYLE
 70
     1
  9
$CMLSTYLE
  2
STANDARD
  9
$CMLJUST
 70
     0
  9
$CMLSCALE
 40
1.0
  9
$PROXYGRAPHICS
 70
     1
  9
$MEASUREMENT
 70
     1
  0
ENDSEC
  0
SECTION
  2
CLASSES
  0
CLASS
  1
LWPOLYLINE
  2
AcDbPolyline
  3
"AutoCAD"
 90
        0
280
     0
281
     1
  0
CLASS
  1
DICTIONARYVAR
  2
AcDbDictionaryVar
  3
"AutoCAD"
 90
        0
280
     0
281
     0
  0
CLASS
  1
HATCH
  2
AcDbHatch
  3
"ACAD_SEDONA"
 90
        0
280
     0
281
     1
  0
ENDSEC
  0
SECTION
  2
TABLES
  0
TABLE
  2
VPORT
  5
8
100
AcDbSymbolTable
 70
     2
  0
VPORT
  5
2FCE
100
AcDbSymbolTableRecord
100
AcDbViewportTableRecord
  2
*ACTIVE
 70
     0
 10
0.0
 20
0.0
 11
1.0
 21
1.0
 12
-548.824035
 22
-417.888658
 13
0.0
 23
0.0
 14
1.0
 24
1.0
 15
50.0
 25
50.0
 16
0.0
 26
0.0
 36
1.0
 17
0.0
 27
0.0
 37
0.0
 40
574.951528
 41
1.523346
 42
50.0
 43
0.0
 44
0.0
 50
0.0
 51
0.0
 71
     0
 72
   100
 73
     1
 74
     0
 75
     0
 76
     0
 77
     0
 78
     0
  0
ENDTAB
  0
TABLE
  2
LTYPE
  5
5
100
AcDbSymbolTable
 70
     3
  0
LTYPE
  5
14
100
AcDbSymbolTableRecord
100
AcDbLinetypeTableRecord
  2
BYBLOCK
 70
     0
  3

 72
    65
 73
     0
 40
0.0
  0
LTYPE
  5
15
100
AcDbSymbolTableRecord
100
AcDbLinetypeTableRecord
  2
BYLAYER
 70
     0
  3

 72
    65
 73
     0
 40
0.0
  0
LTYPE
  5
16
100
AcDbSymbolTableRecord
100
AcDbLinetypeTableRecord
  2
CONTINUOUS
 70
     0
  3
Solid line
 72
    65
 73
     0
 40
0.0
  0
LTYPE
  5
1D7
100
AcDbSymbolTableRecord
100
AcDbLinetypeTableRecord
  2
DASHED
 70
     0
  3
__ __ __ __ __ __ __ __ __ __ __ __ __ __ __ __
 72
    65
 73
     2
 40
0.75
 49
0.5
 74
     0
 49
-0.25
 74
     0
  0
LTYPE
  5
492
100
AcDbSymbolTableRecord
100
AcDbLinetypeTableRecord
  2
DASHDOT
 70
     0
  3
__ . __ . __ . __ . __ . __ . __ . __ . __ . __
 72
    65
 73
     4
 40
1.0
 49
0.5
 74
     0
 49
-0.25
 74
     0
 49
0.0
 74
     0
 49
-0.25
 74
     0
  0
ENDTAB
  0
TABLE
  2
LAYER
  5
2
100
AcDbSymbolTable
 70
     6
  0
LAYER
  5
F
100
AcDbSymbolTableRecord
100
AcDbLayerTableRecord
  2
0
 70
     0
 62
     7
  6
CONTINUOUS
  0
LAYER
  5
1A22
100
AcDbSymbolTableRecord
100
AcDbLayerTableRecord
  2
DEFPOINTS
 70
     0
 62
     7
  6
CONTINUOUS
  0
LAYER
  5
2EC3
100
AcDbSymbolTableRecord
100
AcDbLayerTableRecord
  2
V0-OBRYS
 70
     0
 62
    90
  6
CONTINUOUS
  0
LAYER
  5
2EC4
100
AcDbSymbolTableRecord
100
AcDbLayerTableRecord
  2
V0-VYPLNE
 70
     0
 62
    52
  6
CONTINUOUS
  0
LAYER
  5
2EC5
100
AcDbSymbolTableRecord
100
AcDbLayerTableRecord
  2
V0-NAZVY
 70
     0
 62
   210
  6
CONTINUOUS
  0
LAYER
  5
2EC6
100
AcDbSymbolTableRecord
100
AcDbLayerTableRecord
  2
V0-ZBYTEK
 70
     0
 62
    51
  6
CONTINUOUS
  0
ENDTAB
  0
TABLE
  2
STYLE
  5
3
100
AcDbSymbolTable
 70
     7
  0
STYLE
  5
10
100
AcDbSymbolTableRecord
100
AcDbTextStyleTableRecord
  2
STANDARD
 70
     0
 40
0.0
 41
1.0
 50
0.0
 71
     0
 42
15.0
  3
ISOCP.shx
  4

  0
STYLE
  5
2414
100
AcDbSymbolTableRecord
100
AcDbTextStyleTableRecord
  2

 70
     1
 40
0.0
 41
1.0
 50
0.0
 71
     0
 42
4.0
  3
ltypeshp.shx
  4

  0
STYLE
  5
2EC7
100
AcDbSymbolTableRecord
100
AcDbTextStyleTableRecord
  2
ED
 70
     0
 40
20.0
 41
1.0
 50
0.0
 71
     0
 42
2.5
  3
ISOCP.shx
  4

  0
STYLE
  5
2EC8
100
AcDbSymbolTableRecord
100
AcDbTextStyleTableRecord
  2
EDVENT
 70
     0
 40
10.0
 41
1.0
 50
0.0
 71
     0
 42
2.5
  3
ISOCP.shx
  4

  0
STYLE
  5
2EC9
100
AcDbSymbolTableRecord
100
AcDbTextStyleTableRecord
  2
E
 70
     0
 40
25.0
 41
1.0
 50
0.0
 71
     0
 42
2.5
  3
ISOCP.shx
  4

  0
STYLE
  5
2ECA
100
AcDbSymbolTableRecord
100
AcDbTextStyleTableRecord
  2
ED-VENT
 70
     0
 40
25.0
 41
1.0
 50
0.0
 71
     0
 42
2.5
  3
ISOCP.shx
  4

  0
STYLE
  5
2ECB
100
AcDbSymbolTableRecord
100
AcDbTextStyleTableRecord
  2
ED2
 70
     0
 40
25.0
 41
1.0
 50
0.0
 71
     0
 42
2.5
  3
ISOCP.shx
  4

  0
ENDTAB
  0
TABLE
  2
VIEW
  5
6
100
AcDbSymbolTable
 70
     0
  0
ENDTAB
  0
TABLE
  2
UCS
  5
7
100
AcDbSymbolTable
 70
     0
  0
ENDTAB
  0
TABLE
  2
APPID
  5
9
100
AcDbSymbolTable
 70
     4
  0
APPID
  5
11
100
AcDbSymbolTableRecord
100
AcDbRegAppTableRecord
  2
ACAD
 70
     0
  0
APPID
  5
906
100
AcDbSymbolTableRecord
100
AcDbRegAppTableRecord
  2
CONTENTTABDATA
 70
     0
  0
APPID
  5
907
100
AcDbSymbolTableRecord
100
AcDbRegAppTableRecord
  2
CONTENTCURRENTTAB
 70
     0
  0
APPID
  5
908
100
AcDbSymbolTableRecord
100
AcDbRegAppTableRecord
  2
CONTENTBLOCKDESCRIPTION
 70
     0
  0
ENDTAB
  0
TABLE
  2
DIMSTYLE
  5
A
100
AcDbSymbolTable
 70
     3
  0
DIMSTYLE
105
1D
102
{ACAD_REACTORS
330
2D93
330
2AE5
330
2AF2
330
2AD8
330
2ACB
330
2B1D
330
2C2F
102
}
100
AcDbSymbolTableRecord
100
AcDbDimStyleTableRecord
  2
STANDARD
 70
     0
  3

  4

  5

  6
_OPEN
  7
_OPEN
 40
5.0
 41
3.5
 42
0.0625
 43
0.38
 44
0.18
 45
0.0
 46
0.0
 47
0.0
 48
0.0
140
3.5
141
0.0
142
0.0
143
25.4
144
1.0
145
0.0
146
1.0
147
0.625
 71
     0
 72
     0
 73
     0
 74
     0
 75
     0
 76
     0
 77
     1
 78
     0
170
     0
171
     2
172
     0
173
     1
174
     0
175
     0
176
     0
177
     0
178
     0
270
     2
271
     0
272
     4
273
     2
274
     2
340
10
275
     0
280
     0
281
     0
282
     0
283
     1
284
     0
285
     0
286
     0
287
     0
288
     0
  0
DIMSTYLE
105
2ECC
100
AcDbSymbolTableRecord
100
AcDbDimStyleTableRecord
  2
ED
 70
     0
  3

  4

  5

  6
_OPEN
  7
_OPEN
 40
0.0
 41
15.0
 42
0.625
 43
3.75
 44
1.25
 45
0.0
 46
0.0
 47
0.0
 48
0.0
140
15.0
141
2.5
142
0.0
143
0.0394
144
1.0
145
0.0
146
1.0
147
3.0
 71
     0
 72
     0
 73
     0
 74
     0
 75
     0
 76
     0
 77
     1
 78
     8
170
     0
171
     4
172
     1
173
     1
174
     0
175
     0
176
     0
177
     0
178
     0
270
     2
271
     0
272
     1
273
     8
274
     4
340
2EC7
275
     0
280
     0
281
     0
282
     0
283
     1
284
     8
285
     0
286
     0
287
     3
288
     0
  0
DIMSTYLE
105
2ECD
100
AcDbSymbolTableRecord
100
AcDbDimStyleTableRecord
  2
ED2
 70
     0
  3

  4

  5

  6
_OPEN
  7
_OPEN
 40
0.0
 41
25.0
 42
0.625
 43
3.75
 44
1.25
 45
0.0
 46
0.0
 47
0.0
 48
0.0
140
30.0
141
2.5
142
0.0
143
0.0394
144
1.0
145
0.0
146
1.0
147
5.0
 71
     0
 72
     0
 73
     0
 74
     0
 75
     0
 76
     0
 77
     1
 78
     8
170
     0
171
     4
172
     1
173
     1
174
     0
175
     0
176
     0
177
     0
178
     0
270
     2
271
     0
272
     1
273
     8
274
     4
340
2EC7
275
     0
280
     0
281
     0
282
     0
283
     1
284
     8
285
     0
286
     0
287
     3
288
     0
  0
ENDTAB
  0
TABLE
  2
BLOCK_RECORD
  5
1
100
AcDbSymbolTable
 70
    15
  0
BLOCK_RECORD
  5
1A
100
AcDbSymbolTableRecord
100
AcDbBlockTableRecord
  2
*MODEL_SPACE
  0
BLOCK_RECORD
  5
17
100
AcDbSymbolTableRecord
100
AcDbBlockTableRecord
  2
*PAPER_SPACE
  0
BLOCK_RECORD
  5
1A05
100
AcDbSymbolTableRecord
100
AcDbBlockTableRecord
  2
_OPEN
  0
BLOCK_RECORD
  5
2F0F
100
AcDbSymbolTableRecord
100
AcDbBlockTableRecord
  2
*D8
  0
BLOCK_RECORD
  5
2F18
100
AcDbSymbolTableRecord
100
AcDbBlockTableRecord
  2
*D9
  0
BLOCK_RECORD
  5
2F24
100
AcDbSymbolTableRecord
100
AcDbBlockTableRecord
  2
*D10
  0
BLOCK_RECORD
  5
2F30
100
AcDbSymbolTableRecord
100
AcDbBlockTableRecord
  2
*D11
  0
BLOCK_RECORD
  5
2F3C
100
AcDbSymbolTableRecord
100
AcDbBlockTableRecord
  2
*D12
  0
BLOCK_RECORD
  5
2F96
100
AcDbSymbolTableRecord
100
AcDbBlockTableRecord
  2
*D13
  0
BLOCK_RECORD
  5
2FA3
100
AcDbSymbolTableRecord
100
AcDbBlockTableRecord
  2
*D14
  0
ENDTAB
  0
ENDSEC
  0
SECTION
  2
BLOCKS
  0
BLOCK
  5
1B
100
AcDbEntity
  8
0
100
AcDbBlockBegin
  2
*MODEL_SPACE
 70
     0
 10
0.0
 20
0.0
 30
0.0
  3
*MODEL_SPACE
  1

  0
ENDBLK
  5
1C
100
AcDbEntity
  8
0
100
AcDbBlockEnd
  0
BLOCK
  5
18
100
AcDbEntity
 67
     1
  8
0
100
AcDbBlockBegin
  2
*PAPER_SPACE
 70
     0
 10
0.0
 20
0.0
 30
0.0
  3
*PAPER_SPACE
  1

  0
ENDBLK
  5
19
100
AcDbEntity
 67
     1
  8
0
100
AcDbBlockEnd
  0
BLOCK
  5
1A09
100
AcDbEntity
  8
0
100
AcDbBlockBegin
  2
_OPEN
 70
     0
 10
0.0
 20
0.0
 30
0.0
  3
_OPEN
  1

  0
LINE
  5
1A06
100
AcDbEntity
  8
0
  6
BYBLOCK
 62
     0
100
AcDbLine
 10
-1.0
 20
0.166667
 30
0.0
 11
0.0
 21
0.0
 31
0.0
  0
LINE
  5
1A07
100
AcDbEntity
  8
0
  6
BYBLOCK
 62
     0
100
AcDbLine
 10
0.0
 20
0.0
 30
0.0
 11
-1.0
 21
-0.166667
 31
0.0
  0
LINE
  5
1A08
100
AcDbEntity
  8
0
  6
BYBLOCK
 62
     0
100
AcDbLine
 10
0.0
 20
0.0
 30
0.0
 11
-1.0
 21
0.0
 31
0.0
  0
ENDBLK
  5
1A0A
100
AcDbEntity
  8
0
100
AcDbBlockEnd
  0
BLOCK
  5
2F10
100
AcDbEntity
  8
0
 48
2.0
100
AcDbBlockBegin
  2
*D8
 70
     1
 10
0.0
 20
0.0
 30
0.0
  3
*D8
  1

  0
LINE
  5
2F11
100
AcDbEntity
  8
0
  6
BYBLOCK
 62
     0
 48
2.0
100
AcDbLine
 10
-757.449332
 20
-379.946912
 30
0.0
 11
-532.550668
 21
-331.774396
 31
0.0
  0
INSERT
  5
2F12
100
AcDbEntity
  8
0
  6
BYBLOCK
 62
     0
 48
2.0
100
AcDbBlockReference
  2
_OPEN
 10
-772.116636
 20
-383.088598
 30
0.0
 41
15.0
 42
15.0
 43
15.0
 50
192.089872
  0
INSERT
  5
2F13
100
AcDbEntity
  8
0
  6
BYBLOCK
 62
     0
 48
2.0
100
AcDbBlockReference
  2
_OPEN
 10
-517.883364
 20
-328.63271
 30
0.0
 41
15.0
 42
15.0
 43
15.0
 50
12.089872
  0
MTEXT
  5
2F14
100
AcDbEntity
  8
0
  6
BYBLOCK
 62
     0
 48
2.0
100
AcDbMText
 10
-621.063674
 20
-342.422768
 30
0.0
 40
15.0
 41
0.0
 71
     5
 72
     1
  1
\A1;\U+2205260
 11
0.97782
 21
0.209446
 31
0.0
  0
POINT
  5
2F15
100
AcDbEntity
  8
DEFPOINTS
  6
BYBLOCK
 62
     0
 48
2.0
100
AcDbPoint
 10
-517.883364
 20
-328.63271
 30
0.0
  0
POINT
  5
2F16
100
AcDbEntity
  8
DEFPOINTS
  6
BYBLOCK
 62
     0
 48
2.0
100
AcDbPoint
 10
-772.116636
 20
-383.088598
 30
0.0
  0
ENDBLK
  5
2F17
100
AcDbEntity
  8
0
 48
2.0
100
AcDbBlockEnd
  0
BLOCK
  5
2F19
100
AcDbEntity
  8
0
 48
2.0
100
AcDbBlockBegin
  2
*D9
 70
     1
 10
0.0
 20
0.0
 30
0.0
  3
*D9
  1

  0
LINE
  5
2F1A
100
AcDbEntity
  8
0
  6
BYBLOCK
 62
     0
 48
2.0
100
AcDbLine
 10
-792.006265
 20
-502.929418
 30
0.0
 11
-792.006265
 21
-566.262894
 31
0.0
  0
LINE
  5
2F1B
100
AcDbEntity
  8
0
  6
BYBLOCK
 62
     0
 48
2.0
100
AcDbLine
 10
-497.993736
 20
-502.929418
 30
0.0
 11
-497.993736
 21
-566.262894
 31
0.0
  0
LINE
  5
2F1C
100
AcDbEntity
  8
0
  6
BYBLOCK
 62
     0
 48
2.0
100
AcDbLine
 10
-777.006265
 20
-566.082894
 30
0.0
 11
-512.993736
 21
-566.082894
 31
0.0
  0
INSERT
  5
2F1D
100
AcDbEntity
  8
0
  6
BYBLOCK
 62
     0
 48
2.0
100
AcDbBlockReference
  2
_OPEN
 10
-792.006265
 20
-566.082894
 30
0.0
 41
15.0
 42
15.0
 43
15.0
 50
180.0
  0
INSERT
  5
2F1E
100
AcDbEntity
  8
0
  6
BYBLOCK
 62
     0
 48
2.0
100
AcDbBlockReference
  2
_OPEN
 10
-497.993736
 20
-566.082894
 30
0.0
 41
15.0
 42
15.0
 43
15.0
  0
MTEXT
  5
2F1F
100
AcDbEntity
  8
0
  6
BYBLOCK
 62
     0
 48
2.0
100
AcDbMText
 10
-645.0
 20
-557.956418
 30
0.0
 40
15.0
 41
0.0
 71
     5
 72
     1
  1
\A1;294
  0
POINT
  5
2F20
100
AcDbEntity
  8
DEFPOINTS
  6
BYBLOCK
 62
     0
 48
2.0
100
AcDbPoint
 10
-792.006265
 20
-502.866918
 30
0.0
  0
POINT
  5
2F21
100
AcDbEntity
  8
DEFPOINTS
  6
BYBLOCK
 62
     0
 48
2.0
100
AcDbPoint
 10
-497.993736
 20
-502.866918
 30
0.0
  0
POINT
  5
2F22
100
AcDbEntity
  8
DEFPOINTS
  6
BYBLOCK
 62
     0
 48
2.0
100
AcDbPoint
 10
-497.993736
 20
-566.082894
 30
0.0
  0
ENDBLK
  5
2F23
100
AcDbEntity
  8
0
 48
2.0
100
AcDbBlockEnd
  0
BLOCK
  5
2F25
100
AcDbEntity
  8
0
 48
2.0
100
AcDbBlockBegin
  2
*D10
 70
     1
 10
0.0
 20
0.0
 30
0.0
  3
*D10
  1

  0
LINE
  5
2F26
100
AcDbEntity
  8
0
  6
BYBLOCK
 62
     0
 48
2.0
100
AcDbLine
 10
-761.201995
 20
-479.702791
 30
0.0
 11
-761.201995
 21
-536.370532
 31
0.0
  0
LINE
  5
2F27
100
AcDbEntity
  8
0
  6
BYBLOCK
 62
     0
 48
2.0
100
AcDbLine
 10
-528.798005
 20
-479.702791
 30
0.0
 11
-528.798005
 21
-536.370532
 31
0.0
  0
LINE
  5
2F28
100
AcDbEntity
  8
0
  6
BYBLOCK
 62
     0
 48
2.0
100
AcDbLine
 10
-746.201995
 20
-536.190532
 30
0.0
 11
-543.798005
 21
-536.190532
 31
0.0
  0
INSERT
  5
2F29
100
AcDbEntity
  8
0
  6
BYBLOCK
 62
     0
 48
2.0
100
AcDbBlockReference
  2
_OPEN
 10
-761.201995
 20
-536.190532
 30
0.0
 41
15.0
 42
15.0
 43
15.0
 50
180.0
  0
INSERT
  5
2F2A
100
AcDbEntity
  8
0
  6
BYBLOCK
 62
     0
 48
2.0
100
AcDbBlockReference
  2
_OPEN
 10
-528.798005
 20
-536.190532
 30
0.0
 41
15.0
 42
15.0
 43
15.0
  0
MTEXT
  5
2F2B
100
AcDbEntity
  8
0
  6
BYBLOCK
 62
     0
 48
2.0
100
AcDbMText
 10
-645.0
 20
-528.064056
 30
0.0
 40
15.0
 41
0.0
 71
     5
 72
     1
  1
\A1;232
  0
POINT
  5
2F2C
100
AcDbEntity
  8
DEFPOINTS
  6
BYBLOCK
 62
     0
 48
2.0
100
AcDbPoint
 10
-761.201995
 20
-479.640291
 30
0.0
  0
POINT
  5
2F2D
100
AcDbEntity
  8
DEFPOINTS
  6
BYBLOCK
 62
     0
 48
2.0
100
AcDbPoint
 10
-528.798005
 20
-479.640291
 30
0.0
  0
POINT
  5
2F2E
100
AcDbEntity
  8
DEFPOINTS
  6
BYBLOCK
 62
     0
 48
2.0
100
AcDbPoint
 10
-528.798005
 20
-536.190532
 30
0.0
  0
ENDBLK
  5
2F2F
100
AcDbEntity
  8
0
 48
2.0
100
AcDbBlockEnd
  0
BLOCK
  5
2F31
100
AcDbEntity
  8
0
 48
2.0
100
AcDbBlockBegin
  2
*D11
 70
     1
 10
0.0
 20
0.0
 30
0.0
  3
*D11
  1

  0
LINE
  5
2F32
100
AcDbEntity
  8
0
  6
BYBLOCK
 62
     0
 48
2.0
100
AcDbLine
 10
-518.126806
 20
-239.658659
 30
0.0
 11
-467.710701
 21
-239.658659
 31
0.0
  0
LINE
  5
2F33
100
AcDbEntity
  8
0
  6
BYBLOCK
 62
     0
 48
2.0
100
AcDbLine
 10
-518.126806
 20
-472.062649
 30
0.0
 11
-467.710701
 21
-472.062649
 31
0.0
  0
LINE
  5
2F34
100
AcDbEntity
  8
0
  6
BYBLOCK
 62
     0
 48
2.0
100
AcDbLine
 10
-467.890701
 20
-254.658659
 30
0.0
 11
-467.890701
 21
-457.062649
 31
0.0
  0
INSERT
  5
2F35
100
AcDbEntity
  8
0
  6
BYBLOCK
 62
     0
 48
2.0
100
AcDbBlockReference
  2
_OPEN
 10
-467.890701
 20
-239.658659
 30
0.0
 41
15.0
 42
15.0
 43
15.0
 50
90.0
  0
INSERT
  5
2F36
100
AcDbEntity
  8
0
  6
BYBLOCK
 62
     0
 48
2.0
100
AcDbBlockReference
  2
_OPEN
 10
-467.890701
 20
-472.062649
 30
0.0
 41
15.0
 42
15.0
 43
15.0
 50
270.0
  0
MTEXT
  5
2F37
100
AcDbEntity
  8
0
  6
BYBLOCK
 62
     0
 48
2.0
100
AcDbMText
 10
-476.017177
 20
-355.860654
 30
0.0
 40
15.0
 41
0.0
 71
     5
 72
     1
  1
\A1;232
 11
0.0
 21
1.0
 31
0.0
  0
POINT
  5
2F38
100
AcDbEntity
  8
DEFPOINTS
  6
BYBLOCK
 62
     0
 48
2.0
100
AcDbPoint
 10
-518.189306
 20
-239.658659
 30
0.0
  0
POINT
  5
2F39
100
AcDbEntity
  8
DEFPOINTS
  6
BYBLOCK
 62
     0
 48
2.0
100
AcDbPoint
 10
-518.189306
 20
-472.062649
 30
0.0
  0
POINT
  5
2F3A
100
AcDbEntity
  8
DEFPOINTS
  6
BYBLOCK
 62
     0
 48
2.0
100
AcDbPoint
 10
-467.890701
 20
-472.062649
 30
0.0
  0
ENDBLK
  5
2F3B
100
AcDbEntity
  8
0
 48
2.0
100
AcDbBlockEnd
  0
BLOCK
  5
2F3D
100
AcDbEntity
  8
0
 48
2.0
100
AcDbBlockBegin
  2
*D12
 70
     1
 10
0.0
 20
0.0
 30
0.0
  3
*D12
  1

  0
LINE
  5
2F3E
100
AcDbEntity
  8
0
  6
BYBLOCK
 62
     0
 48
2.0
100
AcDbLine
 10
-497.931236
 20
-208.854389
 30
0.0
 11
-436.593689
 21
-208.854389
 31
0.0
  0
LINE
  5
2F3F
100
AcDbEntity
  8
0
  6
BYBLOCK
 62
     0
 48
2.0
100
AcDbLine
 10
-497.931236
 20
-502.866918
 30
0.0
 11
-436.593689
 21
-502.866918
 31
0.0
  0
LINE
  5
2F40
100
AcDbEntity
  8
0
  6
BYBLOCK
 62
     0
 48
2.0
100
AcDbLine
 10
-436.773689
 20
-223.854389
 30
0.0
 11
-436.773689
 21
-487.866918
 31
0.0
  0
INSERT
  5
2F41
100
AcDbEntity
  8
0
  6
BYBLOCK
 62
     0
 48
2.0
100
AcDbBlockReference
  2
_OPEN
 10
-436.773689
 20
-208.854389
 30
0.0
 41
15.0
 42
15.0
 43
15.0
 50
90.0
  0
INSERT
  5
2F42
100
AcDbEntity
  8
0
  6
BYBLOCK
 62
     0
 48
2.0
100
AcDbBlockReference
  2
_OPEN
 10
-436.773689
 20
-502.866918
 30
0.0
 41
15.0
 42
15.0
 43
15.0
 50
270.0
  0
MTEXT
  5
2F43
100
AcDbEntity
  8
0
  6
BYBLOCK
 62
     0
 48
2.0
100
AcDbMText
 10
-444.900165
 20
-355.860654
 30
0.0
 40
15.0
 41
0.0
 71
     5
 72
     1
  1
\A1;294
 11
0.0
 21
1.0
 31
0.0
  0
POINT
  5
2F44
100
AcDbEntity
  8
DEFPOINTS
  6
BYBLOCK
 62
     0
 48
2.0
100
AcDbPoint
 10
-497.993736
 20
-208.854389
 30
0.0
  0
POINT
  5
2F45
100
AcDbEntity
  8
DEFPOINTS
  6
BYBLOCK
 62
     0
 48
2.0
100
AcDbPoint
 10
-497.993736
 20
-502.866918
 30
0.0
  0
POINT
  5
2F46
100
AcDbEntity
  8
DEFPOINTS
  6
BYBLOCK
 62
     0
 48
2.0
100
AcDbPoint
 10
-436.773689
 20
-502.866918
 30
0.0
  0
ENDBLK
  5
2F47
100
AcDbEntity
  8
0
 48
2.0
100
AcDbBlockEnd
  0
BLOCK
  5
2F97
100
AcDbEntity
  8
0
 48
2.0
100
AcDbBlockBegin
  2
*D13
 70
     1
 10
0.0
 20
0.0
 30
0.0
  3
*D13
  1

  0
LINE
  5
2F98
100
AcDbEntity
  8
0
  6
BYBLOCK
 62
     0
 48
2.0
100
AcDbLine
 10
-354.0
 20
-502.929418
 30
0.0
 11
-354.0
 21
-535.174838
 31
0.0
  0
LINE
  5
2F99
100
AcDbEntity
  8
0
  6
BYBLOCK
 62
     0
 48
2.0
100
AcDbLine
 10
-328.0
 20
-502.929418
 30
0.0
 11
-328.0
 21
-535.174838
 31
0.0
  0
LINE
  5
2F9A
100
AcDbEntity
  8
0
  6
BYBLOCK
 62
     0
 48
2.0
100
AcDbLine
 10
-369.0
 20
-534.994838
 30
0.0
 11
-384.0
 21
-534.994838
 31
0.0
  0
LINE
  5
2F9B
100
AcDbEntity
  8
0
  6
BYBLOCK
 62
     0
 48
2.0
100
AcDbLine
 10
-313.0
 20
-534.994838
 30
0.0
 11
-279.125
 21
-534.994838
 31
0.0
  0
INSERT
  5
2F9C
100
AcDbEntity
  8
0
  6
BYBLOCK
 62
     0
 48
2.0
100
AcDbBlockReference
  2
_OPEN
 10
-354.0
 20
-534.994838
 30
0.0
 41
15.0
 42
15.0
 43
15.0
  0
INSERT
  5
2F9D
100
AcDbEntity
  8
0
  6
BYBLOCK
 62
     0
 48
2.0
100
AcDbBlockReference
  2
_OPEN
 10
-328.0
 20
-534.994838
 30
0.0
 41
15.0
 42
15.0
 43
15.0
 50
180.0
  0
MTEXT
  5
2F9E
100
AcDbEntity
  8
0
  6
BYBLOCK
 62
     0
 48
2.0
100
AcDbMText
 10
-288.5625
 20
-526.868361
 30
0.0
 40
15.0
 41
0.0
 71
     5
 72
     1
  1
\A1;26
  0
POINT
  5
2F9F
100
AcDbEntity
  8
DEFPOINTS
  6
BYBLOCK
 62
     0
 48
2.0
100
AcDbPoint
 10
-354.0
 20
-502.866918
 30
0.0
  0
POINT
  5
2FA0
100
AcDbEntity
  8
DEFPOINTS
  6
BYBLOCK
 62
     0
 48
2.0
100
AcDbPoint
 10
-328.0
 20
-502.866918
 30
0.0
  0
POINT
  5
2FA1
100
AcDbEntity
  8
DEFPOINTS
  6
BYBLOCK
 62
     0
 48
2.0
100
AcDbPoint
 10
-328.0
 20
-534.994838
 30
0.0
  0
ENDBLK
  5
2FA2
100
AcDbEntity
  8
0
 48
2.0
100
AcDbBlockEnd
  0
BLOCK
  5
2FA4
100
AcDbEntity
  8
0
 48
2.0
100
AcDbBlockBegin
  2
*D14
 70
     1
 10
0.0
 20
0.0
 30
0.0
  3
*D14
  1

  0
LINE
  5
2FA5
100
AcDbEntity
  8
0
  6
BYBLOCK
 62
     0
 48
2.0
100
AcDbLine
 10
-354.0
 20
-502.929418
 30
0.0
 11
-354.0
 21
-555.591983
 31
0.0
  0
LINE
  5
2FA6
100
AcDbEntity
  8
0
  6
BYBLOCK
 62
     0
 48
2.0
100
AcDbLine
 10
-318.583535
 20
-502.929418
 30
0.0
 11
-318.583535
 21
-555.591983
 31
0.0
  0
LINE
  5
2FA7
100
AcDbEntity
  8
0
  6
BYBLOCK
 62
     0
 48
2.0
100
AcDbLine
 10
-339.0
 20
-555.411983
 30
0.0
 11
-333.583535
 21
-555.411983
 31
0.0
  0
INSERT
  5
2FA8
100
AcDbEntity
  8
0
  6
BYBLOCK
 62
     0
 48
2.0
100
AcDbBlockReference
  2
_OPEN
 10
-354.0
 20
-555.411983
 30
0.0
 41
15.0
 42
15.0
 43
15.0
 50
180.0
  0
INSERT
  5
2FA9
100
AcDbEntity
  8
0
  6
BYBLOCK
 62
     0
 48
2.0
100
AcDbBlockReference
  2
_OPEN
 10
-318.583535
 20
-555.411983
 30
0.0
 41
15.0
 42
15.0
 43
15.0
  0
MTEXT
  5
2FAA
100
AcDbEntity
  8
0
  6
BYBLOCK
 62
     0
 48
2.0
100
AcDbMText
 10
-336.291768
 20
-547.285507
 30
0.0
 40
15.0
 41
0.0
 71
     5
 72
     1
  1
\A1;42
  0
POINT
  5
2FAB
100
AcDbEntity
  8
DEFPOINTS
  6
BYBLOCK
 62
     0
 48
2.0
100
AcDbPoint
 10
-354.0
 20
-502.866918
 30
0.0
  0
POINT
  5
2FAC
100
AcDbEntity
  8
DEFPOINTS
  6
BYBLOCK
 62
     0
 48
2.0
100
AcDbPoint
 10
-318.583535
 20
-502.866918
 30
0.0
  0
POINT
  5
2FAD
100
AcDbEntity
  8
DEFPOINTS
  6
BYBLOCK
 62
     0
 48
2.0
100
AcDbPoint
 10
-318.583535
 20
-555.411983
 30
0.0
  0
ENDBLK
  5
2FAE
100
AcDbEntity
  8
0
 48
2.0
100
AcDbBlockEnd
  0
ENDSEC
  0
SECTION
  2
ENTITIES
  0
LINE
  5
29FD
100
AcDbEntity
  8
V0-OBRYS
  6
CONTINUOUS
 62
    90
100
AcDbLine
 10
-792.006265
 20
-355.860654
 30
0.0
 11
-792.006265
 21
-208.854389
 31
0.0
  0
LINE
  5
29FE
100
AcDbEntity
  8
V0-OBRYS
  6
CONTINUOUS
 62
    90
100
AcDbLine
 10
-792.006265
 20
-208.854389
 30
0.0
 11
-645.0
 21
-208.854389
 31
0.0
  0
LINE
  5
29FF
100
AcDbEntity
  8
V0-VYPLNE
  6
DASHDOT
 62
    63
 48
2.0
100
AcDbLine
 10
-761.201995
 20
-235.696016
 30
0.0
 11
-761.201995
 21
-249.335773
 31
0.0
  0
LINE
  5
2A00
100
AcDbEntity
  8
V0-VYPLNE
  6
DASHDOT
 62
    63
 48
2.0
100
AcDbLine
 10
-771.810695
 20
-239.658659
 30
0.0
 11
-752.108824
 21
-239.658659
 31
0.0
  0
CIRCLE
  5
2A01
100
AcDbEntity
  8
V0-OBRYS
  6
CONTINUOUS
 62
    90
100
AcDbCircle
 10
-761.201995
 20
-239.658659
 30
0.0
 40
3.788821
  0
LINE
  5
2A02
100
AcDbEntity
  8
V0-OBRYS
  6
CONTINUOUS
 62
    90
100
AcDbLine
 10
-776.85098
 20
-355.860654
 30
0.0
 11
-776.85098
 21
-224.009674
 31
0.0
  0
LINE
  5
2A13
100
AcDbEntity
  8
V0-OBRYS
  6
CONTINUOUS
 62
    90
100
AcDbLine
 10
-513.149021
 20
-355.860654
 30
0.0
 11
-513.149021
 21
-224.009674
 31
0.0
  0
LINE
  5
2A14
100
AcDbEntity
  8
V0-OBRYS
  6
CONTINUOUS
 62
    90
100
AcDbLine
 10
-645.0
 20
-224.009674
 30
0.0
 11
-776.85098
 21
-224.009674
 31
0.0
  0
LINE
  5
2A15
100
AcDbEntity
  8
V0-OBRYS
  6
CONTINUOUS
 62
    90
100
AcDbLine
 10
-645.0
 20
-224.009674
 30
0.0
 11
-513.149021
 21
-224.009674
 31
0.0
  0
LINE
  5
2A16
100
AcDbEntity
  8
V0-OBRYS
  6
CONTINUOUS
 62
    90
100
AcDbLine
 10
-328.0
 20
-208.854389
 30
0.0
 11
-354.0
 21
-208.854389
 31
0.0
  0
LINE
  5
2A17
100
AcDbEntity
  8
V0-OBRYS
  6
CONTINUOUS
 62
    90
100
AcDbLine
 10
-513.149021
 20
-355.860654
 30
0.0
 11
-513.149021
 21
-224.009674
 31
0.0
  0
LINE
  5
2A18
100
AcDbEntity
  8
V0-OBRYS
  6
CONTINUOUS
 62
    90
100
AcDbLine
 10
-497.993736
 20
-355.860654
 30
0.0
 11
-497.993736
 21
-208.854389
 31
0.0
  0
LINE
  5
2A19
100
AcDbEntity
  8
V0-VYPLNE
  6
DASHDOT
 62
    63
 48
2.0
100
AcDbLine
 10
-528.798005
 20
-235.696016
 30
0.0
 11
-528.798005
 21
-249.335773
 31
0.0
  0
CIRCLE
  5
2A1A
100
AcDbEntity
  8
V0-OBRYS
  6
CONTINUOUS
 62
    90
100
AcDbCircle
 10
-528.798005
 20
-239.658659
 30
0.0
 40
3.788821
  0
LINE
  5
2A1B
100
AcDbEntity
  8
V0-VYPLNE
  6
DASHDOT
 62
    63
 48
2.0
100
AcDbLine
 10
-518.189306
 20
-239.658659
 30
0.0
 11
-537.891176
 21
-239.658659
 31
0.0
  0
LINE
  5
2A1C
100
AcDbEntity
  8
V0-OBRYS
  6
CONTINUOUS
 62
    90
100
AcDbLine
 10
-645.0
 20
-487.711633
 30
0.0
 11
-776.85098
 21
-487.711633
 31
0.0
  0
LINE
  5
2A1D
100
AcDbEntity
  8
V0-OBRYS
  6
CONTINUOUS
 62
    90
100
AcDbLine
 10
-792.006265
 20
-502.866918
 30
0.0
 11
-645.0
 21
-502.866918
 31
0.0
  0
LINE
  5
2A1E
100
AcDbEntity
  8
V0-OBRYS
  6
CONTINUOUS
 62
    90
100
AcDbLine
 10
-776.85098
 20
-355.860654
 30
0.0
 11
-776.85098
 21
-487.711633
 31
0.0
  0
LINE
  5
2A1F
100
AcDbEntity
  8
V0-OBRYS
  6
CONTINUOUS
 62
    90
100
AcDbLine
 10
-792.006265
 20
-355.860654
 30
0.0
 11
-792.006265
 21
-502.866918
 31
0.0
  0
LINE
  5
2A21
100
AcDbEntity
  8
V0-OBRYS
  6
CONTINUOUS
 62
    90
100
AcDbLine
 10
-328.0
 20
-502.866918
 30
0.0
 11
-354.0
 21
-502.866918
 31
0.0
  0
LINE
  5
2A22
100
AcDbEntity
  8
V0-OBRYS
  6
CONTINUOUS
 62
    90
100
AcDbLine
 10
-645.0
 20
-487.711633
 30
0.0
 11
-513.149021
 21
-487.711633
 31
0.0
  0
LINE
  5
2A23
100
AcDbEntity
  8
V0-VYPLNE
  6
DASHDOT
 62
    63
 48
2.0
100
AcDbLine
 10
-761.201995
 20
-479.640291
 30
0.0
 11
-761.201995
 21
-466.000535
 31
0.0
  0
CIRCLE
  5
2A24
100
AcDbEntity
  8
V0-OBRYS
  6
CONTINUOUS
 62
    90
100
AcDbCircle
 10
-761.201995
 20
-472.062649
 30
0.0
 40
3.788821
  0
LINE
  5
2A25
100
AcDbEntity
  8
V0-VYPLNE
  6
DASHDOT
 62
    63
 48
2.0
100
AcDbLine
 10
-771.810695
 20
-472.062649
 30
0.0
 11
-752.108824
 21
-472.062649
 31
0.0
  0
LINE
  5
2A26
100
AcDbEntity
  8
V0-OBRYS
  6
CONTINUOUS
 62
    90
100
AcDbLine
 10
-513.149021
 20
-355.860654
 30
0.0
 11
-513.149021
 21
-487.711633
 31
0.0
  0
LINE
  5
2A27
100
AcDbEntity
  8
V0-OBRYS
  6
CONTINUOUS
 62
    90
100
AcDbLine
 10
-497.993736
 20
-355.860654
 30
0.0
 11
-497.993736
 21
-502.866918
 31
0.0
  0
LINE
  5
2A28
100
AcDbEntity
  8
V0-OBRYS
  6
CONTINUOUS
 62
    90
100
AcDbLine
 10
-513.149021
 20
-355.860654
 30
0.0
 11
-513.149021
 21
-487.711633
 31
0.0
  0
CIRCLE
  5
2A29
100
AcDbEntity
  8
V0-OBRYS
  6
CONTINUOUS
 62
    90
100
AcDbCircle
 10
-528.798005
 20
-472.062649
 30
0.0
 40
3.788821
  0
LINE
  5
2A2A
100
AcDbEntity
  8
V0-VYPLNE
  6
DASHDOT
 62
    63
 48
2.0
100
AcDbLine
 10
-528.798005
 20
-479.640291
 30
0.0
 11
-528.798005
 21
-466.000535
 31
0.0
  0
LINE
  5
2A2B
100
AcDbEntity
  8
V0-VYPLNE
  6
DASHDOT
 62
    63
 48
2.0
100
AcDbLine
 10
-518.189306
 20
-472.062649
 30
0.0
 11
-537.891176
 21
-472.062649
 31
0.0
  0
LINE
  5
2A2D
100
AcDbEntity
  8
V0-VYPLNE
  6
DASHDOT
 62
    63
 48
2.0
100
AcDbLine
 10
-801.33933
 20
-355.860654
 30
0.0
 11
-493.023669
 21
-355.860654
 31
0.0
  0
LINE
  5
2A2F
100
AcDbEntity
  8
V0-VYPLNE
  6
DASHDOT
 62
    63
 48
2.0
100
AcDbLine
 10
-645.0
 20
-202.177841
 30
0.0
 11
-645.0
 21
-290.692928
 31
0.0
  0
LINE
  5
2A3E
100
AcDbEntity
  8
V0-OBRYS
  6
CONTINUOUS
 62
    90
100
AcDbLine
 10
-778.366508
 20
-455.885535
 30
0.0
 11
-513.149021
 21
-455.885535
 31
0.0
  0
LINE
  5
2A3F
100
AcDbEntity
  8
V0-OBRYS
  6
CONTINUOUS
 62
    90
100
AcDbLine
 10
-778.366508
 20
-427.090493
 30
0.0
 11
-513.149021
 21
-427.090493
 31
0.0
  0
LINE
  5
2A40
100
AcDbEntity
  8
V0-OBRYS
  6
CONTINUOUS
 62
    90
100
AcDbLine
 10
-778.366508
 20
-398.295452
 30
0.0
 11
-513.149021
 21
-398.295452
 31
0.0
  0
LINE
  5
2A41
100
AcDbEntity
  8
V0-OBRYS
  6
CONTINUOUS
 62
    90
100
AcDbLine
 10
-778.366508
 20
-369.50041
 30
0.0
 11
-513.149021
 21
-369.50041
 31
0.0
  0
LINE
  5
2A42
100
AcDbEntity
  8
V0-OBRYS
  6
CONTINUOUS
 62
    90
100
AcDbLine
 10
-778.366508
 20
-340.705369
 30
0.0
 11
-642.15853
 21
-340.705369
 31
0.0
  0
LINE
  5
2A43
100
AcDbEntity
  8
V0-OBRYS
  6
CONTINUOUS
 62
    90
100
AcDbLine
 10
-778.366508
 20
-311.910327
 30
0.0
 11
-714.714311
 21
-311.910327
 31
0.0
  0
LINE
  5
2A44
100
AcDbEntity
  8
V0-OBRYS
  6
CONTINUOUS
 62
    90
100
AcDbLine
 10
-778.366508
 20
-283.115286
 30
0.0
 11
-513.149021
 21
-283.115286
 31
0.0
  0
LINE
  5
2A45
100
AcDbEntity
  8
V0-OBRYS
  6
CONTINUOUS
 62
    90
100
AcDbLine
 10
-778.366508
 20
-254.320244
 30
0.0
 11
-513.149021
 21
-254.320244
 31
0.0
  0
LINE
  5
2A48
100
AcDbEntity
  8
V0-OBRYS
  6
CONTINUOUS
 62
    90
100
AcDbLine
 10
-328.0
 20
-208.854389
 30
0.0
 11
-328.0
 21
-502.866918
 31
0.0
  0
LINE
  5
2A49
100
AcDbEntity
  8
V0-OBRYS
  6
CONTINUOUS
 62
    90
100
AcDbLine
 10
-354.0
 20
-355.860654
 30
0.0
 11
-354.0
 21
-208.854389
 31
0.0
  0
LINE
  5
2A4B
100
AcDbEntity
  8
V0-OBRYS
  6
CONTINUOUS
 62
    90
100
AcDbLine
 10
-354.0
 20
-355.860654
 30
0.0
 11
-354.0
 21
-502.866918
 31
0.0
  0
LINE
  5
2A4C
100
AcDbEntity
  8
V0-OBRYS
  6
CONTINUOUS
 62
    90
100
AcDbLine
 10
-497.993736
 20
-208.854389
 30
0.0
 11
-645.0
 21
-208.854389
 31
0.0
  0
LINE
  5
2A52
100
AcDbEntity
  8
V0-VYPLNE
  6
DASHDOT
 62
    63
 48
2.0
100
AcDbLine
 10
-404.636996
 20
-355.860654
 30
0.0
 11
-387.74
 21
-355.860654
 31
0.0
  0
LINE
  5
2A56
100
AcDbEntity
  8
V0-OBRYS
  6
CONTINUOUS
 62
    90
100
AcDbLine
 10
-497.993736
 20
-502.866918
 30
0.0
 11
-645.0
 21
-502.866918
 31
0.0
  0
LINE
  5
2A58
100
AcDbEntity
  8
V0-VYPLNE
  6
DASHED
 62
    56
 48
2.0
100
AcDbLine
 10
-334.426737
 20
-255.202337
 30
0.0
 11
-329.108913
 21
-263.61439
 31
0.0
  0
LINE
  5
2A59
100
AcDbEntity
  8
V0-OBRYS
  6
CONTINUOUS
 62
    90
100
AcDbLine
 10
-319.845144
 20
-280.491584
 30
0.0
 11
-326.049083
 21
-283.899005
 31
0.0
  0
ARC
  5
2A5A
100
AcDbEntity
  8
V0-OBRYS
  6
CONTINUOUS
 62
    90
100
AcDbCircle
 10
-323.058569
 20
-277.275166
 30
0.0
 40
4.546586
100
AcDbArc
 50
314.973323
 51
32.29973
  0
CIRCLE
  5
2A5B
100
AcDbEntity
  8
V0-VYPLNE
  6
DASHED
 62
    56
 48
2.0
100
AcDbCircle
 10
-332.858767
 20
-257.943353
 30
0.0
 40
1.288821
  0
LINE
  5
2A5F
100
AcDbEntity
  8
V0-VYPLNE
  6
DASHED
 62
    56
 48
2.0
100
AcDbLine
 10
-340.41078
 20
-224.193339
 30
0.0
 11
-340.41078
 21
-511.080947
 31
0.0
  0
CIRCLE
  5
2A74
100
AcDbEntity
  8
V0-VYPLNE
  6
DASHED
 62
    56
 48
2.0
100
AcDbCircle
 10
-332.858767
 20
-459.508643
 30
0.0
 40
1.288821
  0
LINE
  5
2A87
100
AcDbEntity
  8
V0-OBRYS
  6
CONTINUOUS
 62
    90
100
AcDbLine
 10
-327.818631
 20
-265.655436
 30
0.0
 11
-319.215502
 21
-274.845705
 31
0.0
  0
LINE
  5
2A88
100
AcDbEntity
  8
V0-VYPLNE
  6
DASHED
 62
    56
 48
2.0
100
AcDbLine
 10
-335.918959
 20
-253.764475
 30
0.0
 11
-340.282007
 21
-253.764475
 31
0.0
  0
CIRCLE
  5
2A89
100
AcDbEntity
  8
V0-VYPLNE
  6
DASHED
 62
    56
 48
2.0
100
AcDbCircle
 10
-332.858767
 20
-286.738394
 30
0.0
 40
1.288821
  0
LINE
  5
2A8A
100
AcDbEntity
  8
V0-VYPLNE
  6
DASHED
 62
    56
 48
2.0
100
AcDbLine
 10
-334.426737
 20
-283.997378
 30
0.0
 11
-329.108913
 21
-292.409432
 31
0.0
  0
LINE
  5
2A8B
100
AcDbEntity
  8
V0-VYPLNE
  6
DASHED
 62
    56
 48
2.0
100
AcDbLine
 10
-335.918959
 20
-282.559517
 30
0.0
 11
-340.282007
 21
-282.559517
 31
0.0
  0
LINE
  5
2A8E
100
AcDbEntity
  8
V0-VYPLNE
  6
DASHED
 62
    56
 48
2.0
100
AcDbLine
 10
-334.426737
 20
-341.587461
 30
0.0
 11
-329.108913
 21
-349.999515
 31
0.0
  0
CIRCLE
  5
2A8F
100
AcDbEntity
  8
V0-VYPLNE
  6
DASHED
 62
    56
 48
2.0
100
AcDbCircle
 10
-332.858767
 20
-315.533436
 30
0.0
 40
1.288821
  0
LINE
  5
2A90
100
AcDbEntity
  8
V0-VYPLNE
  6
DASHED
 62
    56
 48
2.0
100
AcDbLine
 10
-334.426737
 20
-312.79242
 30
0.0
 11
-329.108913
 21
-321.204473
 31
0.0
  0
LINE
  5
2A91
100
AcDbEntity
  8
V0-VYPLNE
  6
DASHED
 62
    56
 48
2.0
100
AcDbLine
 10
-335.918959
 20
-340.1496
 30
0.0
 11
-340.282007
 21
-340.1496
 31
0.0
  0
CIRCLE
  5
2A92
100
AcDbEntity
  8
V0-VYPLNE
  6
DASHED
 62
    56
 48
2.0
100
AcDbCircle
 10
-332.858767
 20
-344.328477
 30
0.0
 40
1.288821
  0
LINE
  5
2A93
100
AcDbEntity
  8
V0-VYPLNE
  6
DASHED
 62
    56
 48
2.0
100
AcDbLine
 10
-335.918959
 20
-311.354558
 30
0.0
 11
-340.282007
 21
-311.354558
 31
0.0
  0
LINE
  5
2A94
100
AcDbEntity
  8
V0-VYPLNE
  6
DASHED
 62
    56
 48
2.0
100
AcDbLine
 10
-334.426737
 20
-399.177544
 30
0.0
 11
-329.108913
 21
-407.589598
 31
0.0
  0
CIRCLE
  5
2A95
100
AcDbEntity
  8
V0-VYPLNE
  6
DASHED
 62
    56
 48
2.0
100
AcDbCircle
 10
-332.858767
 20
-459.508643
 30
0.0
 40
1.288821
  0
LINE
  5
2A96
100
AcDbEntity
  8
V0-VYPLNE
  6
DASHED
 62
    56
 48
2.0
100
AcDbLine
 10
-335.918959
 20
-455.329766
 30
0.0
 11
-340.282007
 21
-455.329766
 31
0.0
  0
LINE
  5
2A97
100
AcDbEntity
  8
V0-VYPLNE
  6
DASHED
 62
    56
 48
2.0
100
AcDbLine
 10
-334.426737
 20
-456.767627
 30
0.0
 11
-329.108913
 21
-465.179681
 31
0.0
  0
LINE
  5
2A98
100
AcDbEntity
  8
V0-VYPLNE
  6
DASHED
 62
    56
 48
2.0
100
AcDbLine
 10
-335.918959
 20
-426.534724
 30
0.0
 11
-340.282007
 21
-426.534724
 31
0.0
  0
LINE
  5
2A99
100
AcDbEntity
  8
V0-VYPLNE
  6
DASHED
 62
    56
 48
2.0
100
AcDbLine
 10
-334.426737
 20
-427.972586
 30
0.0
 11
-329.108913
 21
-436.384639
 31
0.0
  0
CIRCLE
  5
2A9A
100
AcDbEntity
  8
V0-VYPLNE
  6
DASHED
 62
    56
 48
2.0
100
AcDbCircle
 10
-332.858767
 20
-430.713602
 30
0.0
 40
1.288821
  0
CIRCLE
  5
2A9B
100
AcDbEntity
  8
V0-VYPLNE
  6
DASHED
 62
    56
 48
2.0
100
AcDbCircle
 10
-332.858767
 20
-373.123519
 30
0.0
 40
1.288821
  0
LINE
  5
2A9C
100
AcDbEntity
  8
V0-VYPLNE
  6
DASHED
 62
    56
 48
2.0
100
AcDbLine
 10
-334.426737
 20
-370.382503
 30
0.0
 11
-329.108913
 21
-378.794556
 31
0.0
  0
LINE
  5
2A9D
100
AcDbEntity
  8
V0-VYPLNE
  6
DASHED
 62
    56
 48
2.0
100
AcDbLine
 10
-335.918959
 20
-397.739683
 30
0.0
 11
-340.282007
 21
-397.739683
 31
0.0
  0
CIRCLE
  5
2A9E
100
AcDbEntity
  8
V0-VYPLNE
  6
DASHED
 62
    56
 48
2.0
100
AcDbCircle
 10
-332.858767
 20
-401.91856
 30
0.0
 40
1.288821
  0
LINE
  5
2A9F
100
AcDbEntity
  8
V0-VYPLNE
  6
DASHED
 62
    56
 48
2.0
100
AcDbLine
 10
-335.918959
 20
-368.944641
 30
0.0
 11
-340.282007
 21
-368.944641
 31
0.0
  0
LINE
  5
2AA0
100
AcDbEntity
  8
V0-OBRYS
  6
CONTINUOUS
 62
    90
100
AcDbLine
 10
-327.818631
 20
-294.450478
 30
0.0
 11
-319.215502
 21
-303.640747
 31
0.0
  0
LINE
  5
2AA1
100
AcDbEntity
  8
V0-OBRYS
  6
CONTINUOUS
 62
    90
100
AcDbLine
 10
-319.845144
 20
-309.286625
 30
0.0
 11
-326.049083
 21
-312.694046
 31
0.0
  0
ARC
  5
2AA2
100
AcDbEntity
  8
V0-OBRYS
  6
CONTINUOUS
 62
    90
100
AcDbCircle
 10
-323.058569
 20
-306.070207
 30
0.0
 40
4.546586
100
AcDbArc
 50
314.973323
 51
32.29973
  0
LINE
  5
2AA3
100
AcDbEntity
  8
V0-OBRYS
  6
CONTINUOUS
 62
    90
100
AcDbLine
 10
-319.845144
 20
-366.876708
 30
0.0
 11
-326.049083
 21
-370.284129
 31
0.0
  0
LINE
  5
2AA4
100
AcDbEntity
  8
V0-OBRYS
  6
CONTINUOUS
 62
    90
100
AcDbLine
 10
-327.818631
 20
-352.040561
 30
0.0
 11
-319.215502
 21
-361.23083
 31
0.0
  0
LINE
  5
2AA5
100
AcDbEntity
  8
V0-OBRYS
  6
CONTINUOUS
 62
    90
100
AcDbLine
 10
-327.818631
 20
-323.245519
 30
0.0
 11
-319.215502
 21
-332.435788
 31
0.0
  0
LINE
  5
2AA6
100
AcDbEntity
  8
V0-OBRYS
  6
CONTINUOUS
 62
    90
100
AcDbLine
 10
-319.845144
 20
-338.081667
 30
0.0
 11
-326.049083
 21
-341.489088
 31
0.0
  0
ARC
  5
2AA7
100
AcDbEntity
  8
V0-OBRYS
  6
CONTINUOUS
 62
    90
100
AcDbCircle
 10
-323.058569
 20
-363.66029
 30
0.0
 40
4.546586
100
AcDbArc
 50
314.973323
 51
32.29973
  0
ARC
  5
2AA8
100
AcDbEntity
  8
V0-OBRYS
  6
CONTINUOUS
 62
    90
100
AcDbCircle
 10
-323.058569
 20
-334.865249
 30
0.0
 40
4.546586
100
AcDbArc
 50
314.973323
 51
32.29973
  0
LINE
  5
2AA9
100
AcDbEntity
  8
V0-OBRYS
  6
CONTINUOUS
 62
    90
100
AcDbLine
 10
-319.845144
 20
-453.261833
 30
0.0
 11
-326.049083
 21
-456.669254
 31
0.0
  0
LINE
  5
2AAA
100
AcDbEntity
  8
V0-OBRYS
  6
CONTINUOUS
 62
    90
100
AcDbLine
 10
-327.818631
 20
-438.425685
 30
0.0
 11
-319.215502
 21
-447.615954
 31
0.0
  0
LINE
  5
2AAB
100
AcDbEntity
  8
V0-OBRYS
  6
CONTINUOUS
 62
    90
100
AcDbLine
 10
-327.818631
 20
-467.220727
 30
0.0
 11
-319.215502
 21
-476.410996
 31
0.0
  0
LINE
  5
2AAC
100
AcDbEntity
  8
V0-OBRYS
  6
CONTINUOUS
 62
    90
100
AcDbLine
 10
-319.845144
 20
-482.056874
 30
0.0
 11
-326.049083
 21
-485.464295
 31
0.0
  0
LINE
  5
2AAD
100
AcDbEntity
  8
V0-OBRYS
  6
CONTINUOUS
 62
    90
100
AcDbLine
 10
-319.845144
 20
-424.466791
 30
0.0
 11
-326.049083
 21
-427.874212
 31
0.0
  0
LINE
  5
2AAE
100
AcDbEntity
  8
V0-OBRYS
  6
CONTINUOUS
 62
    90
100
AcDbLine
 10
-327.818631
 20
-409.630644
 30
0.0
 11
-319.215502
 21
-418.820913
 31
0.0
  0
LINE
  5
2AAF
100
AcDbEntity
  8
V0-OBRYS
  6
CONTINUOUS
 62
    90
100
AcDbLine
 10
-327.818631
 20
-380.835602
 30
0.0
 11
-319.215502
 21
-390.025871
 31
0.0
  0
LINE
  5
2AB0
100
AcDbEntity
  8
V0-OBRYS
  6
CONTINUOUS
 62
    90
100
AcDbLine
 10
-319.845144
 20
-395.67175
 30
0.0
 11
-326.049083
 21
-399.079171
 31
0.0
  0
ARC
  5
2AB1
100
AcDbEntity
  8
V0-OBRYS
  6
CONTINUOUS
 62
    90
100
AcDbCircle
 10
-323.058569
 20
-478.840456
 30
0.0
 40
4.546586
100
AcDbArc
 50
314.973323
 51
32.29973
  0
ARC
  5
2AB2
100
AcDbEntity
  8
V0-OBRYS
  6
CONTINUOUS
 62
    90
100
AcDbCircle
 10
-323.058569
 20
-450.045415
 30
0.0
 40
4.546586
100
AcDbArc
 50
314.973323
 51
32.29973
  0
ARC
  5
2AB3
100
AcDbEntity
  8
V0-OBRYS
  6
CONTINUOUS
 62
    90
100
AcDbCircle
 10
-323.058569
 20
-421.250373
 30
0.0
 40
4.546586
100
AcDbArc
 50
314.973323
 51
32.29973
  0
ARC
  5
2AB4
100
AcDbEntity
  8
V0-OBRYS
  6
CONTINUOUS
 62
    90
100
AcDbCircle
 10
-323.058569
 20
-392.455332
 30
0.0
 40
4.546586
100
AcDbArc
 50
314.973323
 51
32.29973
  0
LINE
  5
2AB5
100
AcDbEntity
  8
V0-OBRYS
  6
CONTINUOUS
 62
    90
100
AcDbLine
 10
-327.818631
 20
-236.860395
 30
0.0
 11
-319.215502
 21
-246.050664
 31
0.0
  0
LINE
  5
2AB6
100
AcDbEntity
  8
V0-OBRYS
  6
CONTINUOUS
 62
    90
100
AcDbLine
 10
-319.845144
 20
-251.696542
 30
0.0
 11
-326.049083
 21
-255.103963
 31
0.0
  0
CIRCLE
  5
2AB7
100
AcDbEntity
  8
V0-VYPLNE
  6
DASHED
 62
    56
 48
2.0
100
AcDbCircle
 10
-332.858767
 20
-229.148311
 30
0.0
 40
1.288821
  0
LINE
  5
2AB8
100
AcDbEntity
  8
V0-VYPLNE
  6
DASHED
 62
    56
 48
2.0
100
AcDbLine
 10
-334.426737
 20
-226.407295
 30
0.0
 11
-329.108913
 21
-234.819349
 31
0.0
  0
ARC
  5
2AB9
100
AcDbEntity
  8
V0-OBRYS
  6
CONTINUOUS
 62
    90
100
AcDbCircle
 10
-323.058569
 20
-248.480124
 30
0.0
 40
4.546586
100
AcDbArc
 50
314.973323
 51
32.29973
  0
LINE
  5
2ABA
100
AcDbEntity
  8
V0-VYPLNE
  6
DASHED
 62
    56
 48
2.0
100
AcDbLine
 10
-335.918959
 20
-224.969434
 30
0.0
 11
-340.282007
 21
-224.969434
 31
0.0
  0
DIMENSION
  5
2ACB
100
AcDbEntity
  8
V0-VYPLNE
  6
CONTINUOUS
 62
    41
 48
2.0
100
AcDbDimension
  2
*D12
 10
-436.773689
 20
-502.866918
 30
0.0
 11
-444.900165
 21
-355.860654
 31
0.0
 70
    32
  3
STANDARD
100
AcDbAlignedDimension
 13
-497.993736
 23
-208.854389
 33
0.0
 14
-497.993736
 24
-502.866918
 34
0.0
 50
90.0
100
AcDbRotatedDimension
1001
ACAD
1000
DSTYLE
1002
{
1070
   140
1040
15.0
1070
    40
1040
1.0
1070
    41
1040
15.0
1002
}
  0
DIMENSION
  5
2AD8
100
AcDbEntity
  8
V0-VYPLNE
  6
CONTINUOUS
 62
    41
 48
2.0
100
AcDbDimension
  2
*D11
 10
-467.890701
 20
-472.062649
 30
0.0
 11
-476.017177
 21
-355.860654
 31
0.0
 70
    32
  3
STANDARD
100
AcDbAlignedDimension
 13
-518.189306
 23
-239.658659
 33
0.0
 14
-518.189306
 24
-472.062649
 34
0.0
 50
90.0
100
AcDbRotatedDimension
1001
ACAD
1000
DSTYLE
1002
{
1070
   140
1040
15.0
1070
    40
1040
1.0
1070
    41
1040
15.0
1002
}
  0
DIMENSION
  5
2AE5
100
AcDbEntity
  8
V0-VYPLNE
  6
CONTINUOUS
 62
    41
 48
2.0
100
AcDbDimension
  2
*D9
 10
-497.993736
 20
-566.082894
 30
0.0
 11
-645.0
 21
-557.956418
 31
0.0
 70
    32
  3
STANDARD
100
AcDbAlignedDimension
 13
-792.006265
 23
-502.866918
 33
0.0
 14
-497.993736
 24
-502.866918
 34
0.0
100
AcDbRotatedDimension
1001
ACAD
1000
DSTYLE
1002
{
1070
   140
1040
15.0
1070
    40
1040
1.0
1070
    41
1040
15.0
1002
}
  0
DIMENSION
  5
2AF2
100
AcDbEntity
  8
V0-VYPLNE
  6
CONTINUOUS
 62
    41
 48
2.0
100
AcDbDimension
  2
*D10
 10
-528.798005
 20
-536.190532
 30
0.0
 11
-645.0
 21
-528.064056
 31
0.0
 70
    32
  3
STANDARD
100
AcDbAlignedDimension
 13
-761.201995
 23
-479.640291
 33
0.0
 14
-528.798005
 24
-479.640291
 34
0.0
100
AcDbRotatedDimension
1001
ACAD
1000
DSTYLE
1002
{
1070
   140
1040
15.0
1070
    40
1040
1.0
1070
    41
1040
15.0
1002
}
  0
LEADER
  5
2AF3
100
AcDbEntity
  8
V0-VYPLNE
  6
CONTINUOUS
 62
    41
 48
2.0
100
AcDbLeader
  3
STANDARD
 73
     0
 74
     0
 75
     1
 40
15.155285
 41
20.329623
 76
     3
 10
-756.862
 20
-237.91317
 30
0.0
 10
-678.632267
 20
-188.324717
 30
0.0
 10
-668.632267
 20
-188.324717
 30
0.0
 77
    41
340
2AF4
1001
ACAD
1000
DSTYLE
1002
{
1070
   140
1040
10.0
1070
    40
1040
1.0
1070
    41
1040
10.0
1002
}
  0
MTEXT
  5
2AF4
102
{ACAD_REACTORS
330
2AF3
102
}
100
AcDbEntity
  8
V0-VYPLNE
  6
CONTINUOUS
 62
    41
 48
2.0
100
AcDbMText
 10
-668.007267
 20
-180.122075
 30
0.0
 40
15.155285
 41
0.0
 71
     4
 72
     1
  1
%%c5
  0
DIMENSION
  5
2B1D
100
AcDbEntity
  8
V0-VYPLNE
  6
CONTINUOUS
 62
    41
 48
2.0
100
AcDbDimension
  2
*D13
 10
-328.0
 20
-534.994838
 30
0.0
 11
-288.5625
 21
-526.868361
 31
0.0
 70
    32
  3
STANDARD
100
AcDbAlignedDimension
 13
-354.0
 23
-502.866918
 33
0.0
 14
-328.0
 24
-502.866918
 34
0.0
100
AcDbRotatedDimension
1001
ACAD
1000
DSTYLE
1002
{
1070
   140
1040
15.0
1070
    40
1040
1.0
1070
    41
1040
15.0
1002
}
  0
LINE
  5
2B45
100
AcDbEntity
  8
V0-OBRYS
  6
CONTINUOUS
 62
    90
100
AcDbLine
 10
-515.0
 20
-615.382445
 30
0.0
 11
-645.0
 21
-615.382445
 31
0.0
  0
LINE
  5
2B47
100
AcDbEntity
  8
V0-OBRYS
  6
CONTINUOUS
 62
    90
100
AcDbLine
 10
-645.0
 20
-650.382445
 30
0.0
 11
-497.993736
 21
-650.382445
 31
0.0
  0
LINE
  5
2B48
100
AcDbEntity
  8
V0-OBRYS
  6
CONTINUOUS
 62
    90
100
AcDbLine
 10
-792.006265
 20
-676.382445
 30
0.0
 11
-497.993736
 21
-676.382445
 31
0.0
  0
LINE
  5
2B4E
100
AcDbEntity
  8
V0-OBRYS
  6
CONTINUOUS
 62
    90
100
AcDbLine
 10
-497.993736
 20
-676.382445
 30
0.0
 11
-497.993736
 21
-650.382445
 31
0.0
  0
LINE
  5
2B66
100
AcDbEntity
  8
V0-OBRYS
  6
CONTINUOUS
 62
    90
100
AcDbLine
 10
-775.0
 20
-615.382445
 30
0.0
 11
-645.0
 21
-615.382445
 31
0.0
  0
LINE
  5
2B68
100
AcDbEntity
  8
V0-OBRYS
  6
CONTINUOUS
 62
    90
100
AcDbLine
 10
-645.0
 20
-650.382445
 30
0.0
 11
-792.006265
 21
-650.382445
 31
0.0
  0
LINE
  5
2B6F
100
AcDbEntity
  8
V0-VYPLNE
  6
DASHDOT
 62
    63
 48
2.0
100
AcDbLine
 10
-645.0
 20
-608.502247
 30
0.0
 11
-645.0
 21
-637.076254
 31
0.0
  0
LINE
  5
2B7E
100
AcDbEntity
  8
V0-OBRYS
  6
CONTINUOUS
 62
    90
100
AcDbLine
 10
-792.006265
 20
-676.382445
 30
0.0
 11
-792.006265
 21
-650.382445
 31
0.0
  0
LINE
  5
2B86
100
AcDbEntity
  8
V0-OBRYS
  6
CONTINUOUS
 62
    90
100
AcDbLine
 10
-778.366508
 20
-676.382445
 30
0.0
 11
-778.366508
 21
-689.786186
 31
0.0
  0
LINE
  5
2B87
100
AcDbEntity
  8
V0-OBRYS
  6
CONTINUOUS
 62
    90
100
AcDbLine
 10
-778.366508
 20
-689.786186
 30
0.0
 11
-645.0
 21
-689.786186
 31
0.0
  0
LINE
  5
2B88
100
AcDbEntity
  8
V0-OBRYS
  6
CONTINUOUS
 62
    90
100
AcDbLine
 10
-511.633492
 20
-676.382445
 30
0.0
 11
-511.633492
 21
-689.786186
 31
0.0
  0
LINE
  5
2B89
100
AcDbEntity
  8
V0-OBRYS
  6
CONTINUOUS
 62
    90
100
AcDbLine
 10
-511.633492
 20
-689.786186
 30
0.0
 11
-645.0
 21
-689.786186
 31
0.0
  0
TEXT
  5
2B90
100
AcDbEntity
  8
V0-ZBYTEK
  6
CONTINUOUS
 62
    51
100
AcDbText
 10
-454.225068
 20
-662.416301
 30
0.0
 40
10.0
  1
ELEKTRICKY OVLADANA
 72
     1
 11
-382.675068
 21
-662.416301
 31
0.0
100
AcDbText
  0
TEXT
  5
2B91
100
AcDbEntity
  8
V0-NAZVY
  6
CONTINUOUS
 62
   210
100
AcDbText
 10
-446.0
 20
-601.669465
 30
0.0
 40
20.0
  1
PAR-250W
 72
     1
 11
-382.0
 21
-601.669465
 31
0.0
100
AcDbText
  0
TEXT
  5
2B92
100
AcDbEntity
  8
V0-ZBYTEK
  6
CONTINUOUS
 62
   130
100
AcDbText
 10
-473.575
 20
-632.669465
 30
0.0
 40
15.0
  1
ZALUZIOVA KLAPKA
 72
     1
 11
-382.0
 21
-632.669465
 31
0.0
100
AcDbText
  0
TEXT
  5
2B9C
100
AcDbEntity
  8
V0-NAZVY
  6
CONTINUOUS
 62
   210
100
AcDbText
 10
-705.3696
 20
-325.675854
 30
0.0
 40
18.8655
  1
PAR-250W
 72
     1
 11
-645.0
 21
-325.675854
 31
0.0
100
AcDbText
  0
LINE
  5
2B9D
100
AcDbEntity
  8
V0-OBRYS
  6
CONTINUOUS
 62
    90
100
AcDbLine
 10
-576.801218
 20
-311.910327
 30
0.0
 11
-513.149021
 21
-311.910327
 31
0.0
  0
LINE
  5
2B9E
100
AcDbEntity
  8
V0-VYPLNE
  6
DASHDOT
 62
    63
 48
2.0
100
AcDbLine
 10
-645.0
 20
-331.612198
 30
0.0
 11
-645.0
 21
-496.732616
 31
0.0
  0
TEXT
  5
2B9F
100
AcDbEntity
  8
V0-NAZVY
  6
CONTINUOUS
 62
   210
100
AcDbText
 10
-705.3696
 20
-606.662411
 30
0.0
 40
18.8655
  1
PAR-250W
 72
     1
 11
-645.0
 21
-606.662411
 31
0.0
100
AcDbText
  0
TEXT
  5
2BA0
100
AcDbEntity
  8
V0-NAZVY
  6
CONTINUOUS
 62
   210
100
AcDbText
 10
-285.743016
 20
-414.777281
 30
0.0
 40
18.8655
  1
PAR-250W
 50
90.0
 72
     1
 11
-285.743016
 21
-354.407681
 31
0.0
100
AcDbText
  0
LINE
  5
2BA1
100
AcDbEntity
  8
V0-VYPLNE
  6
CONTINUOUS
 62
    52
100
AcDbLine
 10
-368.625414
 20
-356.506495
 30
0.0
 11
-386.660203
 21
-370.297804
 31
0.0
  0
LINE
  5
2BA2
100
AcDbEntity
  8
V0-VYPLNE
  6
CONTINUOUS
 62
    52
100
AcDbLine
 10
-386.660203
 20
-370.297804
 30
0.0
 11
-386.660203
 21
-356.506495
 31
0.0
  0
LINE
  5
2BA3
100
AcDbEntity
  8
V0-VYPLNE
  6
CONTINUOUS
 62
    52
100
AcDbLine
 10
-368.625414
 20
-356.506495
 30
0.0
 11
-386.660203
 21
-342.715185
 31
0.0
  0
LINE
  5
2BA4
100
AcDbEntity
  8
V0-VYPLNE
  6
CONTINUOUS
 62
    52
100
AcDbLine
 10
-386.660203
 20
-342.715185
 30
0.0
 11
-386.660203
 21
-356.506495
 31
0.0
  0
LINE
  5
2BA7
100
AcDbEntity
  8
V0-VYPLNE
  6
CONTINUOUS
 62
    52
100
AcDbLine
 10
-645.0
 20
-685.856225
 30
0.0
 11
-631.360244
 21
-667.669883
 31
0.0
  0
LINE
  5
2BA8
100
AcDbEntity
  8
V0-VYPLNE
  6
CONTINUOUS
 62
    52
100
AcDbLine
 10
-631.360244
 20
-667.669883
 30
0.0
 11
-645.0
 21
-667.669883
 31
0.0
  0
LINE
  5
2BA9
100
AcDbEntity
  8
V0-VYPLNE
  6
CONTINUOUS
 62
    52
100
AcDbLine
 10
-645.0
 20
-685.856225
 30
0.0
 11
-658.639757
 21
-667.669883
 31
0.0
  0
LINE
  5
2BAA
100
AcDbEntity
  8
V0-VYPLNE
  6
CONTINUOUS
 62
    52
100
AcDbLine
 10
-658.639757
 20
-667.669883
 30
0.0
 11
-645.0
 21
-667.669883
 31
0.0
  0
LINE
  5
2C12
100
AcDbEntity
  8
V0-OBRYS
  6
CONTINUOUS
 62
    90
100
AcDbLine
 10
-390.15
 20
-225.860654
 30
0.0
 11
-390.15
 21
-355.860654
 31
0.0
  0
LINE
  5
2C14
100
AcDbEntity
  8
V0-OBRYS
  6
CONTINUOUS
 62
    90
100
AcDbLine
 10
-390.15
 20
-485.860654
 30
0.0
 11
-390.15
 21
-355.860654
 31
0.0
  0
LINE
  5
2C15
100
AcDbEntity
  8
V0-VYPLNE
  6
DASHDOT
 62
    63
 48
2.0
100
AcDbLine
 10
-344.87
 20
-355.860654
 30
0.0
 11
-328.0
 21
-355.860654
 31
0.0
  0
DIMENSION
  5
2C2F
100
AcDbEntity
  8
V0-VYPLNE
  6
CONTINUOUS
 62
    41
 48
2.0
100
AcDbDimension
  2
*D14
 10
-318.583535
 20
-555.411983
 30
0.0
 11
-336.291768
 21
-547.285507
 31
0.0
 70
    32
  1
42
  3
STANDARD
100
AcDbAlignedDimension
 13
-354.0
 23
-502.866918
 33
0.0
 14
-318.583535
 24
-502.866918
 34
0.0
100
AcDbRotatedDimension
1001
ACAD
1000
DSTYLE
1002
{
1070
   140
1040
15.0
1070
    40
1040
1.0
1070
    41
1040
15.0
1002
}
  0
CIRCLE
  5
2D89
100
AcDbEntity
  8
V0-VYPLNE
  6
DASHED
 62
    56
 48
2.0
100
AcDbCircle
 10
-645.0
 20
-355.860654
 30
0.0
 40
130.0
  0
DIMENSION
  5
2D93
100
AcDbEntity
  8
V0-VYPLNE
  6
CONTINUOUS
 62
    41
 48
2.0
100
AcDbDimension
  2
*D8
 10
-772.116636
 20
-383.088598
 30
0.0
 11
-619.361619
 21
-350.369001
 31
0.0
 70
   163
  3
STANDARD
100
AcDbDiametricDimension
 15
-517.883364
 25
-328.63271
 35
0.0
 40
0.0
1001
ACAD
1000
DSTYLE
1002
{
1070
   140
1040
15.0
1070
    40
1040
1.0
1070
    41
1040
15.0
1002
}
  0
LINE
  5
2D9C
100
AcDbEntity
  8
V0-OBRYS
  6
CONTINUOUS
 62
    90
100
AcDbLine
 10
-593.52512
 20
-340.705369
 30
0.0
 11
-513.149021
 21
-340.705369
 31
0.0
  0
LINE
  5
2DEB
100
AcDbEntity
  8
V0-OBRYS
  6
CONTINUOUS
 62
    90
100
AcDbLine
 10
-354.0
 20
-225.860654
 30
0.0
 11
-390.15
 21
-225.860654
 31
0.0
  0
LINE
  5
2DEC
100
AcDbEntity
  8
V0-OBRYS
  6
CONTINUOUS
 62
    90
100
AcDbLine
 10
-354.0
 20
-485.860654
 30
0.0
 11
-390.15
 21
-485.860654
 31
0.0
  0
LINE
  5
2DED
100
AcDbEntity
  8
V0-OBRYS
  6
CONTINUOUS
 62
    90
100
AcDbLine
 10
-775.0
 20
-650.860654
 30
0.0
 11
-775.0
 21
-615.382445
 31
0.0
  0
LINE
  5
2DEE
100
AcDbEntity
  8
V0-OBRYS
  6
CONTINUOUS
 62
    90
100
AcDbLine
 10
-515.0
 20
-650.860654
 30
0.0
 11
-515.0
 21
-615.382445
 31
0.0
  0
POINT
  5
2EB5
100
AcDbEntity
  8
V0-VYPLNE
  6
CONTINUOUS
 62
    52
100
AcDbPoint
 10
-645.0
 20
-355.860654
 30
0.0
  0
POINT
  5
2EB6
100
AcDbEntity
  8
V0-VYPLNE
  6
CONTINUOUS
 62
    52
100
AcDbPoint
 10
-645.0
 20
-650.382445
 30
0.0
  0
POINT
  5
2EB7
100
AcDbEntity
  8
V0-VYPLNE
  6
CONTINUOUS
 62
    52
100
AcDbPoint
 10
-354.0
 20
-355.860654
 30
0.0
  0
VIEWPORT
  5
22
100
AcDbEntity
 67
     1
  8
0
100
AcDbViewport
 10
261.517699
 20
165.390006
 30
0.0
 40
523.035398
 41
330.780011
 68
    -1
 69
     1
1001
ACAD
1000
MVIEW
1002
{
1070
    16
1010
0.0
1020
0.0
1030
0.0
1010
0.0
1020
0.0
1030
1.0
1040
0.0
1040
330.780011
1040
261.517699
1040
165.390006
1040
50.0
1040
0.0
1040
0.0
1070
     0
1070
   100
1070
     1
1070
     0
1070
     0
1070
     0
1070
     0
1070
     0
1040
0.0
1040
0.0
1040
0.0
1040
1.0
1040
1.0
1040
10.0
1040
10.0
1070
     0
1002
{
1002
}
1002
}
  0
ENDSEC
  0
SECTION
  2
OBJECTS
  0
DICTIONARY
  5
C
100
AcDbDictionary
  3
ACAD_GROUP
350
D
  3
ACAD_MLINESTYLE
350
E
  3
ACDBVARIABLEDICTIONARY
350
86C
  3
CONTENTDICTIONARY
350
905
  0
DICTIONARY
  5
D
102
{ACAD_REACTORS
330
C
102
}
100
AcDbDictionary
  0
DICTIONARY
  5
E
102
{ACAD_REACTORS
330
C
102
}
100
AcDbDictionary
  3
STANDARD
350
13
  0
DICTIONARY
  5
86C
102
{ACAD_REACTORS
330
C
102
}
100
AcDbDictionary
  3
SORTENTS
350
86D
  0
DICTIONARY
  5
905
102
{ACAD_REACTORS
330
C
102
}
100
AcDbDictionary
  0
MLINESTYLE
  5
13
102
{ACAD_REACTORS
330
E
102
}
100
AcDbMlineStyle
  2
STANDARD
 70
     0
  3

 62
     0
 51
90.0
 52
90.0
 71
     2
 49
0.5
 62
   256
  6
BYLAYER
 49
-0.5
 62
   256
  6
BYLAYER
  0
DICTIONARYVAR
  5
86D
102
{ACAD_REACTORS
330
86C
102
}
100
DictionaryVariables
280
     0
  1
96
  0
ENDSEC
  0
EOF
