  0
SECTION
  2
HEADER
  9
$ACADVER
  1
AC1014
  9
$ACADMAINTVER
 70
     0
  9
$DWGCODEPAGE
  3
ANSI_1250
  9
$INSBASE
 10
0.0
 20
0.0
 30
0.0
  9
$EXTMIN
 10
-260.375996
 20
-751.646821
 30
-0.001526
  9
$EXTMAX
 10
369.354865
 20
102.214508
 30
0.0
  9
$LIMMIN
 10
-1040.805314
 20
-347.068924
  9
$LIMMAX
 10
643.686187
 20
495.293187
  9
$ORTHOMODE
 70
     0
  9
$REGENMODE
 70
     1
  9
$FILLMODE
 70
     1
  9
$QTEXTMODE
 70
     0
  9
$MIRRTEXT
 70
     1
  9
$DRAGMODE
 70
     2
  9
$LTSCALE
 40
5.0
  9
$OSMODE
 70
  1023
  9
$ATTMODE
 70
     1
  9
$TEXTSIZE
 40
15.0
  9
$TRACEWID
 40
1.0
  9
$TEXTSTYLE
  7
STANDARD
  9
$CLAYER
  8
0
  9
$CELTYPE
  6
BYLAYER
  9
$CECOLOR
 62
   256
  9
$CELTSCALE
 40
5.0
  9
$DELOBJ
 70
     1
  9
$DISPSILH
 70
     0
  9
$DIMSCALE
 40
1.0
  9
$DIMASZ
 40
25.0
  9
$DIMEXO
 40
0.0625
  9
$DIMDLI
 40
0.38
  9
$DIMRND
 40
0.0
  9
$DIMDLE
 40
0.0
  9
$DIMEXE
 40
0.18
  9
$DIMTP
 40
0.0
  9
$DIMTM
 40
0.0
  9
$DIMTXT
 40
25.0
  9
$DIMCEN
 40
0.0
  9
$DIMTSZ
 40
0.0
  9
$DIMTOL
 70
     0
  9
$DIMLIM
 70
     0
  9
$DIMTIH
 70
     0
  9
$DIMTOH
 70
     0
  9
$DIMSE1
 70
     0
  9
$DIMSE2
 70
     0
  9
$DIMTAD
 70
     1
  9
$DIMZIN
 70
     0
  9
$DIMBLK
  1

  9
$DIMASO
 70
     1
  9
$DIMSHO
 70
     1
  9
$DIMPOST
  1

  9
$DIMAPOST
  1

  9
$DIMALT
 70
     0
  9
$DIMALTD
 70
     2
  9
$DIMALTF
 40
25.4
  9
$DIMLFAC
 40
1.0
  9
$DIMTOFL
 70
     0
  9
$DIMTVP
 40
0.0
  9
$DIMTIX
 70
     0
  9
$DIMSOXD
 70
     0
  9
$DIMSAH
 70
     1
  9
$DIMBLK1
  1
_OPEN
  9
$DIMBLK2
  1
_OPEN
  9
$DIMSTYLE
  2
STANDARD
  9
$DIMCLRD
 70
     0
  9
$DIMCLRE
 70
     0
  9
$DIMCLRT
 70
     0
  9
$DIMTFAC
 40
1.0
  9
$DIMGAP
 40
0.625
  9
$DIMJUST
 70
     0
  9
$DIMSD1
 70
     0
  9
$DIMSD2
 70
     0
  9
$DIMTOLJ
 70
     1
  9
$DIMTZIN
 70
     0
  9
$DIMALTZ
 70
     0
  9
$DIMALTTZ
 70
     0
  9
$DIMFIT
 70
     0
  9
$DIMUPT
 70
     0
  9
$DIMUNIT
 70
     2
  9
$DIMDEC
 70
     0
  9
$DIMTDEC
 70
     4
  9
$DIMALTU
 70
     2
  9
$DIMALTTD
 70
     2
  9
$DIMTXSTY
  7
STANDARD
  9
$DIMAUNIT
 70
     0
  9
$LUNITS
 70
     2
  9
$LUPREC
 70
     4
  9
$SKETCHINC
 40
1.0
  9
$FILLETRAD
 40
10.0
  9
$AUNITS
 70
     0
  9
$AUPREC
 70
     0
  9
$MENU
  1
.
  9
$ELEVATION
 40
0.0
  9
$PELEVATION
 40
0.0
  9
$THICKNESS
 40
0.0
  9
$LIMCHECK
 70
     0
  9
$BLIPMODE
 70
     1
  9
$CHAMFERA
 40
10.0
  9
$CHAMFERB
 40
10.0
  9
$CHAMFERC
 40
20.0
  9
$CHAMFERD
 40
0.0
  9
$SKPOLY
 70
     0
  9
$TDCREATE
 40
2450763.421427893
  9
$TDUPDATE
 40
2453313.391712477
  9
$TDINDWG
 40
1.2022422338
  9
$TDUSRTIMER
 40
1.2022422338
  9
$USRTIMER
 70
     1
  9
$ANGBASE
 50
0.0
  9
$ANGDIR
 70
     0
  9
$PDMODE
 70
     3
  9
$PDSIZE
 40
0.0
  9
$PLINEWID
 40
0.0
  9
$COORDS
 70
     2
  9
$SPLFRAME
 70
     0
  9
$SPLINETYPE
 70
     6
  9
$SPLINESEGS
 70
     8
  9
$ATTDIA
 70
     0
  9
$ATTREQ
 70
     1
  9
$HANDLING
 70
     1
  9
$HANDSEED
  5
220B
  9
$SURFTAB1
 70
     6
  9
$SURFTAB2
 70
     6
  9
$SURFTYPE
 70
     6
  9
$SURFU
 70
     6
  9
$SURFV
 70
     6
  9
$UCSNAME
  2

  9
$UCSORG
 10
-200.0
 20
-100.0
 30
0.0
  9
$UCSXDIR
 10
1.0
 20
0.0
 30
0.0
  9
$UCSYDIR
 10
0.0
 20
1.0
 30
0.0
  9
$PUCSNAME
  2

  9
$PUCSORG
 10
0.0
 20
0.0
 30
0.0
  9
$PUCSXDIR
 10
1.0
 20
0.0
 30
0.0
  9
$PUCSYDIR
 10
0.0
 20
1.0
 30
0.0
  9
$USERI1
 70
     0
  9
$USERI2
 70
     0
  9
$USERI3
 70
     0
  9
$USERI4
 70
     0
  9
$USERI5
 70
     0
  9
$USERR1
 40
0.0
  9
$USERR2
 40
0.0
  9
$USERR3
 40
0.0
  9
$USERR4
 40
0.0
  9
$USERR5
 40
0.0
  9
$WORLDVIEW
 70
     1
  9
$SHADEDGE
 70
     3
  9
$SHADEDIF
 70
    70
  9
$TILEMODE
 70
     1
  9
$MAXACTVP
 70
    16
  9
$PINSBASE
 10
0.0
 20
0.0
 30
0.0
  9
$PLIMCHECK
 70
     0
  9
$PEXTMIN
 10
1.000000E+20
 20
1.000000E+20
 30
1.000000E+20
  9
$PEXTMAX
 10
-1.000000E+20
 20
-1.000000E+20
 30
-1.000000E+20
  9
$PLIMMIN
 10
0.0
 20
0.0
  9
$PLIMMAX
 10
420.0
 20
297.0
  9
$UNITMODE
 70
     0
  9
$VISRETAIN
 70
     0
  9
$PLINEGEN
 70
     0
  9
$PSLTSCALE
 70
     0
  9
$TREEDEPTH
 70
  3020
  9
$PICKSTYLE
 70
     1
  9
$CMLSTYLE
  2
STANDARD
  9
$CMLJUST
 70
     1
  9
$CMLSCALE
 40
5.0
  9
$PROXYGRAPHICS
 70
     1
  9
$MEASUREMENT
 70
     1
  0
ENDSEC
  0
SECTION
  2
CLASSES
  0
CLASS
  1
LWPOLYLINE
  2
AcDbPolyline
  3
"AutoCAD"
 90
        0
280
     0
281
     1
  0
CLASS
  1
DICTIONARYVAR
  2
AcDbDictionaryVar
  3
"AutoCAD"
 90
        0
280
     0
281
     0
  0
CLASS
  1
HATCH
  2
AcDbHatch
  3
"ACAD_SEDONA"
 90
        0
280
     0
281
     1
  0
ENDSEC
  0
SECTION
  2
TABLES
  0
TABLE
  2
VPORT
  5
8
100
AcDbSymbolTable
 70
     2
  0
VPORT
  5
220A
100
AcDbSymbolTableRecord
100
AcDbViewportTableRecord
  2
*ACTIVE
 70
     0
 10
0.0
 20
0.0
 11
1.0
 21
1.0
 12
54.489434
 22
-324.716157
 13
0.0
 23
0.0
 14
10.0
 24
10.0
 15
50.0
 25
50.0
 16
0.0
 26
0.0
 36
1.0
 17
0.0
 27
0.0
 37
0.0
 40
863.809227
 41
1.550584
 42
50.0
 43
0.0
 44
0.0
 50
0.0
 51
0.0
 71
     0
 72
   100
 73
     1
 74
     0
 75
     0
 76
     0
 77
     0
 78
     0
  0
ENDTAB
  0
TABLE
  2
LTYPE
  5
5
100
AcDbSymbolTable
 70
     3
  0
LTYPE
  5
14
100
AcDbSymbolTableRecord
100
AcDbLinetypeTableRecord
  2
BYBLOCK
 70
     0
  3

 72
    65
 73
     0
 40
0.0
  0
LTYPE
  5
15
100
AcDbSymbolTableRecord
100
AcDbLinetypeTableRecord
  2
BYLAYER
 70
     0
  3

 72
    65
 73
     0
 40
0.0
  0
LTYPE
  5
16
100
AcDbSymbolTableRecord
100
AcDbLinetypeTableRecord
  2
CONTINUOUS
 70
     0
  3
Solid line
 72
    65
 73
     0
 40
0.0
  0
LTYPE
  5
1D7
100
AcDbSymbolTableRecord
100
AcDbLinetypeTableRecord
  2
DASHED
 70
     0
  3
__ __ __ __ __ __ __ __ __ __ __ __ __ __ __ __
 72
    65
 73
     2
 40
0.75
 49
0.5
 74
     0
 49
-0.25
 74
     0
  0
LTYPE
  5
492
100
AcDbSymbolTableRecord
100
AcDbLinetypeTableRecord
  2
DASHDOT
 70
     0
  3
__ . __ . __ . __ . __ . __ . __ . __ . __ . __
 72
    65
 73
     4
 40
1.0
 49
0.5
 74
     0
 49
-0.25
 74
     0
 49
0.0
 74
     0
 49
-0.25
 74
     0
  0
ENDTAB
  0
TABLE
  2
LAYER
  5
2
100
AcDbSymbolTable
 70
     6
  0
LAYER
  5
F
100
AcDbSymbolTableRecord
100
AcDbLayerTableRecord
  2
0
 70
     0
 62
     7
  6
CONTINUOUS
  0
LAYER
  5
1A22
100
AcDbSymbolTableRecord
100
AcDbLayerTableRecord
  2
DEFPOINTS
 70
     0
 62
     7
  6
CONTINUOUS
  0
LAYER
  5
218A
100
AcDbSymbolTableRecord
100
AcDbLayerTableRecord
  2
V0-OBRYS
 70
     0
 62
    90
  6
CONTINUOUS
  0
LAYER
  5
218B
100
AcDbSymbolTableRecord
100
AcDbLayerTableRecord
  2
V0-VYPLNE
 70
     0
 62
    52
  6
CONTINUOUS
  0
LAYER
  5
218C
100
AcDbSymbolTableRecord
100
AcDbLayerTableRecord
  2
V0-NAZVY
 70
     0
 62
   210
  6
CONTINUOUS
  0
LAYER
  5
218D
100
AcDbSymbolTableRecord
100
AcDbLayerTableRecord
  2
V0-ZBYTEK
 70
     0
 62
    51
  6
CONTINUOUS
  0
ENDTAB
  0
TABLE
  2
STYLE
  5
3
100
AcDbSymbolTable
 70
     6
  0
STYLE
  5
10
100
AcDbSymbolTableRecord
100
AcDbTextStyleTableRecord
  2
STANDARD
 70
     0
 40
0.0
 41
1.0
 50
0.0
 71
     0
 42
15.0
  3
ISOCP
  4

  0
STYLE
  5
218E
100
AcDbSymbolTableRecord
100
AcDbTextStyleTableRecord
  2
ED
 70
     0
 40
20.0
 41
1.0
 50
0.0
 71
     0
 42
2.5
  3
ISOCP.shx
  4

  0
STYLE
  5
218F
100
AcDbSymbolTableRecord
100
AcDbTextStyleTableRecord
  2
EDVENT
 70
     0
 40
10.0
 41
1.0
 50
0.0
 71
     0
 42
2.5
  3
ISOCP.shx
  4

  0
STYLE
  5
2190
100
AcDbSymbolTableRecord
100
AcDbTextStyleTableRecord
  2
E
 70
     0
 40
25.0
 41
1.0
 50
0.0
 71
     0
 42
2.5
  3
ISOCP.shx
  4

  0
STYLE
  5
2191
100
AcDbSymbolTableRecord
100
AcDbTextStyleTableRecord
  2
ED-VENT
 70
     0
 40
25.0
 41
1.0
 50
0.0
 71
     0
 42
2.5
  3
ISOCP.shx
  4

  0
STYLE
  5
2192
100
AcDbSymbolTableRecord
100
AcDbTextStyleTableRecord
  2
ED2
 70
     0
 40
25.0
 41
1.0
 50
0.0
 71
     0
 42
2.5
  3
ISOCP.shx
  4

  0
ENDTAB
  0
TABLE
  2
VIEW
  5
6
100
AcDbSymbolTable
 70
     0
  0
ENDTAB
  0
TABLE
  2
UCS
  5
7
100
AcDbSymbolTable
 70
     0
  0
ENDTAB
  0
TABLE
  2
APPID
  5
9
100
AcDbSymbolTable
 70
     4
  0
APPID
  5
11
100
AcDbSymbolTableRecord
100
AcDbRegAppTableRecord
  2
ACAD
 70
     0
  0
APPID
  5
906
100
AcDbSymbolTableRecord
100
AcDbRegAppTableRecord
  2
CONTENTTABDATA
 70
     0
  0
APPID
  5
907
100
AcDbSymbolTableRecord
100
AcDbRegAppTableRecord
  2
CONTENTCURRENTTAB
 70
     0
  0
APPID
  5
908
100
AcDbSymbolTableRecord
100
AcDbRegAppTableRecord
  2
CONTENTBLOCKDESCRIPTION
 70
     0
  0
ENDTAB
  0
TABLE
  2
DIMSTYLE
  5
A
100
AcDbSymbolTable
 70
     3
  0
DIMSTYLE
105
1D
102
{ACAD_REACTORS
330
20BC
330
20D6
330
20E3
330
20C9
102
}
100
AcDbSymbolTableRecord
100
AcDbDimStyleTableRecord
  2
STANDARD
 70
     0
  3

  4

  5

  6
_OPEN
  7
_OPEN
 40
5.0
 41
3.5
 42
0.0625
 43
0.38
 44
0.18
 45
0.0
 46
0.0
 47
0.0
 48
0.0
140
3.5
141
0.0
142
0.0
143
25.4
144
1.0
145
0.0
146
1.0
147
0.625
 71
     0
 72
     0
 73
     0
 74
     0
 75
     0
 76
     0
 77
     1
 78
     0
170
     0
171
     2
172
     0
173
     1
174
     0
175
     0
176
     0
177
     0
178
     0
270
     2
271
     0
272
     4
273
     2
274
     2
340
10
275
     0
280
     0
281
     0
282
     0
283
     1
284
     0
285
     0
286
     0
287
     0
288
     0
  0
DIMSTYLE
105
2193
100
AcDbSymbolTableRecord
100
AcDbDimStyleTableRecord
  2
ED
 70
     0
  3

  4

  5

  6
_OPEN
  7
_OPEN
 40
0.0
 41
15.0
 42
0.625
 43
3.75
 44
1.25
 45
0.0
 46
0.0
 47
0.0
 48
0.0
140
15.0
141
2.5
142
0.0
143
0.0394
144
1.0
145
0.0
146
1.0
147
3.0
 71
     0
 72
     0
 73
     0
 74
     0
 75
     0
 76
     0
 77
     1
 78
     8
170
     0
171
     4
172
     1
173
     1
174
     0
175
     0
176
     0
177
     0
178
     0
270
     2
271
     0
272
     1
273
     8
274
     4
340
218E
275
     0
280
     0
281
     0
282
     0
283
     1
284
     8
285
     0
286
     0
287
     3
288
     0
  0
DIMSTYLE
105
2194
100
AcDbSymbolTableRecord
100
AcDbDimStyleTableRecord
  2
ED2
 70
     0
  3

  4

  5

  6
_OPEN
  7
_OPEN
 40
0.0
 41
25.0
 42
0.625
 43
3.75
 44
1.25
 45
0.0
 46
0.0
 47
0.0
 48
0.0
140
30.0
141
2.5
142
0.0
143
0.0394
144
1.0
145
0.0
146
1.0
147
5.0
 71
     0
 72
     0
 73
     0
 74
     0
 75
     0
 76
     0
 77
     1
 78
     8
170
     0
171
     4
172
     1
173
     1
174
     0
175
     0
176
     0
177
     0
178
     0
270
     2
271
     0
272
     1
273
     8
274
     4
340
218E
275
     0
280
     0
281
     0
282
     0
283
     1
284
     8
285
     0
286
     0
287
     3
288
     0
  0
ENDTAB
  0
TABLE
  2
BLOCK_RECORD
  5
1
100
AcDbSymbolTable
 70
     9
  0
BLOCK_RECORD
  5
1A
100
AcDbSymbolTableRecord
100
AcDbBlockTableRecord
  2
*MODEL_SPACE
  0
BLOCK_RECORD
  5
17
100
AcDbSymbolTableRecord
100
AcDbBlockTableRecord
  2
*PAPER_SPACE
  0
BLOCK_RECORD
  5
1A05
100
AcDbSymbolTableRecord
100
AcDbBlockTableRecord
  2
_OPEN
  0
BLOCK_RECORD
  5
21B0
100
AcDbSymbolTableRecord
100
AcDbBlockTableRecord
  2
*D5
  0
BLOCK_RECORD
  5
21BC
100
AcDbSymbolTableRecord
100
AcDbBlockTableRecord
  2
*D6
  0
BLOCK_RECORD
  5
21C8
100
AcDbSymbolTableRecord
100
AcDbBlockTableRecord
  2
*D7
  0
BLOCK_RECORD
  5
21D4
100
AcDbSymbolTableRecord
100
AcDbBlockTableRecord
  2
*D8
  0
ENDTAB
  0
ENDSEC
  0
SECTION
  2
BLOCKS
  0
BLOCK
  5
1B
100
AcDbEntity
  8
0
100
AcDbBlockBegin
  2
*MODEL_SPACE
 70
     0
 10
0.0
 20
0.0
 30
0.0
  3
*MODEL_SPACE
  1

  0
ENDBLK
  5
1C
100
AcDbEntity
  8
0
100
AcDbBlockEnd
  0
BLOCK
  5
18
100
AcDbEntity
 67
     1
  8
0
100
AcDbBlockBegin
  2
*PAPER_SPACE
 70
     0
 10
0.0
 20
0.0
 30
0.0
  3
*PAPER_SPACE
  1

  0
ENDBLK
  5
19
100
AcDbEntity
 67
     1
  8
0
100
AcDbBlockEnd
  0
BLOCK
  5
1A09
100
AcDbEntity
  8
0
100
AcDbBlockBegin
  2
_OPEN
 70
     0
 10
0.0
 20
0.0
 30
0.0
  3
_OPEN
  1

  0
LINE
  5
1A06
100
AcDbEntity
  8
0
  6
BYBLOCK
 62
     0
100
AcDbLine
 10
-1.0
 20
0.166667
 30
0.0
 11
0.0
 21
0.0
 31
0.0
  0
LINE
  5
1A07
100
AcDbEntity
  8
0
  6
BYBLOCK
 62
     0
100
AcDbLine
 10
0.0
 20
0.0
 30
0.0
 11
-1.0
 21
-0.166667
 31
0.0
  0
LINE
  5
1A08
100
AcDbEntity
  8
0
  6
BYBLOCK
 62
     0
100
AcDbLine
 10
0.0
 20
0.0
 30
0.0
 11
-1.0
 21
0.0
 31
0.0
  0
ENDBLK
  5
1A0A
100
AcDbEntity
  8
0
100
AcDbBlockEnd
  0
BLOCK
  5
21B1
100
AcDbEntity
  8
0
 48
5.0
100
AcDbBlockBegin
  2
*D5
 70
     1
 10
0.0
 20
0.0
 30
0.0
  3
*D5
  1

  0
LINE
  5
21B2
100
AcDbEntity
  8
0
  6
BYBLOCK
 62
     0
 48
5.0
100
AcDbLine
 10
-200.0
 20
-257.5625
 30
0.0
 11
-200.0
 21
-300.902071
 31
0.0
  0
LINE
  5
21B3
100
AcDbEntity
  8
0
  6
BYBLOCK
 62
     0
 48
5.0
100
AcDbLine
 10
-137.0
 20
-257.5625
 30
0.0
 11
-137.0
 21
-300.902071
 31
0.0
  0
LINE
  5
21B4
100
AcDbEntity
  8
0
  6
BYBLOCK
 62
     0
 48
5.0
100
AcDbLine
 10
-175.0
 20
-300.722071
 30
0.0
 11
-162.0
 21
-300.722071
 31
0.0
  0
INSERT
  5
21B5
100
AcDbEntity
  8
0
  6
BYBLOCK
 62
     0
 48
5.0
100
AcDbBlockReference
  2
_OPEN
 10
-200.0
 20
-300.722071
 30
0.0
 41
25.0
 42
25.0
 43
25.0
 50
180.0
  0
INSERT
  5
21B6
100
AcDbEntity
  8
0
  6
BYBLOCK
 62
     0
 48
5.0
100
AcDbBlockReference
  2
_OPEN
 10
-137.0
 20
-300.722071
 30
0.0
 41
25.0
 42
25.0
 43
25.0
  0
MTEXT
  5
21B7
100
AcDbEntity
  8
0
  6
BYBLOCK
 62
     0
 48
5.0
100
AcDbMText
 10
-168.5
 20
-287.597071
 30
0.0
 40
25.0
 41
0.0
 71
     5
 72
     1
  1
\A1;63
  0
POINT
  5
21B8
100
AcDbEntity
  8
DEFPOINTS
  6
BYBLOCK
 62
     0
 48
5.0
100
AcDbPoint
 10
-200.0
 20
-257.5
 30
0.0
  0
POINT
  5
21B9
100
AcDbEntity
  8
DEFPOINTS
  6
BYBLOCK
 62
     0
 48
5.0
100
AcDbPoint
 10
-137.0
 20
-257.5
 30
0.0
  0
POINT
  5
21BA
100
AcDbEntity
  8
DEFPOINTS
  6
BYBLOCK
 62
     0
 48
5.0
100
AcDbPoint
 10
-137.0
 20
-300.722071
 30
0.0
  0
ENDBLK
  5
21BB
100
AcDbEntity
  8
0
 48
5.0
100
AcDbBlockEnd
  0
BLOCK
  5
21BD
100
AcDbEntity
  8
0
 48
5.0
100
AcDbBlockBegin
  2
*D6
 70
     1
 10
0.0
 20
0.0
 30
0.0
  3
*D6
  1

  0
LINE
  5
21BE
100
AcDbEntity
  8
0
  6
BYBLOCK
 62
     0
 48
5.0
100
AcDbLine
 10
-200.0
 20
-257.5625
 30
0.0
 11
-200.0
 21
-349.457929
 31
0.0
  0
LINE
  5
21BF
100
AcDbEntity
  8
0
  6
BYBLOCK
 62
     0
 48
5.0
100
AcDbLine
 10
-60.0
 20
-257.875
 30
0.0
 11
-60.0
 21
-349.457929
 31
0.0
  0
LINE
  5
21C0
100
AcDbEntity
  8
0
  6
BYBLOCK
 62
     0
 48
5.0
100
AcDbLine
 10
-175.0
 20
-349.277929
 30
0.0
 11
-85.0
 21
-349.277929
 31
0.0
  0
INSERT
  5
21C1
100
AcDbEntity
  8
0
  6
BYBLOCK
 62
     0
 48
5.0
100
AcDbBlockReference
  2
_OPEN
 10
-200.0
 20
-349.277929
 30
0.0
 41
25.0
 42
25.0
 43
25.0
 50
180.0
  0
INSERT
  5
21C2
100
AcDbEntity
  8
0
  6
BYBLOCK
 62
     0
 48
5.0
100
AcDbBlockReference
  2
_OPEN
 10
-60.0
 20
-349.277929
 30
0.0
 41
25.0
 42
25.0
 43
25.0
  0
MTEXT
  5
21C3
100
AcDbEntity
  8
0
  6
BYBLOCK
 62
     0
 48
5.0
100
AcDbMText
 10
-130.0
 20
-336.152929
 30
0.0
 40
25.0
 41
0.0
 71
     5
 72
     1
  1
\A1;140
  0
POINT
  5
21C4
100
AcDbEntity
  8
DEFPOINTS
  6
BYBLOCK
 62
     0
 48
5.0
100
AcDbPoint
 10
-200.0
 20
-257.5
 30
0.0
  0
POINT
  5
21C5
100
AcDbEntity
  8
DEFPOINTS
  6
BYBLOCK
 62
     0
 48
5.0
100
AcDbPoint
 10
-60.0
 20
-257.8125
 30
0.0
  0
POINT
  5
21C6
100
AcDbEntity
  8
DEFPOINTS
  6
BYBLOCK
 62
     0
 48
5.0
100
AcDbPoint
 10
-60.0
 20
-349.277929
 30
0.0
  0
ENDBLK
  5
21C7
100
AcDbEntity
  8
0
 48
5.0
100
AcDbBlockEnd
  0
BLOCK
  5
21C9
100
AcDbEntity
  8
0
 48
5.0
100
AcDbBlockBegin
  2
*D7
 70
     1
 10
0.0
 20
0.0
 30
0.0
  3
*D7
  1

  0
LINE
  5
21CA
100
AcDbEntity
  8
0
  6
BYBLOCK
 62
     0
 48
5.0
100
AcDbLine
 10
-200.0625
 20
57.5
 30
0.0
 11
-236.178675
 21
57.5
 31
0.0
  0
LINE
  5
21CB
100
AcDbEntity
  8
0
  6
BYBLOCK
 62
     0
 48
5.0
100
AcDbLine
 10
-200.0625
 20
-257.5
 30
0.0
 11
-236.178675
 21
-257.5
 31
0.0
  0
LINE
  5
21CC
100
AcDbEntity
  8
0
  6
BYBLOCK
 62
     0
 48
5.0
100
AcDbLine
 10
-235.998675
 20
32.5
 30
0.0
 11
-235.998675
 21
-232.5
 31
0.0
  0
INSERT
  5
21CD
100
AcDbEntity
  8
0
  6
BYBLOCK
 62
     0
 48
5.0
100
AcDbBlockReference
  2
_OPEN
 10
-235.998675
 20
57.5
 30
0.0
 41
25.0
 42
25.0
 43
25.0
 50
90.0
  0
INSERT
  5
21CE
100
AcDbEntity
  8
0
  6
BYBLOCK
 62
     0
 48
5.0
100
AcDbBlockReference
  2
_OPEN
 10
-235.998675
 20
-257.5
 30
0.0
 41
25.0
 42
25.0
 43
25.0
 50
270.0
  0
MTEXT
  5
21CF
100
AcDbEntity
  8
0
  6
BYBLOCK
 62
     0
 48
5.0
100
AcDbMText
 10
-249.123675
 20
-100.0
 30
0.0
 40
25.0
 41
0.0
 71
     5
 72
     1
  1
\A1;\U+2205315
 11
0.0
 21
1.0
 31
0.0
  0
POINT
  5
21D0
100
AcDbEntity
  8
DEFPOINTS
  6
BYBLOCK
 62
     0
 48
5.0
100
AcDbPoint
 10
-200.0
 20
57.5
 30
0.0
  0
POINT
  5
21D1
100
AcDbEntity
  8
DEFPOINTS
  6
BYBLOCK
 62
     0
 48
5.0
100
AcDbPoint
 10
-200.0
 20
-257.5
 30
0.0
  0
POINT
  5
21D2
100
AcDbEntity
  8
DEFPOINTS
  6
BYBLOCK
 62
     0
 48
5.0
100
AcDbPoint
 10
-235.998675
 20
-257.5
 30
0.0
  0
ENDBLK
  5
21D3
100
AcDbEntity
  8
0
 48
5.0
100
AcDbBlockEnd
  0
BLOCK
  5
21D5
100
AcDbEntity
  8
0
 48
5.0
100
AcDbBlockBegin
  2
*D8
 70
     1
 10
0.0
 20
0.0
 30
0.0
  3
*D8
  1

  0
LINE
  5
21D6
100
AcDbEntity
  8
0
  6
BYBLOCK
 62
     0
 48
5.0
100
AcDbLine
 10
-125.0
 20
-253.024752
 30
0.0
 11
-125.0
 21
-300.902071
 31
0.0
  0
LINE
  5
21D7
100
AcDbEntity
  8
0
  6
BYBLOCK
 62
     0
 48
5.0
100
AcDbLine
 10
-60.0
 20
-257.5625
 30
0.0
 11
-60.0
 21
-300.902071
 31
0.0
  0
LINE
  5
21D8
100
AcDbEntity
  8
0
  6
BYBLOCK
 62
     0
 48
5.0
100
AcDbLine
 10
-100.0
 20
-300.722071
 30
0.0
 11
-85.0
 21
-300.722071
 31
0.0
  0
INSERT
  5
21D9
100
AcDbEntity
  8
0
  6
BYBLOCK
 62
     0
 48
5.0
100
AcDbBlockReference
  2
_OPEN
 10
-125.0
 20
-300.722071
 30
0.0
 41
25.0
 42
25.0
 43
25.0
 50
180.0
  0
INSERT
  5
21DA
100
AcDbEntity
  8
0
  6
BYBLOCK
 62
     0
 48
5.0
100
AcDbBlockReference
  2
_OPEN
 10
-60.0
 20
-300.722071
 30
0.0
 41
25.0
 42
25.0
 43
25.0
  0
MTEXT
  5
21DB
100
AcDbEntity
  8
0
  6
BYBLOCK
 62
     0
 48
5.0
100
AcDbMText
 10
-92.5
 20
-287.597071
 30
0.0
 40
25.0
 41
0.0
 71
     5
 72
     1
  1
\A1;65
  0
POINT
  5
21DC
100
AcDbEntity
  8
DEFPOINTS
  6
BYBLOCK
 62
     0
 48
5.0
100
AcDbPoint
 10
-125.0
 20
-252.962252
 30
0.0
  0
POINT
  5
21DD
100
AcDbEntity
  8
DEFPOINTS
  6
BYBLOCK
 62
     0
 48
5.0
100
AcDbPoint
 10
-60.0
 20
-257.5
 30
0.0
  0
POINT
  5
21DE
100
AcDbEntity
  8
DEFPOINTS
  6
BYBLOCK
 62
     0
 48
5.0
100
AcDbPoint
 10
-60.0
 20
-300.722071
 30
0.0
  0
ENDBLK
  5
21DF
100
AcDbEntity
  8
0
 48
5.0
100
AcDbBlockEnd
  0
ENDSEC
  0
SECTION
  2
ENTITIES
  0
TEXT
  5
1D80
100
AcDbEntity
  8
V0-ZBYTEK
  6
CONTINUOUS
 62
    51
100
AcDbText
 10
98.184443
 20
-580.026957
 30
0.0
 40
14.4
  1
PRO KRUHOVE POTRUBI
 72
     1
 11
198.300443
 21
-580.026957
 31
0.0
100
AcDbText
  0
TEXT
  5
1D81
100
AcDbEntity
  8
V0-NAZVY
  6
CONTINUOUS
 62
   210
100
AcDbText
 10
126.604074
 20
-495.595564
 30
0.0
 40
28.8
  1
RSK-315
 72
     1
 11
199.272541
 21
-495.595564
 31
0.0
100
AcDbText
  0
TEXT
  5
1D82
100
AcDbEntity
  8
V0-ZBYTEK
  6
CONTINUOUS
 62
   130
100
AcDbText
 10
90.084541
 20
-537.191514
 30
0.0
 40
21.6
  1
ZPETNA KLAPKA
 72
     1
 11
199.272541
 21
-537.191514
 31
0.0
100
AcDbText
  0
LINE
  5
2083
100
AcDbEntity
  8
V0-VYPLNE
  6
DASHDOT
 62
    63
 48
3.0
100
AcDbLine
 10
-210.975813
 20
-100.0
 30
0.0
 11
-47.491238
 21
-100.0
 31
0.0
  0
LINE
  5
2084
100
AcDbEntity
  8
V0-VYPLNE
  6
DASHDOT
 62
    63
 48
3.0
100
AcDbLine
 10
200.0
 20
64.761341
 30
0.0
 11
200.0
 21
-270.0
 31
0.0
  0
LINE
  5
2086
100
AcDbEntity
  8
V0-OBRYS
  6
CONTINUOUS
 62
    90
100
AcDbLine
 10
-200.0
 20
-100.0
 30
0.0
 11
-200.0
 21
57.5
 31
0.0
  0
LINE
  5
2087
100
AcDbEntity
  8
V0-OBRYS
  6
CONTINUOUS
 62
    90
100
AcDbLine
 10
-200.0
 20
57.5
 30
0.0
 11
-137.0
 21
57.5
 31
0.0
  0
LINE
  5
2088
100
AcDbEntity
  8
V0-OBRYS
  6
CONTINUOUS
 62
    90
100
AcDbLine
 10
-60.0
 20
57.5
 30
0.0
 11
-60.0
 21
-100.0
 31
0.0
  0
LINE
  5
2089
100
AcDbEntity
  8
V0-OBRYS
  6
CONTINUOUS
 62
    90
100
AcDbLine
 10
-137.0
 20
-100.0
 30
0.0
 11
-137.0
 21
57.5
 31
0.0
  0
LINE
  5
208A
100
AcDbEntity
  8
V0-OBRYS
  6
CONTINUOUS
 62
    90
100
AcDbLine
 10
-125.0
 20
-100.0
 30
0.0
 11
-125.0
 21
57.5
 31
0.0
  0
CIRCLE
  5
208B
100
AcDbEntity
  8
V0-OBRYS
  6
CONTINUOUS
 62
    90
100
AcDbCircle
 10
200.0
 20
-100.0
 30
0.0
 40
157.5
  0
CIRCLE
  5
208C
100
AcDbEntity
  8
V0-OBRYS
  6
CONTINUOUS
 62
    90
100
AcDbCircle
 10
200.0
 20
-100.0
 30
0.0
 40
152.5
  0
MLINE
  5
208D
100
AcDbEntity
  8
V0-OBRYS
  6
CONTINUOUS
 62
    90
100
AcDbMline
  2
STANDARD
340
13
 40
5.0
 70
     1
 71
     1
 72
     2
 73
     2
 10
200.0
 20
52.5
 30
0.0
210
0.0
220
0.0
230
1.0
 11
200.0
 21
52.5
 31
0.0
 12
0.0
 22
-1.0
 32
0.0
 13
1.0
 23
0.0
 33
0.0
 74
     2
 41
2.5
 41
0.0
 75
     0
 74
     2
 41
-2.5
 41
0.0
 75
     0
 11
200.0
 21
-252.4999999999999
 31
0.0
 12
0.0
 22
-1.0
 32
0.0
 13
1.0
 23
0.0
 33
0.0
 74
     2
 41
2.5
 41
0.0
 75
     0
 74
     2
 41
-2.5
 41
0.0
 75
     0
  0
ELLIPSE
  5
208E
100
AcDbEntity
  8
V0-OBRYS
  6
CONTINUOUS
 62
    90
100
AcDbEllipse
 10
200.0
 20
-100.0
 30
0.0
 11
0.0
 21
152.5
 31
0.0
210
0.0
220
0.0
230
1.0
 40
0.721311
 41
0.0
 42
6.283185307179586
  0
ARC
  5
208F
100
AcDbEntity
  8
V0-OBRYS
  6
CONTINUOUS
 62
    90
100
AcDbCircle
 10
-131.0
 20
59.630643
 30
0.0
 40
6.367075
100
AcDbArc
 50
199.550311
 51
340.449689
  0
LINE
  5
2090
100
AcDbEntity
  8
V0-OBRYS
  6
CONTINUOUS
 62
    90
100
AcDbLine
 10
-125.0
 20
57.5
 30
0.0
 11
-60.0
 21
57.5
 31
0.0
  0
LINE
  5
2091
100
AcDbEntity
  8
V0-OBRYS
  6
CONTINUOUS
 62
    90
100
AcDbLine
 10
-125.0
 20
-257.5
 30
0.0
 11
-60.0
 21
-257.5
 31
0.0
  0
LINE
  5
2092
100
AcDbEntity
  8
V0-OBRYS
  6
CONTINUOUS
 62
    90
100
AcDbLine
 10
-125.0
 20
-100.0
 30
0.0
 11
-125.0
 21
-257.5
 31
0.0
  0
LINE
  5
2093
100
AcDbEntity
  8
V0-OBRYS
  6
CONTINUOUS
 62
    90
100
AcDbLine
 10
-137.0
 20
-100.0
 30
0.0
 11
-137.0
 21
-257.5
 31
0.0
  0
LINE
  5
2094
100
AcDbEntity
  8
V0-OBRYS
  6
CONTINUOUS
 62
    90
100
AcDbLine
 10
-200.0
 20
-100.0
 30
0.0
 11
-200.0
 21
-257.5
 31
0.0
  0
LINE
  5
2095
100
AcDbEntity
  8
V0-OBRYS
  6
CONTINUOUS
 62
    90
100
AcDbLine
 10
-200.0
 20
-257.5
 30
0.0
 11
-137.0
 21
-257.5
 31
0.0
  0
ARC
  5
2096
100
AcDbEntity
  8
V0-OBRYS
  6
CONTINUOUS
 62
    90
100
AcDbCircle
 10
-131.0
 20
-259.630643
 30
0.0
 40
6.367075
100
AcDbArc
 50
19.550311
 51
160.449689
  0
LINE
  5
2097
100
AcDbEntity
  8
V0-OBRYS
  6
CONTINUOUS
 62
    90
100
AcDbLine
 10
-60.0
 20
-257.5
 30
0.0
 11
-60.0
 21
-100.0
 31
0.0
  0
LINE
  5
2098
100
AcDbEntity
  8
V0-VYPLNE
  6
DASHDOT
 62
    63
 48
3.0
100
AcDbLine
 10
32.911011
 20
-100.0
 30
0.0
 11
369.260425
 21
-100.0
 31
0.0
  0
LINE
  5
2099
100
AcDbEntity
  8
V0-VYPLNE
  6
DASHDOT
 62
    63
 48
3.0
100
AcDbLine
 10
-210.975813
 20
-550.0
 30
0.0
 11
-47.491238
 21
-550.0
 31
0.0
  0
LINE
  5
209A
100
AcDbEntity
  8
V0-OBRYS
  6
CONTINUOUS
 62
    90
100
AcDbLine
 10
-125.0
 20
-707.5
 30
0.0
 11
-60.0
 21
-707.5
 31
0.0
  0
LINE
  5
209B
100
AcDbEntity
  8
V0-OBRYS
  6
CONTINUOUS
 62
    90
100
AcDbLine
 10
-125.0
 20
-392.5
 30
0.0
 11
-60.0
 21
-392.5
 31
0.0
  0
LINE
  5
209C
100
AcDbEntity
  8
V0-OBRYS
  6
CONTINUOUS
 62
    90
100
AcDbLine
 10
-125.0
 20
-550.0
 30
0.0
 11
-125.0
 21
-392.5
 31
0.0
  0
LINE
  5
209D
100
AcDbEntity
  8
V0-OBRYS
  6
CONTINUOUS
 62
    90
100
AcDbLine
 10
-137.0
 20
-550.0
 30
0.0
 11
-137.0
 21
-392.5
 31
0.0
  0
LINE
  5
209E
100
AcDbEntity
  8
V0-OBRYS
  6
CONTINUOUS
 62
    90
100
AcDbLine
 10
-200.0
 20
-550.0
 30
0.0
 11
-200.0
 21
-392.5
 31
0.0
  0
LINE
  5
209F
100
AcDbEntity
  8
V0-OBRYS
  6
CONTINUOUS
 62
    90
100
AcDbLine
 10
-200.0
 20
-550.0
 30
0.0
 11
-200.0
 21
-707.5
 31
0.0
  0
LINE
  5
20A0
100
AcDbEntity
  8
V0-OBRYS
  6
CONTINUOUS
 62
    90
100
AcDbLine
 10
-137.0
 20
-550.0
 30
0.0
 11
-137.0
 21
-707.5
 31
0.0
  0
LINE
  5
20A1
100
AcDbEntity
  8
V0-OBRYS
  6
CONTINUOUS
 62
    90
100
AcDbLine
 10
-125.0
 20
-550.0
 30
0.0
 11
-125.0
 21
-707.5
 31
0.0
  0
LINE
  5
20A2
100
AcDbEntity
  8
V0-OBRYS
  6
CONTINUOUS
 62
    90
100
AcDbLine
 10
-200.0
 20
-707.5
 30
0.0
 11
-137.0
 21
-707.5
 31
0.0
  0
ARC
  5
20A3
100
AcDbEntity
  8
V0-OBRYS
  6
CONTINUOUS
 62
    90
100
AcDbCircle
 10
-131.0
 20
-709.630643
 30
0.0
 40
6.367075
100
AcDbArc
 50
19.550311
 51
160.449689
  0
LINE
  5
20A4
100
AcDbEntity
  8
V0-OBRYS
  6
CONTINUOUS
 62
    90
100
AcDbLine
 10
-200.0
 20
-392.5
 30
0.0
 11
-137.0
 21
-392.5
 31
0.0
  0
ARC
  5
20A5
100
AcDbEntity
  8
V0-OBRYS
  6
CONTINUOUS
 62
    90
100
AcDbCircle
 10
-131.0
 20
-390.369357
 30
0.0
 40
6.367075
100
AcDbArc
 50
199.550311
 51
340.449689
  0
LINE
  5
20A6
100
AcDbEntity
  8
V0-OBRYS
  6
CONTINUOUS
 62
    90
100
AcDbLine
 10
-60.0
 20
-392.5
 30
0.0
 11
-60.0
 21
-550.0
 31
0.0
  0
LINE
  5
20A7
100
AcDbEntity
  8
V0-OBRYS
  6
CONTINUOUS
 62
    90
100
AcDbLine
 10
-60.0
 20
-707.5
 30
0.0
 11
-60.0
 21
-550.0
 31
0.0
  0
LINE
  5
20A8
100
AcDbEntity
  8
V0-OBRYS
  6
CONTINUOUS
 62
    90
100
AcDbLine
 10
-137.0
 20
-100.0
 30
0.0
 11
-125.0
 21
-100.0
 31
0.0
  0
LINE
  5
20A9
100
AcDbEntity
  8
V0-VYPLNE
  6
DASHDOT
 62
    63
 48
3.0
100
AcDbLine
 10
-129.233525
 20
-253.513519
 30
0.0
 11
-129.233525
 21
70.0
 31
0.0
  0
ELLIPSE
  5
20AB
100
AcDbEntity
  8
V0-VYPLNE
  6
DASHED
 62
    56
 48
3.0
100
AcDbEllipse
 10
-129.233525
 20
-100.0
 30
0.0
 11
0.0
 21
153.5135186288313
 31
0.0
210
0.0
220
0.0
230
1.0
 40
0.325704
 41
3.035298013150146
 42
6.388383095567352
  0
LINE
  5
20AC
100
AcDbEntity
  8
V0-VYPLNE
  6
DASHED
 62
    56
 48
3.0
100
AcDbLine
 10
-129.942744
 20
-545.708447
 30
0.0
 11
-76.914778
 21
-408.86921
 31
0.0
  0
LINE
  5
20AD
100
AcDbEntity
  8
V0-VYPLNE
  6
DASHED
 62
    56
 48
3.0
100
AcDbLine
 10
-129.942744
 20
-554.291553
 30
0.0
 11
-76.914778
 21
-691.13079
 31
0.0
  0
LINE
  5
20AE
100
AcDbEntity
  8
V0-VYPLNE
  6
DASHDOT
 62
    63
 48
3.0
100
AcDbLine
 10
-130.533938
 20
-703.513519
 30
0.0
 11
-130.533938
 21
-380.0
 31
0.0
  0
CIRCLE
  5
20AF
100
AcDbEntity
  8
V0-OBRYS
  6
CONTINUOUS
 62
    90
100
AcDbCircle
 10
-130.580907
 20
-550.059472
 30
0.0
 40
5.851861
  0
DIMENSION
  5
20BC
100
AcDbEntity
  8
V0-VYPLNE
  6
CONTINUOUS
 62
    41
 48
5.0
100
AcDbDimension
  2
*D5
 10
-137.0
 20
-300.722071
 30
0.0
 11
-168.5
 21
-300.722071
 31
0.0
 70
   160
  3
STANDARD
100
AcDbAlignedDimension
 13
-200.0
 23
-257.5
 33
0.0
 14
-137.0
 24
-257.5
 34
0.0
100
AcDbRotatedDimension
1001
ACAD
1000
DSTYLE
1002
{
1070
   140
1040
25.0
1070
    40
1040
1.0
1070
    41
1040
25.0
1002
}
  0
DIMENSION
  5
20C9
100
AcDbEntity
  8
V0-VYPLNE
  6
CONTINUOUS
 62
    41
 48
5.0
100
AcDbDimension
  2
*D8
 10
-60.0
 20
-300.722071
 30
0.0
 11
-92.5
 21
-300.722071
 31
0.0
 70
   160
  3
STANDARD
100
AcDbAlignedDimension
 13
-125.0
 23
-252.962252
 33
0.0
 14
-60.0
 24
-257.5
 34
0.0
100
AcDbRotatedDimension
1001
ACAD
1000
DSTYLE
1002
{
1070
   140
1040
25.0
1070
    40
1040
1.0
1070
    41
1040
25.0
1002
}
  0
DIMENSION
  5
20D6
100
AcDbEntity
  8
V0-VYPLNE
  6
CONTINUOUS
 62
    41
 48
5.0
100
AcDbDimension
  2
*D6
 10
-60.0
 20
-349.277929
 30
0.0
 11
-130.0
 21
-349.277929
 31
0.0
 70
   160
  3
STANDARD
100
AcDbAlignedDimension
 13
-200.0
 23
-257.5
 33
0.0
 14
-60.0
 24
-257.8125
 34
0.0
100
AcDbRotatedDimension
1001
ACAD
1000
DSTYLE
1002
{
1070
   140
1040
25.0
1070
    40
1040
1.0
1070
    41
1040
25.0
1002
}
  0
DIMENSION
  5
20E3
100
AcDbEntity
  8
V0-VYPLNE
  6
CONTINUOUS
 62
    41
 48
5.0
100
AcDbDimension
  2
*D7
 10
-235.998675
 20
-257.5
 30
0.0
 11
-249.123675
 21
-100.0
 31
0.0
 70
    32
  1
%%c<>
  3
STANDARD
100
AcDbAlignedDimension
 13
-200.0
 23
57.5
 33
0.0
 14
-200.0
 24
-257.5
 34
0.0
 50
90.0
100
AcDbRotatedDimension
1001
ACAD
1000
DSTYLE
1002
{
1070
   140
1040
25.0
1070
    40
1040
1.0
1070
    41
1040
25.0
1002
}
  0
TEXT
  5
2110
100
AcDbEntity
  8
V0-NAZVY
  6
CONTINUOUS
 62
   210
100
AcDbText
 10
124.831532
 20
68.432309
 30
0.0
 40
28.8
  1
RSK-315
 72
     1
 11
197.5
 21
68.432309
 31
0.0
100
AcDbText
  0
TEXT
  5
2111
100
AcDbEntity
  8
V0-NAZVY
  6
CONTINUOUS
 62
   210
100
AcDbText
 10
-204.025289
 20
73.83223
 30
0.0
 40
28.8
  1
RSK-315
 72
     1
 11
-131.356821
 21
73.83223
 31
0.0
100
AcDbText
  0
TEXT
  5
2112
100
AcDbEntity
  8
V0-NAZVY
  6
CONTINUOUS
 62
   210
100
AcDbText
 10
-201.175038
 20
-751.838072
 30
0.0
 40
28.8
  1
RSK-315
 72
     1
 11
-128.50657
 21
-751.838072
 31
0.0
100
AcDbText
  0
POINT
  5
2113
100
AcDbEntity
  8
V0-VYPLNE
  6
CONTINUOUS
 62
    52
100
AcDbPoint
 10
-200.0
 20
-100.0
 30
0.0
  0
POINT
  5
2114
100
AcDbEntity
  8
V0-VYPLNE
  6
CONTINUOUS
 62
    52
100
AcDbPoint
 10
200.0
 20
-100.0
 30
0.0
  0
POINT
  5
2115
100
AcDbEntity
  8
V0-VYPLNE
  6
CONTINUOUS
 62
    52
100
AcDbPoint
 10
-200.0
 20
-550.0
 30
0.0
  0
VIEWPORT
  5
22
100
AcDbEntity
 67
     1
  8
0
100
AcDbViewport
 10
261.517699
 20
154.724298
 30
0.0
 40
523.035398
 41
309.448596
 68
    -1
 69
     1
1001
ACAD
1000
MVIEW
1002
{
1070
    16
1010
0.0
1020
0.0
1030
0.0
1010
0.0
1020
0.0
1030
1.0
1040
0.0
1040
309.448596
1040
261.517699
1040
154.724298
1040
50.0
1040
0.0
1040
0.0
1070
     0
1070
   100
1070
     1
1070
     0
1070
     0
1070
     0
1070
     0
1070
     0
1040
0.0
1040
0.0
1040
0.0
1040
1.0
1040
1.0
1040
10.0
1040
10.0
1070
     0
1002
{
1002
}
1002
}
  0
ENDSEC
  0
SECTION
  2
OBJECTS
  0
DICTIONARY
  5
C
100
AcDbDictionary
  3
ACAD_GROUP
350
D
  3
ACAD_MLINESTYLE
350
E
  3
ACDBVARIABLEDICTIONARY
350
86C
  3
CONTENTDICTIONARY
350
905
  0
DICTIONARY
  5
D
102
{ACAD_REACTORS
330
C
102
}
100
AcDbDictionary
  0
DICTIONARY
  5
E
102
{ACAD_REACTORS
330
C
102
}
100
AcDbDictionary
  3
STANDARD
350
13
  0
DICTIONARY
  5
86C
102
{ACAD_REACTORS
330
C
102
}
100
AcDbDictionary
  3
SORTENTS
350
86D
  0
DICTIONARY
  5
905
102
{ACAD_REACTORS
330
C
102
}
100
AcDbDictionary
  0
MLINESTYLE
  5
13
102
{ACAD_REACTORS
330
E
102
}
100
AcDbMlineStyle
  2
STANDARD
 70
     0
  3

 62
     0
 51
90.0
 52
90.0
 71
     2
 49
0.5
 62
   256
  6
BYLAYER
 49
-0.5
 62
   256
  6
BYLAYER
  0
DICTIONARYVAR
  5
86D
102
{ACAD_REACTORS
330
86C
102
}
100
DictionaryVariables
280
     0
  1
96
  0
ENDSEC
  0
EOF
