  0
SECTION
  2
HEADER
  9
$ACADVER
  1
AC1014
  9
$ACADMAINTVER
 70
     9
  9
$DWGCODEPAGE
  3
ANSI_1250
  9
$INSBASE
 10
0.0
 20
0.0
 30
0.0
  9
$EXTMIN
 10
2608.204617230769
 20
-1086.038733
 30
0.0
  9
$EXTMAX
 10
3753.769011362638
 20
174.54303
 30
0.0
  9
$LIMMIN
 10
0.0
 20
0.0
  9
$LIMMAX
 10
0.0
 20
0.0
  9
$ORTHOMODE
 70
     0
  9
$REGENMODE
 70
     1
  9
$FILLMODE
 70
     1
  9
$QTEXTMODE
 70
     0
  9
$MIRRTEXT
 70
     1
  9
$DRAGMODE
 70
     2
  9
$LTSCALE
 40
1.0
  9
$OSMODE
 70
    37
  9
$ATTMODE
 70
     1
  9
$TEXTSIZE
 40
0.2
  9
$TRACEWID
 40
0.05
  9
$TEXTSTYLE
  7
ED30
  9
$CLAYER
  8
V0-VYPLNE
  9
$CELTYPE
  6
CONTINUOUS
  9
$CECOLOR
 62
    41
  9
$CELTSCALE
 40
1.0
  9
$DELOBJ
 70
     1
  9
$DISPSILH
 70
     0
  9
$DIMSCALE
 40
1.0
  9
$DIMASZ
 40
40.0
  9
$DIMEXO
 40
1.0
  9
$DIMDLI
 40
0.38
  9
$DIMRND
 40
0.0
  9
$DIMDLE
 40
0.0
  9
$DIMEXE
 40
1.25
  9
$DIMTP
 40
0.0
  9
$DIMTM
 40
0.0
  9
$DIMTXT
 40
40.0
  9
$DIMCEN
 40
0.09
  9
$DIMTSZ
 40
0.0
  9
$DIMTOL
 70
     0
  9
$DIMLIM
 70
     0
  9
$DIMTIH
 70
     0
  9
$DIMTOH
 70
     0
  9
$DIMSE1
 70
     0
  9
$DIMSE2
 70
     0
  9
$DIMTAD
 70
     1
  9
$DIMZIN
 70
     0
  9
$DIMBLK
  1
OPEN
  9
$DIMASO
 70
     1
  9
$DIMSHO
 70
     1
  9
$DIMPOST
  1

  9
$DIMAPOST
  1

  9
$DIMALT
 70
     0
  9
$DIMALTD
 70
     2
  9
$DIMALTF
 40
25.4
  9
$DIMLFAC
 40
1.0
  9
$DIMTOFL
 70
     1
  9
$DIMTVP
 40
0.0
  9
$DIMTIX
 70
     1
  9
$DIMSOXD
 70
     0
  9
$DIMSAH
 70
     0
  9
$DIMBLK1
  1

  9
$DIMBLK2
  1

  9
$DIMSTYLE
  2
ED30
  9
$DIMCLRD
 70
     0
  9
$DIMCLRE
 70
    41
  9
$DIMCLRT
 70
    41
  9
$DIMTFAC
 40
1.0
  9
$DIMGAP
 40
2.0
  9
$DIMJUST
 70
     0
  9
$DIMSD1
 70
     0
  9
$DIMSD2
 70
     0
  9
$DIMTOLJ
 70
     1
  9
$DIMTZIN
 70
     0
  9
$DIMALTZ
 70
     0
  9
$DIMALTTZ
 70
     0
  9
$DIMFIT
 70
     3
  9
$DIMUPT
 70
     1
  9
$DIMUNIT
 70
     2
  9
$DIMDEC
 70
     0
  9
$DIMTDEC
 70
     4
  9
$DIMALTU
 70
     2
  9
$DIMALTTD
 70
     2
  9
$DIMTXSTY
  7
ED40
  9
$DIMAUNIT
 70
     0
  9
$LUNITS
 70
     2
  9
$LUPREC
 70
     4
  9
$SKETCHINC
 40
0.1
  9
$FILLETRAD
 40
0.5
  9
$AUNITS
 70
     0
  9
$AUPREC
 70
     0
  9
$MENU
  1
.
  9
$ELEVATION
 40
0.0
  9
$PELEVATION
 40
0.0
  9
$THICKNESS
 40
0.0
  9
$LIMCHECK
 70
     0
  9
$BLIPMODE
 70
     0
  9
$CHAMFERA
 40
0.5
  9
$CHAMFERB
 40
0.5
  9
$CHAMFERC
 40
1.0
  9
$CHAMFERD
 40
0.0
  9
$SKPOLY
 70
     0
  9
$TDCREATE
 40
2455551.669558738
  9
$TDUPDATE
 40
2455551.66955875
  9
$TDINDWG
 40
0.0000000116
  9
$TDUSRTIMER
 40
0.0000000116
  9
$USRTIMER
 70
     1
  9
$ANGBASE
 50
0.0
  9
$ANGDIR
 70
     0
  9
$PDMODE
 70
    35
  9
$PDSIZE
 40
20.0
  9
$PLINEWID
 40
0.0
  9
$COORDS
 70
     1
  9
$SPLFRAME
 70
     0
  9
$SPLINETYPE
 70
     6
  9
$SPLINESEGS
 70
     8
  9
$ATTDIA
 70
     0
  9
$ATTREQ
 70
     1
  9
$HANDLING
 70
     1
  9
$HANDSEED
  5
3F75
  9
$SURFTAB1
 70
     6
  9
$SURFTAB2
 70
     6
  9
$SURFTYPE
 70
     6
  9
$SURFU
 70
     6
  9
$SURFV
 70
     6
  9
$UCSNAME
  2

  9
$UCSORG
 10
0.0
 20
0.0
 30
0.0
  9
$UCSXDIR
 10
1.0
 20
0.0
 30
0.0
  9
$UCSYDIR
 10
0.0
 20
1.0
 30
0.0
  9
$PUCSNAME
  2

  9
$PUCSORG
 10
0.0
 20
0.0
 30
0.0
  9
$PUCSXDIR
 10
1.0
 20
0.0
 30
0.0
  9
$PUCSYDIR
 10
0.0
 20
1.0
 30
0.0
  9
$USERI1
 70
     0
  9
$USERI2
 70
     0
  9
$USERI3
 70
     0
  9
$USERI4
 70
     0
  9
$USERI5
 70
     0
  9
$USERR1
 40
0.0
  9
$USERR2
 40
0.0
  9
$USERR3
 40
0.0
  9
$USERR4
 40
0.0
  9
$USERR5
 40
0.0
  9
$WORLDVIEW
 70
     1
  9
$SHADEDGE
 70
     3
  9
$SHADEDIF
 70
    70
  9
$TILEMODE
 70
     1
  9
$MAXACTVP
 70
    64
  9
$PINSBASE
 10
0.0
 20
0.0
 30
0.0
  9
$PLIMCHECK
 70
     0
  9
$PEXTMIN
 10
1.000000000000000E+20
 20
1.000000000000000E+20
 30
1.000000000000000E+20
  9
$PEXTMAX
 10
-1.000000000000000E+20
 20
-1.000000000000000E+20
 30
-1.000000000000000E+20
  9
$PLIMMIN
 10
0.0
 20
0.0
  9
$PLIMMAX
 10
0.0
 20
0.0
  9
$UNITMODE
 70
     0
  9
$VISRETAIN
 70
     1
  9
$PLINEGEN
 70
     0
  9
$PSLTSCALE
 70
     1
  9
$TREEDEPTH
 70
  3020
  9
$PICKSTYLE
 70
     1
  9
$CMLSTYLE
  2
STANDARD
  9
$CMLJUST
 70
     0
  9
$CMLSCALE
 40
1.0
  9
$PROXYGRAPHICS
 70
     1
  9
$MEASUREMENT
 70
     0
  0
ENDSEC
  0
SECTION
  2
CLASSES
  0
CLASS
  1
ACDBDICTIONARYWDFLT
  2
AcDbDictionaryWithDefault
  3
ObjectDBX Classes
 90
        0
280
     0
281
     0
  0
CLASS
  1
XRECORD
  2
AcDbXrecord
  3
AutoCAD 2000
 90
        0
280
     0
281
     0
  0
CLASS
  1
LWPOLYLINE
  2
AcDbPolyline
  3
AutoCAD 2000
 90
        0
280
     0
281
     1
  0
CLASS
  1
HATCH
  2
AcDbHatch
  3
AutoCAD 2000
 90
        0
280
     0
281
     1
  0
CLASS
  1
ACDBPLACEHOLDER
  2
AcDbPlaceHolder
  3
ObjectDBX Classes
 90
        0
280
     0
281
     0
  0
CLASS
  1
LAYOUT
  2
AcDbLayout
  3
ObjectDBX Classes
 90
        0
280
     0
281
     0
  0
ENDSEC
  0
SECTION
  2
TABLES
  0
TABLE
  2
VPORT
  5
3ECA
330
0
100
AcDbSymbolTable
 70
     2
  0
VPORT
  5
3EEB
102
{ACAD_XDICTIONARY
360
3F73
102
}
330
3ECA
100
AcDbSymbolTableRecord
100
AcDbViewportTableRecord
  2
*ACTIVE
 70
     0
 10
0.0
 20
0.0
 11
1.0
 21
1.0
 12
3160.737936
 22
-409.558195
 13
0.0
 23
0.0
 14
10.0
 24
10.0
 15
10.0
 25
10.0
 16
0.0
 26
0.0
 36
1.0
 17
0.0
 27
0.0
 37
0.0
 40
1457.726467
 41
0.0121811307934858
 42
50.0
 43
0.0
 44
0.0
 50
0.0
 51
0.0000000000007958
 71
     0
 72
   100
 73
     1
 74
     3
 75
     0
 76
     0
 77
     0
 78
     0
  0
ENDTAB
  0
TABLE
  2
LTYPE
  5
3EC7
330
0
100
AcDbSymbolTable
 70
    25
  0
LTYPE
  5
3ED6
330
3EC7
100
AcDbSymbolTableRecord
100
AcDbLinetypeTableRecord
  2
BYBLOCK
 70
     0
  3

 72
    65
 73
     0
 40
0.0
  0
LTYPE
  5
3ED7
330
3EC7
100
AcDbSymbolTableRecord
100
AcDbLinetypeTableRecord
  2
BYLAYER
 70
     0
  3

 72
    65
 73
     0
 40
0.0
  0
LTYPE
  5
3ED8
330
3EC7
100
AcDbSymbolTableRecord
100
AcDbLinetypeTableRecord
  2
CONTINUOUS
 70
     0
  3
Solid line
 72
    65
 73
     0
 40
0.0
  0
LTYPE
  5
3EF3
330
3EC7
100
AcDbSymbolTableRecord
100
AcDbLinetypeTableRecord
  2
CENTER
 70
     0
  3
Center ____ _ ____ _ ____ _ ____ _ ____ _ ____
 72
    65
 73
     4
 40
2.0
 49
1.25
 74
     0
 49
-0.25
 74
     0
 49
0.25
 74
     0
 49
-0.25
 74
     0
  0
LTYPE
  5
3EF4
330
3EC7
100
AcDbSymbolTableRecord
100
AcDbLinetypeTableRecord
  2
DASHDOT
 70
     0
  3
Dashdot __ . __ . __ . __ . __ . __ . __ . __
 72
    65
 73
     4
 40
1.0
 49
0.5
 74
     0
 49
-0.25
 74
     0
 49
0.0
 74
     0
 49
-0.25
 74
     0
  0
LTYPE
  5
3EF5
330
3EC7
100
AcDbSymbolTableRecord
100
AcDbLinetypeTableRecord
  2
DASHED
 70
     0
  3
Dashed __ __ __ __ __ __ __ __ __ __ __ __ __ _
 72
    65
 73
     2
 40
0.75
 49
0.5
 74
     0
 49
-0.25
 74
     0
  0
LTYPE
  5
3EF6
330
3EC7
100
AcDbSymbolTableRecord
100
AcDbLinetypeTableRecord
  2
HIDDEN
 70
     0
  3
Hidden __ __ __ __ __ __ __ __ __ __ __ __ __ __
 72
    65
 73
     2
 40
0.375
 49
0.25
 74
     0
 49
-0.125
 74
     0
  0
LTYPE
  5
3EF7
330
3EC7
100
AcDbSymbolTableRecord
100
AcDbLinetypeTableRecord
  2
HIDDEN2
 70
     0
  3
Hidden2 _ _ _ _ _ _ _ _ _ _ _ _ _ _ _ _ _ 
 72
    65
 73
     2
 40
0.1875
 49
0.125
 74
     0
 49
-0.0625
 74
     0
  0
LTYPE
  5
3EF8
330
3EC7
100
AcDbSymbolTableRecord
100
AcDbLinetypeTableRecord
  2
BORDER
 70
     0
  3
Border __ __ . __ __ . __ __ . __ __ . __ __ .
 72
    65
 73
     6
 40
1.75
 49
0.5
 74
     0
 49
-0.25
 74
     0
 49
0.5
 74
     0
 49
-0.25
 74
     0
 49
0.0
 74
     0
 49
-0.25
 74
     0
  0
LTYPE
  5
3EF9
330
3EC7
100
AcDbSymbolTableRecord
100
AcDbLinetypeTableRecord
  2
BORDER2
 70
     0
  3
Border2 __.__.__.__.__.__.__.__.__.__.__.
 72
    65
 73
     6
 40
0.875
 49
0.25
 74
     0
 49
-0.125
 74
     0
 49
0.25
 74
     0
 49
-0.125
 74
     0
 49
0.0
 74
     0
 49
-0.125
 74
     0
  0
LTYPE
  5
3EFA
330
3EC7
100
AcDbSymbolTableRecord
100
AcDbLinetypeTableRecord
  2
BORDERX2
 70
     0
  3
Borderx2  ____  ____  .  ____  ____  .  ___
 72
    65
 73
     6
 40
3.5
 49
1.0
 74
     0
 49
-0.5
 74
     0
 49
1.0
 74
     0
 49
-0.5
 74
     0
 49
0.0
 74
     0
 49
-0.5
 74
     0
  0
LTYPE
  5
3EFB
330
3EC7
100
AcDbSymbolTableRecord
100
AcDbLinetypeTableRecord
  2
CENTER2
 70
     0
  3
Center2  ___ _ ___ _ ___ _ ___ _ ___ _ ___
 72
    65
 73
     4
 40
1.125
 49
0.75
 74
     0
 49
-0.125
 74
     0
 49
0.125
 74
     0
 49
-0.125
 74
     0
  0
LTYPE
  5
3EFC
330
3EC7
100
AcDbSymbolTableRecord
100
AcDbLinetypeTableRecord
  2
CENTERX2
 70
     0
  3
Centerx2  ________  __  ________  __  _____
 72
    65
 73
     4
 40
4.0
 49
2.5
 74
     0
 49
-0.5
 74
     0
 49
0.5
 74
     0
 49
-0.5
 74
     0
  0
LTYPE
  5
3EFD
330
3EC7
100
AcDbSymbolTableRecord
100
AcDbLinetypeTableRecord
  2
DASHDOT2
 70
     0
  3
Dashdot2  _._._._._._._._._._._._._._._.
 72
    65
 73
     4
 40
0.5
 49
0.25
 74
     0
 49
-0.125
 74
     0
 49
0.0
 74
     0
 49
-0.125
 74
     0
  0
LTYPE
  5
3EFE
330
3EC7
100
AcDbSymbolTableRecord
100
AcDbLinetypeTableRecord
  2
DASHDOTX2
 70
     0
  3
Dashdotx2 ____  .  ____  .  ____  .  ___
 72
    65
 73
     4
 40
2.0
 49
1.0
 74
     0
 49
-0.5
 74
     0
 49
0.0
 74
     0
 49
-0.5
 74
     0
  0
LTYPE
  5
3EFF
330
3EC7
100
AcDbSymbolTableRecord
100
AcDbLinetypeTableRecord
  2
DASHED2
 70
     0
  3
Dashed2 _ _ _ _ _ _ _ _ _ _ _ _ _ _ _ _ _ 
 72
    65
 73
     2
 40
0.375
 49
0.25
 74
     0
 49
-0.125
 74
     0
  0
LTYPE
  5
3F00
330
3EC7
100
AcDbSymbolTableRecord
100
AcDbLinetypeTableRecord
  2
DASHEDX2
 70
     0
  3
Dashedx2 ____  ____  ____  ____  ____  ___
 72
    65
 73
     2
 40
1.5
 49
1.0
 74
     0
 49
-0.5
 74
     0
  0
LTYPE
  5
3F01
330
3EC7
100
AcDbSymbolTableRecord
100
AcDbLinetypeTableRecord
  2
DIVIDE
 70
     0
  3
Divide ____ . . ____ . . ____ . . ____ . . ____
 72
    65
 73
     6
 40
1.25
 49
0.5
 74
     0
 49
-0.25
 74
     0
 49
0.0
 74
     0
 49
-0.25
 74
     0
 49
0.0
 74
     0
 49
-0.25
 74
     0
  0
LTYPE
  5
3F02
330
3EC7
100
AcDbSymbolTableRecord
100
AcDbLinetypeTableRecord
  2
DIVIDE2
 70
     0
  3
Divide2 __..__..__..__..__..__..__..__.._
 72
    65
 73
     6
 40
0.625
 49
0.25
 74
     0
 49
-0.125
 74
     0
 49
0.0
 74
     0
 49
-0.125
 74
     0
 49
0.0
 74
     0
 49
-0.125
 74
     0
  0
LTYPE
  5
3F03
330
3EC7
100
AcDbSymbolTableRecord
100
AcDbLinetypeTableRecord
  2
DIVIDEX2
 70
     0
  3
Dividex2 ________  .  .  ________  .  .  _
 72
    65
 73
     6
 40
2.5
 49
1.0
 74
     0
 49
-0.5
 74
     0
 49
0.0
 74
     0
 49
-0.5
 74
     0
 49
0.0
 74
     0
 49
-0.5
 74
     0
  0
LTYPE
  5
3F04
330
3EC7
100
AcDbSymbolTableRecord
100
AcDbLinetypeTableRecord
  2
DOT
 70
     0
  3
Dot . . . . . . . . . . . . . . . . . . . . . . . .
 72
    65
 73
     2
 40
0.25
 49
0.0
 74
     0
 49
-0.25
 74
     0
  0
LTYPE
  5
3F05
330
3EC7
100
AcDbSymbolTableRecord
100
AcDbLinetypeTableRecord
  2
DOT2
 70
     0
  3
Dot2 ........................................
 72
    65
 73
     2
 40
0.125
 49
0.0
 74
     0
 49
-0.125
 74
     0
  0
LTYPE
  5
3F06
330
3EC7
100
AcDbSymbolTableRecord
100
AcDbLinetypeTableRecord
  2
DOTX2
 70
     0
  3
Dotx2 .  .  .  .  .  .  .  .  .  .  .  .  .  .
 72
    65
 73
     2
 40
0.5
 49
0.0
 74
     0
 49
-0.5
 74
     0
  0
LTYPE
  5
3F07
330
3EC7
100
AcDbSymbolTableRecord
100
AcDbLinetypeTableRecord
  2
HIDDENX2
 70
     0
  3
Hiddenx2 ____ ____ ____ ____ ____ ____ ____ 
 72
    65
 73
     2
 40
0.75
 49
0.5
 74
     0
 49
-0.25
 74
     0
  0
LTYPE
  5
3F08
330
3EC7
100
AcDbSymbolTableRecord
100
AcDbLinetypeTableRecord
  2
PHANTOM
 70
     0
  3
Phantom ______  __  __  ______  __  __  ______ 
 72
    65
 73
     6
 40
2.5
 49
1.25
 74
     0
 49
-0.25
 74
     0
 49
0.25
 74
     0
 49
-0.25
 74
     0
 49
0.25
 74
     0
 49
-0.25
 74
     0
  0
LTYPE
  5
3F09
330
3EC7
100
AcDbSymbolTableRecord
100
AcDbLinetypeTableRecord
  2
PHANTOM2
 70
     0
  3
Phantom2 ___ _ _ ___ _ _ ___ _ _ ___ _ _
 72
    65
 73
     6
 40
1.25
 49
0.625
 74
     0
 49
-0.125
 74
     0
 49
0.125
 74
     0
 49
-0.125
 74
     0
 49
0.125
 74
     0
 49
-0.125
 74
     0
  0
LTYPE
  5
3F0A
330
3EC7
100
AcDbSymbolTableRecord
100
AcDbLinetypeTableRecord
  2
PHANTOMX2
 70
     0
  3
Phantomx2 ____________    ____    ____   _
 72
    65
 73
     6
 40
5.0
 49
2.5
 74
     0
 49
-0.5
 74
     0
 49
0.5
 74
     0
 49
-0.5
 74
     0
 49
0.5
 74
     0
 49
-0.5
 74
     0
  0
ENDTAB
  0
TABLE
  2
LAYER
  5
3EC4
330
0
100
AcDbSymbolTable
 70
     5
  0
LAYER
  5
3ED2
330
3EC4
100
AcDbSymbolTableRecord
100
AcDbLayerTableRecord
  2
0
 70
     0
 62
     7
  6
CONTINUOUS
  0
LAYER
  5
9E
330
3EC4
100
AcDbSymbolTableRecord
100
AcDbLayerTableRecord
  2
DEFPOINTS
 70
     0
 62
     7
  6
CONTINUOUS
  0
LAYER
  5
377
330
3EC4
100
AcDbSymbolTableRecord
100
AcDbLayerTableRecord
  2
V0-OBRYS
 70
     0
 62
    90
  6
CONTINUOUS
  0
LAYER
  5
378
330
3EC4
100
AcDbSymbolTableRecord
100
AcDbLayerTableRecord
  2
V0-VYPLNE
 70
     0
 62
    63
  6
DASHDOT
  0
LAYER
  5
1540
330
3EC4
100
AcDbSymbolTableRecord
100
AcDbLayerTableRecord
  2
VO-OBRYS
 70
     0
 62
    90
  6
CONTINUOUS
  0
ENDTAB
  0
TABLE
  2
STYLE
  5
3EC5
330
0
100
AcDbSymbolTable
 70
     6
  0
STYLE
  5
3ED3
330
3EC5
100
AcDbSymbolTableRecord
100
AcDbTextStyleTableRecord
  2
STANDARD
 70
     0
 40
0.0
 41
1.0
 50
0.0
 71
     0
 42
0.2
  3
ISOCP.shx
  4

1001
ACAD
1000
ISOCP.shx
1071
        0
  0
STYLE
  5
331
330
3EC5
100
AcDbSymbolTableRecord
100
AcDbTextStyleTableRecord
  2
ED20
 70
     0
 40
20.0
 41
1.0
 50
0.0
 71
     0
 42
0.2
  3
ISOCP.shx
  4

1001
ACAD
1000
ISOCP.shx
1071
        0
  0
STYLE
  5
648
330
3EC5
100
AcDbSymbolTableRecord
100
AcDbTextStyleTableRecord
  2
ED10
 70
     0
 40
10.0
 41
1.0
 50
0.0
 71
     0
 42
0.2
  3
ISOCP.shx
  4

1001
ACAD
1000
ISOCP.shx
1071
        0
  0
STYLE
  5
F38
330
3EC5
100
AcDbSymbolTableRecord
100
AcDbTextStyleTableRecord
  2
ED30
 70
     0
 40
30.0
 41
1.0
 50
0.0
 71
     0
 42
0.2
  3
ISOCP.shx
  4

1001
ACAD
1000
ISOCP.shx
1071
        0
  0
STYLE
  5
F39
330
3EC5
100
AcDbSymbolTableRecord
100
AcDbTextStyleTableRecord
  2
ED40
 70
     0
 40
40.0
 41
1.0
 50
0.0
 71
     0
 42
0.2
  3
ISOCP.shx
  4

1001
ACAD
1000
ISOCP.shx
1071
        0
  0
STYLE
  5
1B9D
330
3EC5
100
AcDbSymbolTableRecord
100
AcDbTextStyleTableRecord
  2
VD_RECOV_1_1B9D_
 70
     0
 40
0.0
 41
1.0
 50
0.0
 71
     0
 42
0.2
  3
ltypeshp.shx
  4

1001
ACAD
1000
ltypeshp.shx
1071
        0
  0
ENDTAB
  0
TABLE
  2
VIEW
  5
3EC8
330
0
100
AcDbSymbolTable
 70
     0
  0
ENDTAB
  0
TABLE
  2
UCS
  5
3EC9
330
0
100
AcDbSymbolTable
 70
     0
  0
ENDTAB
  0
TABLE
  2
APPID
  5
3ECB
330
0
100
AcDbSymbolTable
 70
     6
  0
APPID
  5
3ED4
330
3ECB
100
AcDbSymbolTableRecord
100
AcDbRegAppTableRecord
  2
ACAD
 70
     0
  0
APPID
  5
3EEC
330
3ECB
100
AcDbSymbolTableRecord
100
AcDbRegAppTableRecord
  2
VD_INVISIBLE_NOT_FOR_READ
 70
     0
  0
APPID
  5
3EED
330
3ECB
100
AcDbSymbolTableRecord
100
AcDbRegAppTableRecord
  2
VD_TEMPHATCH
 70
     0
  0
APPID
  5
3EEE
330
3ECB
100
AcDbSymbolTableRecord
100
AcDbRegAppTableRecord
  2
VDEXTRAPARAM
 70
     0
  0
APPID
  5
3EEF
330
3ECB
100
AcDbSymbolTableRecord
100
AcDbRegAppTableRecord
  2
PE_URL
 70
     0
  0
APPID
  5
3EF0
330
3ECB
100
AcDbSymbolTableRecord
100
AcDbRegAppTableRecord
  2
VD_UNKNOWN
 70
     0
  0
ENDTAB
  0
TABLE
  2
DIMSTYLE
  5
3ECC
330
0
100
AcDbSymbolTable
 70
     4
  0
DIMSTYLE
105
3EE9
330
3ECC
100
AcDbSymbolTableRecord
100
AcDbDimStyleTableRecord
  2
STANDARD
 70
     0
  3

  4

  5
OPEN
  6

  7

 40
1.0
 41
15.0
 42
0.625
 43
0.38
 44
1.25
 45
0.0
 46
0.0
 47
0.0
 48
0.0
140
15.0
141
0.09
142
0.0
143
25.4
144
1.0
145
0.0
146
1.0
147
3.0
 71
     0
 72
     0
 73
     0
 74
     0
 75
     0
 76
     0
 77
     1
 78
     0
170
     0
171
     2
172
     1
173
     0
174
     1
175
     0
176
     0
177
     0
178
     0
270
     2
271
     0
272
     4
273
     2
274
     2
340
331
275
     0
280
     0
281
     0
282
     0
283
     1
284
     0
285
     0
286
     0
287
     3
288
     1
  0
DIMSTYLE
105
FE9
330
3ECC
100
AcDbSymbolTableRecord
100
AcDbDimStyleTableRecord
  2
ED20
 70
     0
  3

  4

  5
OPEN
  6

  7

 40
1.0
 41
20.0
 42
1.0
 43
0.38
 44
1.25
 45
0.0
 46
0.0
 47
0.0
 48
0.0
140
20.0
141
0.09
142
0.0
143
25.4
144
1.0
145
0.0
146
1.0
147
2.0
 71
     0
 72
     0
 73
     0
 74
     0
 75
     0
 76
     0
 77
     1
 78
     0
170
     0
171
     2
172
     1
173
     0
174
     1
175
     0
176
     0
177
    41
178
    41
270
     2
271
     0
272
     4
273
     2
274
     2
340
331
275
     0
280
     0
281
     0
282
     0
283
     1
284
     0
285
     0
286
     0
287
     3
288
     1
  0
DIMSTYLE
105
302B
330
3ECC
100
AcDbSymbolTableRecord
100
AcDbDimStyleTableRecord
  2
ED40
 70
     0
  3

  4

  5
OPEN
  6

  7

 40
1.0
 41
40.0
 42
1.0
 43
0.38
 44
1.25
 45
0.0
 46
0.0
 47
0.0
 48
0.0
140
40.0
141
0.09
142
0.0
143
25.4
144
1.0
145
0.0
146
1.0
147
2.0
 71
     0
 72
     0
 73
     0
 74
     0
 75
     0
 76
     0
 77
     1
 78
     0
170
     0
171
     2
172
     1
173
     0
174
     1
175
     0
176
     0
177
    41
178
    41
270
     2
271
     0
272
     4
273
     2
274
     2
340
F39
275
     0
280
     0
281
     0
282
     0
283
     1
284
     0
285
     0
286
     0
287
     3
288
     1
  0
DIMSTYLE
105
3042
102
{ACAD_REACTORS
330
3872
330
38DA
330
399E
330
39AB
330
39EF
102
}
330
3ECC
100
AcDbSymbolTableRecord
100
AcDbDimStyleTableRecord
  2
ED30
 70
     0
  3

  4

  5
OPEN
  6

  7

 40
1.0
 41
40.0
 42
1.0
 43
0.38
 44
1.25
 45
0.0
 46
0.0
 47
0.0
 48
0.0
140
40.0
141
0.09
142
0.0
143
25.4
144
1.0
145
0.0
146
1.0
147
2.0
 71
     0
 72
     0
 73
     0
 74
     0
 75
     0
 76
     0
 77
     1
 78
     0
170
     0
171
     2
172
     1
173
     0
174
     1
175
     0
176
     0
177
    41
178
    41
270
     2
271
     0
272
     4
273
     2
274
     2
340
F39
275
     0
280
     0
281
     0
282
     0
283
     1
284
     0
285
     0
286
     0
287
     3
288
     1
  0
ENDTAB
  0
TABLE
  2
BLOCK_RECORD
  5
3EC3
330
0
100
AcDbSymbolTable
 70
     9
  0
BLOCK_RECORD
  5
3EE1
330
3EC3
100
AcDbSymbolTableRecord
100
AcDbBlockTableRecord
  2
*MODEL_SPACE
  0
BLOCK_RECORD
  5
3EDD
330
3EC3
100
AcDbSymbolTableRecord
100
AcDbBlockTableRecord
  2
*PAPER_SPACE
  0
BLOCK_RECORD
  5
90
330
3EC3
100
AcDbSymbolTableRecord
100
AcDbBlockTableRecord
  2
_OPEN
  0
BLOCK_RECORD
  5
3EBF
330
3EC3
100
AcDbSymbolTableRecord
100
AcDbBlockTableRecord
  2
VDDIM_DEFAULT
  0
BLOCK_RECORD
  5
3EC1
330
3EC3
100
AcDbSymbolTableRecord
100
AcDbBlockTableRecord
  2
VDDIM_NONE
  0
BLOCK_RECORD
  5
3F12
330
3EC3
100
AcDbSymbolTableRecord
100
AcDbBlockTableRecord
  2
*D4
  0
BLOCK_RECORD
  5
3F1F
330
3EC3
100
AcDbSymbolTableRecord
100
AcDbBlockTableRecord
  2
*D5
  0
BLOCK_RECORD
  5
3F2C
330
3EC3
100
AcDbSymbolTableRecord
100
AcDbBlockTableRecord
  2
*D6
  0
BLOCK_RECORD
  5
3F38
330
3EC3
100
AcDbSymbolTableRecord
100
AcDbBlockTableRecord
  2
*D7
  0
BLOCK_RECORD
  5
3F44
330
3EC3
100
AcDbSymbolTableRecord
100
AcDbBlockTableRecord
  2
*D8
  0
ENDTAB
  0
ENDSEC
  0
SECTION
  2
BLOCKS
  0
BLOCK
  5
3EE2
330
3EE1
100
AcDbEntity
  8
0
100
AcDbBlockBegin
  2
*MODEL_SPACE
 70
     0
 71
     0
 10
0.0
 20
0.0
 30
0.0
  3
*MODEL_SPACE
  1

  0
ENDBLK
  5
3EE3
330
3EE1
100
AcDbEntity
  8
0
100
AcDbBlockEnd
  0
BLOCK
  5
3EDE
330
3EDD
100
AcDbEntity
 67
     1
  8
0
100
AcDbBlockBegin
  2
*PAPER_SPACE
 70
     0
 71
     0
 10
0.0
 20
0.0
 30
0.0
  3
*PAPER_SPACE
  1

  0
ENDBLK
  5
3EDF
330
3EDD
100
AcDbEntity
 67
     1
  8
0
100
AcDbBlockEnd
  0
BLOCK
  5
3F0B
330
90
100
AcDbEntity
  8
0
100
AcDbBlockBegin
  2
_OPEN
 70
     0
 71
     0
 10
0.0
 20
0.0
 30
0.0
  3
_OPEN
  1

  0
LINE
  5
92
330
90
100
AcDbEntity
  8
0
  6
BYBLOCK
 62
     0
100
AcDbLine
 10
-1.0
 20
0.166667
 30
0.0
 11
0.0
 21
0.0
 31
0.0
  0
LINE
  5
93
330
90
100
AcDbEntity
  8
0
  6
BYBLOCK
 62
     0
100
AcDbLine
 10
0.0
 20
0.0
 30
0.0
 11
-1.0
 21
-0.166667
 31
0.0
  0
LINE
  5
94
330
90
100
AcDbEntity
  8
0
  6
BYBLOCK
 62
     0
100
AcDbLine
 10
0.0
 20
0.0
 30
0.0
 11
-1.0
 21
0.0
 31
0.0
  0
ENDBLK
  5
3F0C
330
90
100
AcDbEntity
  8
0
100
AcDbBlockEnd
  0
BLOCK
  5
3F0D
330
3EBF
100
AcDbEntity
  8
0
100
AcDbBlockBegin
  2
VDDIM_DEFAULT
 70
     0
 71
     0
 10
0.0
 20
0.0
 30
0.0
  3
VDDIM_DEFAULT
  1

  0
LWPOLYLINE
  5
3EC0
330
3EBF
100
AcDbEntity
  8
0
  6
CONTINUOUS
 62
     0
100
AcDbPolyline
 90
        4
 70
     0
 43
0.0
 10
0.0
 20
0.0
 10
-1.0
 20
-0.1665
 10
-1.0
 20
0.1665
 10
0.0
 20
0.0
1001
VDEXTRAPARAM
1071
        1
1071
        0
1071
        0
1040
1.0
1000

1000

1040
0.0
1040
0.0
  0
HATCH
  5
3F11
330
3EBF
100
AcDbEntity
  8
0
  6
CONTINUOUS
 62
     0
100
AcDbHatch
 10
0.0
 20
0.0
 30
0.0
210
0.0
220
0.0
230
1.0
  2
SOLID
 70
     1
 71
     0
 91
        1
 92
        2
 72
     0
 73
     1
 93
        3
 10
0.0
 20
0.0
 10
-1.0
 20
-0.1665
 10
-1.0
 20
0.1665
 97
        0
 75
     0
 76
     1
 98
        1
 10
0.0
 20
0.0
1001
VDEXTRAPARAM
1071
        1
1071
        0
1071
        0
1040
1.0
1000

1000

1040
0.0
1040
0.0
1001
VD_TEMPHATCH
1000
VD_TEMPHATCH
  0
ENDBLK
  5
3F0E
330
3EBF
100
AcDbEntity
  8
0
100
AcDbBlockEnd
  0
BLOCK
  5
3F0F
330
3EC1
100
AcDbEntity
  8
0
100
AcDbBlockBegin
  2
VDDIM_NONE
 70
     0
 71
     0
 10
0.0
 20
0.0
 30
0.0
  3
VDDIM_NONE
  1

  0
ENDBLK
  5
3F10
330
3EC1
100
AcDbEntity
  8
0
100
AcDbBlockEnd
  0
BLOCK
  5
3F1D
330
3F12
100
AcDbEntity
  8
0
100
AcDbBlockBegin
  2
*D4
 70
     1
 71
     0
 10
0.0
 20
0.0
 30
0.0
  3
*D4
  1

  0
LINE
  5
3F13
330
3F12
100
AcDbEntity
  8
V0-VYPLNE
 62
    41
100
AcDbLine
 10
2750.111164
 20
125.61688
 30
0.0
 11
2632.723848000052
 21
125.61688
 31
0.0
  0
LINE
  5
3F14
330
3F12
100
AcDbEntity
  8
V0-VYPLNE
 62
    41
100
AcDbLine
 10
2753.654464
 20
-324.38222
 30
0.0
 11
2632.723848000052
 21
-324.38222
 31
0.0
  0
LINE
  5
3F15
330
3F12
100
AcDbEntity
  8
V0-VYPLNE
 62
     0
100
AcDbLine
 10
2633.973848000052
 20
95.61688000000004
 30
0.0
 11
2633.973848000052
 21
-55.36146685714266
 31
0.0
  0
LINE
  5
3F16
330
3F12
100
AcDbEntity
  8
V0-VYPLNE
 62
     0
100
AcDbLine
 10
2633.973848000052
 20
-294.38222
 30
0.0
 11
2633.973848000052
 21
-163.6471811428573
 31
0.0
  0
INSERT
  5
3F17
330
3F12
100
AcDbEntity
  8
V0-VYPLNE
 62
     0
100
AcDbBlockReference
  2
_OPEN
 10
2633.973848000052
 20
125.61688
 30
0.0
 41
30.0
 42
30.0
 43
30.0
 50
90.0
  0
INSERT
  5
3F18
330
3F12
100
AcDbEntity
  8
V0-VYPLNE
 62
     0
100
AcDbBlockReference
  2
_OPEN
 10
2633.973848000052
 20
-324.38222
 30
0.0
 41
30.0
 42
30.0
 43
30.0
 50
270.0
  0
MTEXT
  5
3F19
330
3F12
100
AcDbEntity
  8
V0-VYPLNE
 62
    41
100
AcDbMText
 10
2633.973848
 20
-109.504324
 30
0.0
 40
30.0
 41
0.0
 71
     5
 72
     1
  1
%%c\A1;450
  7
ED40
 11
0.0
 21
1.0
 31
0.0
  0
POINT
  5
3F1A
330
3F12
100
AcDbEntity
  8
DEFPOINTS
 62
     0
100
AcDbPoint
 10
2751.111164
 20
125.61688
 30
0.0
  0
POINT
  5
3F1B
330
3F12
100
AcDbEntity
  8
DEFPOINTS
 62
     0
100
AcDbPoint
 10
2754.654464
 20
-324.38222
 30
0.0
  0
POINT
  5
3F1C
330
3F12
100
AcDbEntity
  8
DEFPOINTS
 62
     0
100
AcDbPoint
 10
2633.973848000052
 20
-324.38222
 30
0.0
  0
ENDBLK
  5
3F1E
330
3F12
100
AcDbEntity
  8
0
100
AcDbBlockEnd
  0
BLOCK
  5
3F2A
330
3F1F
100
AcDbEntity
  8
0
100
AcDbBlockBegin
  2
*D5
 70
     1
 71
     0
 10
0.0
 20
0.0
 30
0.0
  3
*D5
  1

  0
LINE
  5
3F20
330
3F1F
100
AcDbEntity
  8
V0-VYPLNE
 62
    41
100
AcDbLine
 10
2785.500777
 20
-9.402469999999999
 30
0.0
 11
2691.634483000031
 21
-9.402470000000022
 31
0.0
  0
LINE
  5
3F21
330
3F1F
100
AcDbEntity
  8
V0-VYPLNE
 62
    41
100
AcDbLine
 10
2785.500777
 20
-189.36287
 30
0.0
 11
2691.634483000031
 21
-189.36287
 31
0.0
  0
LINE
  5
3F22
330
3F1F
100
AcDbEntity
  8
V0-VYPLNE
 62
     0
100
AcDbLine
 10
2692.884483000031
 20
-39.40246999999999
 30
0.0
 11
2692.884483000031
 21
-47.894113
 31
0.0
  0
LINE
  5
3F23
330
3F1F
100
AcDbEntity
  8
V0-VYPLNE
 62
     0
100
AcDbLine
 10
2692.884483000031
 20
-159.3628699999999
 30
0.0
 11
2692.884483000031
 21
-151.894113
 31
0.0
  0
INSERT
  5
3F24
330
3F1F
100
AcDbEntity
  8
V0-VYPLNE
 62
     0
100
AcDbBlockReference
  2
_OPEN
 10
2692.884483000031
 20
-9.402469999999994
 30
0.0
 41
30.0
 42
30.0
 43
30.0
 50
90.0
  0
INSERT
  5
3F25
330
3F1F
100
AcDbEntity
  8
V0-VYPLNE
 62
     0
100
AcDbBlockReference
  2
_OPEN
 10
2692.884483000031
 20
-189.3628699999999
 30
0.0
 41
30.0
 42
30.0
 43
30.0
 50
270.0
  0
MTEXT
  5
3F26
330
3F1F
100
AcDbEntity
  8
V0-VYPLNE
 62
    41
100
AcDbMText
 10
2692.884483
 20
-99.894113
 30
0.0
 40
30.0
 41
0.0
 71
     5
 72
     1
  1
%%c\A1;180
  7
ED40
 11
0.0
 21
1.0
 31
0.0
  0
POINT
  5
3F27
330
3F1F
100
AcDbEntity
  8
DEFPOINTS
 62
     0
100
AcDbPoint
 10
2786.500777
 20
-9.402469999999999
 30
0.0
  0
POINT
  5
3F28
330
3F1F
100
AcDbEntity
  8
DEFPOINTS
 62
     0
100
AcDbPoint
 10
2786.500777
 20
-189.36287
 30
0.0
  0
POINT
  5
3F29
330
3F1F
100
AcDbEntity
  8
DEFPOINTS
 62
     0
100
AcDbPoint
 10
2692.884483000031
 20
-189.36287
 30
0.0
  0
ENDBLK
  5
3F2B
330
3F1F
100
AcDbEntity
  8
0
100
AcDbBlockEnd
  0
BLOCK
  5
3F36
330
3F2C
100
AcDbEntity
  8
0
100
AcDbBlockBegin
  2
*D6
 70
     1
 71
     0
 10
0.0
 20
0.0
 30
0.0
  3
*D6
  1

  0
LINE
  5
3F2D
330
3F2C
100
AcDbEntity
  8
V0-VYPLNE
 62
    41
100
AcDbLine
 10
2930.709164
 20
169.282105
 30
0.0
 11
3076.115695999935
 21
169.2821049999999
 31
0.0
  0
LINE
  5
3F2E
330
3F2C
100
AcDbEntity
  8
V0-VYPLNE
 62
    41
100
AcDbLine
 10
2930.709164
 20
-368.047445
 30
0.0
 11
3076.115695999935
 21
-368.047445
 31
0.0
  0
LINE
  5
3F2F
330
3F2C
100
AcDbEntity
  8
V0-VYPLNE
 62
     0
100
AcDbLine
 10
3074.865695999935
 20
139.2821050000002
 30
0.0
 11
3074.865695999935
 21
-338.0474449999997
 31
0.0
  0
INSERT
  5
3F30
330
3F2C
100
AcDbEntity
  8
V0-VYPLNE
 62
     0
100
AcDbBlockReference
  2
_OPEN
 10
3074.865695999935
 20
169.2821050000002
 30
0.0
 41
30.0
 42
30.0
 43
30.0
 50
90.0
  0
INSERT
  5
3F31
330
3F2C
100
AcDbEntity
  8
V0-VYPLNE
 62
     0
100
AcDbBlockReference
  2
_OPEN
 10
3074.865695999935
 20
-368.0474449999997
 30
0.0
 41
30.0
 42
30.0
 43
30.0
 50
270.0
  0
MTEXT
  5
3F32
330
3F2C
100
AcDbEntity
  8
V0-VYPLNE
 62
    41
100
AcDbMText
 10
3057.865695999935
 20
-99.38267000000002
 30
0.0
 40
30.0
 41
0.0
 71
     5
 72
     1
  1
%%c\A1;537
  7
ED40
 11
0.0
 21
1.0
 31
0.0
  0
POINT
  5
3F33
330
3F2C
100
AcDbEntity
  8
DEFPOINTS
 62
     0
100
AcDbPoint
 10
2929.709164
 20
169.282105
 30
0.0
  0
POINT
  5
3F34
330
3F2C
100
AcDbEntity
  8
DEFPOINTS
 62
     0
100
AcDbPoint
 10
2929.709164
 20
-368.047445
 30
0.0
  0
POINT
  5
3F35
330
3F2C
100
AcDbEntity
  8
DEFPOINTS
 62
     0
100
AcDbPoint
 10
3074.865695999935
 20
-368.047445
 30
0.0
  0
ENDBLK
  5
3F37
330
3F2C
100
AcDbEntity
  8
0
100
AcDbBlockEnd
  0
BLOCK
  5
3F42
330
3F38
100
AcDbEntity
  8
0
100
AcDbBlockBegin
  2
*D7
 70
     1
 71
     0
 10
0.0
 20
0.0
 30
0.0
  3
*D7
  1

  0
LINE
  5
3F39
330
3F38
100
AcDbEntity
  8
V0-VYPLNE
 62
    41
100
AcDbLine
 10
2951.031096
 20
150.77823
 30
0.0
 11
3016.002803999931
 21
150.77823
 31
0.0
  0
LINE
  5
3F3A
330
3F38
100
AcDbEntity
  8
V0-VYPLNE
 62
    41
100
AcDbLine
 10
2951.031096
 20
-349.54357
 30
0.0
 11
3016.002803999931
 21
-349.54357
 31
0.0
  0
LINE
  5
3F3B
330
3F38
100
AcDbEntity
  8
V0-VYPLNE
 62
     0
100
AcDbLine
 10
3014.752803999931
 20
120.7782300000004
 30
0.0
 11
3014.752803999931
 21
-319.5435699999998
 31
0.0
  0
INSERT
  5
3F3C
330
3F38
100
AcDbEntity
  8
V0-VYPLNE
 62
     0
100
AcDbBlockReference
  2
_OPEN
 10
3014.752803999931
 20
150.7782300000004
 30
0.0
 41
30.0
 42
30.0
 43
30.0
 50
90.0
  0
INSERT
  5
3F3D
330
3F38
100
AcDbEntity
  8
V0-VYPLNE
 62
     0
100
AcDbBlockReference
  2
_OPEN
 10
3014.752803999931
 20
-349.5435699999998
 30
0.0
 41
30.0
 42
30.0
 43
30.0
 50
270.0
  0
MTEXT
  5
3F3E
330
3F38
100
AcDbEntity
  8
V0-VYPLNE
 62
    41
100
AcDbMText
 10
2997.752803999931
 20
-99.38266999999999
 30
0.0
 40
30.0
 41
0.0
 71
     5
 72
     1
  1
%%c\A1;500
  7
ED40
 11
0.0
 21
1.0
 31
0.0
  0
POINT
  5
3F3F
330
3F38
100
AcDbEntity
  8
DEFPOINTS
 62
     0
100
AcDbPoint
 10
2950.031096
 20
150.77823
 30
0.0
  0
POINT
  5
3F40
330
3F38
100
AcDbEntity
  8
DEFPOINTS
 62
     0
100
AcDbPoint
 10
2950.031096
 20
-349.54357
 30
0.0
  0
POINT
  5
3F41
330
3F38
100
AcDbEntity
  8
DEFPOINTS
 62
     0
100
AcDbPoint
 10
3014.752803999931
 20
-349.54357
 30
0.0
  0
ENDBLK
  5
3F43
330
3F38
100
AcDbEntity
  8
0
100
AcDbBlockEnd
  0
BLOCK
  5
3F4E
330
3F44
100
AcDbEntity
  8
0
100
AcDbBlockBegin
  2
*D8
 70
     1
 71
     0
 10
0.0
 20
0.0
 30
0.0
  3
*D8
  1

  0
LINE
  5
3F45
330
3F44
100
AcDbEntity
  8
V0-VYPLNE
 62
    41
100
AcDbLine
 10
2751.111164
 20
-369.047445
 30
0.0
 11
2751.111164
 21
-424.8277610000223
 31
0.0
  0
LINE
  5
3F46
330
3F44
100
AcDbEntity
  8
V0-VYPLNE
 62
    41
100
AcDbLine
 10
2930.709164
 20
-369.047445
 30
0.0
 11
2930.709164
 21
-424.8277610000223
 31
0.0
  0
LINE
  5
3F47
330
3F44
100
AcDbEntity
  8
V0-VYPLNE
 62
     0
100
AcDbLine
 10
2781.111164
 20
-423.5777610000223
 30
0.0
 11
2900.709164
 21
-423.5777610000223
 31
0.0
  0
INSERT
  5
3F48
330
3F44
100
AcDbEntity
  8
V0-VYPLNE
 62
     0
100
AcDbBlockReference
  2
_OPEN
 10
2751.111164
 20
-423.5777610000223
 30
0.0
 41
30.0
 42
30.0
 43
30.0
 50
180.0
  0
INSERT
  5
3F49
330
3F44
100
AcDbEntity
  8
V0-VYPLNE
 62
     0
100
AcDbBlockReference
  2
_OPEN
 10
2930.709164
 20
-423.5777610000223
 30
0.0
 41
30.0
 42
30.0
 43
30.0
  0
MTEXT
  5
3F4A
330
3F44
100
AcDbEntity
  8
V0-VYPLNE
 62
    41
100
AcDbMText
 10
2840.910164
 20
-406.5777610000223
 30
0.0
 40
30.0
 41
0.0
 71
     5
 72
     1
  1
\A1;180
  7
ED40
  0
POINT
  5
3F4B
330
3F44
100
AcDbEntity
  8
DEFPOINTS
 62
     0
100
AcDbPoint
 10
2751.111164
 20
-368.047445
 30
0.0
  0
POINT
  5
3F4C
330
3F44
100
AcDbEntity
  8
DEFPOINTS
 62
     0
100
AcDbPoint
 10
2930.709164
 20
-368.047445
 30
0.0
  0
POINT
  5
3F4D
330
3F44
100
AcDbEntity
  8
DEFPOINTS
 62
     0
100
AcDbPoint
 10
2930.709164
 20
-423.5777610000223
 30
0.0
  0
ENDBLK
  5
3F4F
330
3F44
100
AcDbEntity
  8
0
100
AcDbBlockEnd
  0
ENDSEC
  0
SECTION
  2
ENTITIES
  0
TEXT
  5
1347
330
3EE1
100
AcDbEntity
  8
V0-VYPLNE
 62
     6
100
AcDbText
 10
3232.242683
 20
-738.678913
 30
0.0
 40
60.0
  1
TCB-450
  7
ED40
100
AcDbText
  0
TEXT
  5
1348
330
3EE1
100
AcDbEntity
  8
V0-VYPLNE
  6
CONTINUOUS
 62
    51
100
AcDbText
 10
3111.406374
 20
-822.177657
 30
0.0
 40
45.0
  1
AXIALNI VENTILATOR
  7
ED30
100
AcDbText
  0
TEXT
  5
2455
330
3EE1
100
AcDbEntity
  8
V0-VYPLNE
  6
CONTINUOUS
 62
    51
100
AcDbText
 10
3236.623144
 20
-896.101147
 30
0.0
 40
45.0
  1
DO POTRUBI
  7
ED30
100
AcDbText
  0
LINE
  5
386B
330
3EE1
100
AcDbEntity
  8
V0-OBRYS
  6
CONTINUOUS
 62
    90
100
AcDbLine
 10
2926.165864
 20
-324.38222
 30
0.0
 11
2926.165864
 21
169.282105
 31
0.0
  0
LINE
  5
386C
330
3EE1
100
AcDbEntity
  8
V0-OBRYS
  6
CONTINUOUS
 62
    90
100
AcDbLine
 10
2754.654464
 20
-324.38222
 30
0.0
 11
2754.654464
 21
169.282105
 31
0.0
  0
LINE
  5
386D
330
3EE1
100
AcDbEntity
  8
V0-OBRYS
  6
CONTINUOUS
 62
    90
100
AcDbLine
 10
2751.111164
 20
-99.38267000000001
 30
0.0
 11
2751.111164
 21
169.282105
 31
0.0
  0
LINE
  5
386E
330
3EE1
100
AcDbEntity
  8
V0-OBRYS
  6
CONTINUOUS
 62
    90
100
AcDbLine
 10
2929.709164
 20
-99.38267000000001
 30
0.0
 11
2929.709164
 21
169.282105
 31
0.0
  0
LINE
  5
386F
330
3EE1
100
AcDbEntity
  8
V0-OBRYS
  6
CONTINUOUS
 62
    90
100
AcDbLine
 10
2926.165864
 20
125.61688
 30
0.0
 11
2754.654464
 21
125.61688
 31
0.0
  0
LINE
  5
3871
330
3EE1
100
AcDbEntity
  8
V0-OBRYS
  6
CONTINUOUS
 62
    90
100
AcDbLine
 10
2926.165864
 20
-324.38222
 30
0.0
 11
2754.654464
 21
-324.38222
 31
0.0
  0
DIMENSION
  5
3872
330
3EE1
100
AcDbEntity
  8
V0-VYPLNE
  6
CONTINUOUS
 62
    41
100
AcDbDimension
  2
*D4
 10
2633.973848000052
 20
-324.38222
 30
0.0
 11
2633.973848
 21
-109.504324
 31
0.0
 70
   160
  1
%%c<>
  3
ED30
100
AcDbAlignedDimension
 13
2751.111164
 23
125.61688
 33
0.0
 14
2754.654464
 24
-324.38222
 34
0.0
 50
90.0
100
AcDbRotatedDimension
1001
ACAD
1000
DSTYLE
1002
{
1070
    41
1040
30.0
1070
   140
1040
30.0
1002
}
  0
LINE
  5
3873
330
3EE1
100
AcDbEntity
  8
V0-OBRYS
  6
CONTINUOUS
 62
    90
100
AcDbLine
 10
2751.111164
 20
-99.38267000000001
 30
0.0
 11
2751.111164
 21
-368.047445
 31
0.0
  0
LINE
  5
3874
330
3EE1
100
AcDbEntity
  8
V0-OBRYS
  6
CONTINUOUS
 62
    90
100
AcDbLine
 10
2754.654464
 20
-324.38222
 30
0.0
 11
2754.654464
 21
-368.047445
 31
0.0
  0
LINE
  5
3875
330
3EE1
100
AcDbEntity
  8
V0-VYPLNE
  6
DASHDOT
 62
    63
 48
2.0
100
AcDbLine
 10
2733.394664
 20
-349.54357
 30
0.0
 11
2784.144988
 21
-349.54357
 31
0.0
  0
LINE
  5
3876
330
3EE1
100
AcDbEntity
  8
V0-OBRYS
  6
CONTINUOUS
 62
    90
100
AcDbLine
 10
2929.709164
 20
-99.38267000000001
 30
0.0
 11
2929.709164
 21
-368.047445
 31
0.0
  0
LINE
  5
3877
330
3EE1
100
AcDbEntity
  8
V0-OBRYS
  6
CONTINUOUS
 62
    90
100
AcDbLine
 10
2926.165864
 20
-324.38222
 30
0.0
 11
2926.165864
 21
-368.047445
 31
0.0
  0
LINE
  5
3878
330
3EE1
100
AcDbEntity
  8
V0-VYPLNE
  6
DASHDOT
 62
    63
 48
2.0
100
AcDbLine
 10
2909.474491
 20
-349.54357
 30
0.0
 11
2950.031096
 21
-349.54357
 31
0.0
  0
LINE
  5
3879
330
3EE1
100
AcDbEntity
  8
V0-VYPLNE
  6
DASHDOT
 62
    63
 48
2.0
100
AcDbLine
 10
2733.394664
 20
150.77823
 30
0.0
 11
2784.144988
 21
150.77823
 31
0.0
  0
LINE
  5
387A
330
3EE1
100
AcDbEntity
  8
V0-VYPLNE
  6
DASHDOT
 62
    63
 48
2.0
100
AcDbLine
 10
2909.474491
 20
150.77823
 30
0.0
 11
2950.031096
 21
150.77823
 31
0.0
  0
LINE
  5
389F
330
3EE1
100
AcDbEntity
  8
V0-VYPLNE
  6
DASHED
 62
    52
 48
2.0
100
AcDbLine
 10
2915.861707
 20
10.022479
 30
0.0
 11
2898.114937
 21
121.470738
 31
0.0
  0
LINE
  5
38A0
330
3EE1
100
AcDbEntity
  8
V0-VYPLNE
  6
DASHED
 62
    52
 48
2.0
100
AcDbLine
 10
2836.575107
 20
10.022479
 30
0.0
 11
2854.321878
 21
121.470738
 31
0.0
  0
LINE
  5
38A1
330
3EE1
100
AcDbEntity
  8
V0-VYPLNE
  6
DASHED
 62
    52
 48
2.0
100
AcDbLine
 10
2915.861707
 20
-207.027081
 30
0.0
 11
2898.114937
 21
-318.475339
 31
0.0
  0
LINE
  5
38A2
330
3EE1
100
AcDbEntity
  8
V0-VYPLNE
  6
DASHED
 62
    52
 48
2.0
100
AcDbLine
 10
2836.575107
 20
-207.027081
 30
0.0
 11
2854.321878
 21
-318.475339
 31
0.0
  0
LINE
  5
38A3
330
3EE1
100
AcDbEntity
  8
V0-VYPLNE
  6
DASHED
 62
    52
 48
2.0
100
AcDbLine
 10
2854.321878
 20
-318.475339
 30
0.0
 11
2898.114937
 21
-318.475339
 31
0.0
  0
LINE
  5
38A4
330
3EE1
100
AcDbEntity
  8
V0-VYPLNE
  6
DASHED
 62
    52
 48
2.0
100
AcDbLine
 10
2836.618407
 20
-98.502301
 30
0.0
 11
2836.618407
 21
-198.822301
 31
0.0
  0
ARC
  5
38A5
330
3EE1
100
AcDbEntity
  8
V0-VYPLNE
  6
DASHED
 62
    52
 48
2.0
100
AcDbCircle
 10
1746.817822
 20
-86.997007
 30
0.0
 40
1174.336947
100
AcDbArc
 50
354.845307
 51
359.438649
  0
LINE
  5
38A6
330
3EE1
100
AcDbEntity
  8
V0-VYPLNE
  6
DASHED
 62
    52
 48
2.0
100
AcDbLine
 10
2876.218407
 20
-203.851723
 30
0.0
 11
2876.218407
 21
-98.502301
 31
0.0
  0
LINE
  5
38A7
330
3EE1
100
AcDbEntity
  8
V0-VYPLNE
  6
DASHED
 62
    52
 48
2.0
100
AcDbLine
 10
2837.317127
 20
-110.548387
 30
0.0
 11
2918.836853
 21
-86.042953
 31
0.0
  0
ARC
  5
38A8
330
3EE1
100
AcDbEntity
  8
V0-VYPLNE
  6
DASHED
 62
    52
 48
2.0
100
AcDbCircle
 10
2876.218407
 20
-45.438377
 30
0.0
 40
158.413346
100
AcDbArc
 50
255.523734
 51
282.123858
  0
LINE
  5
38A9
330
3EE1
100
AcDbEntity
  8
V0-VYPLNE
  6
DASHED
 62
    52
 48
2.0
100
AcDbLine
 10
2843.335783
 20
-200.272641
 30
0.0
 11
2836.575107
 21
-207.027081
 31
0.0
  0
ARC
  5
38AA
330
3EE1
100
AcDbEntity
  8
V0-VYPLNE
  6
DASHED
 62
    52
 48
2.0
100
AcDbCircle
 10
2907.641053
 20
-191.714727
 30
0.0
 40
8.800000000000001
100
AcDbArc
 50
282.123858
 51
354.845307
  0
LINE
  5
38AB
330
3EE1
100
AcDbEntity
  8
V0-VYPLNE
  6
DASHED
 62
    52
 48
2.0
100
AcDbLine
 10
2909.101031
 20
-200.272641
 30
0.0
 11
2915.861707
 21
-207.027081
 31
0.0
  0
ARC
  5
38AC
330
3EE1
100
AcDbEntity
  8
V0-VYPLNE
  6
DASHED
 62
    52
 48
2.0
100
AcDbCircle
 10
2876.218407
 20
-151.566225
 30
0.0
 40
158.413346
100
AcDbArc
 50
77.876142
 51
104.476266
  0
LINE
  5
38AD
330
3EE1
100
AcDbEntity
  8
V0-VYPLNE
  6
DASHED
 62
    52
 48
2.0
100
AcDbLine
 10
2876.218407
 20
6.847121
 30
0.0
 11
2876.218407
 21
-98.502301
 31
0.0
  0
LINE
  5
38AE
330
3EE1
100
AcDbEntity
  8
V0-VYPLNE
  6
DASHED
 62
    52
 48
2.0
100
AcDbLine
 10
2836.618407
 20
-98.502301
 30
0.0
 11
2836.618407
 21
1.817699000000005
 31
0.0
  0
CIRCLE
  5
38AF
330
3EE1
100
AcDbEntity
  8
V0-VYPLNE
  6
DASHED
 62
    52
 48
2.0
100
AcDbCircle
 10
2876.218407
 20
-98.85437400000001
 30
0.0
 40
7.458195
  0
LINE
  5
38B0
330
3EE1
100
AcDbEntity
  8
V0-VYPLNE
  6
DASHED
 62
    52
 48
2.0
100
AcDbLine
 10
2843.335783
 20
3.268039
 30
0.0
 11
2836.575107
 21
10.022479
 31
0.0
  0
ARC
  5
38B1
330
3EE1
100
AcDbEntity
  8
V0-VYPLNE
  6
DASHED
 62
    52
 48
2.0
100
AcDbCircle
 10
1746.817822
 20
-110.007595
 30
0.0
 40
1174.336947
100
AcDbArc
 50
0.561351
 51
5.154693
  0
LINE
  5
38B2
330
3EE1
100
AcDbEntity
  8
V0-VYPLNE
  6
DASHED
 62
    52
 48
2.0
100
AcDbLine
 10
2909.101031
 20
3.268039
 30
0.0
 11
2915.861707
 21
10.022479
 31
0.0
  0
LINE
  5
38B3
330
3EE1
100
AcDbEntity
  8
V0-VYPLNE
  6
DASHED
 62
    52
 48
2.0
100
AcDbLine
 10
2854.321878
 20
121.470738
 30
0.0
 11
2898.114937
 21
121.470738
 31
0.0
  0
LINE
  5
38B4
330
3EE1
100
AcDbEntity
  8
V0-VYPLNE
  6
DASHDOT
 62
    63
 48
2.0
100
AcDbLine
 10
2772.425606
 20
-98.85437400000001
 30
0.0
 11
2954.639912
 21
-98.85437400000001
 31
0.0
  0
LINE
  5
38CE
330
3EE1
100
AcDbEntity
  8
V0-VYPLNE
  6
DASHED
 62
    52
 48
2.0
100
AcDbLine
 10
2797.757892
 20
-14.91717
 30
0.0
 11
2768.196552
 21
-36.878404
 31
0.0
  0
LINE
  5
38CF
330
3EE1
100
AcDbEntity
  8
V0-VYPLNE
  6
DASHED
 62
    52
 48
2.0
100
AcDbLine
 10
2796.999906
 20
-30.820135
 30
0.0
 11
2768.954532
 21
-45.965814
 31
0.0
  0
LINE
  5
38D0
330
3EE1
100
AcDbEntity
  8
V0-VYPLNE
  6
DASHED
 62
    52
 48
2.0
100
AcDbLine
 10
2796.999906
 20
-67.927048
 30
0.0
 11
2768.196552
 21
-70.956186
 31
0.0
  0
LINE
  5
38D1
330
3EE1
100
AcDbEntity
  8
V0-VYPLNE
  6
DASHED
 62
    52
 48
2.0
100
AcDbLine
 10
2796.999906
 20
-86.101865
 30
0.0
 11
2768.196552
 21
-86.85914800000001
 31
0.0
  0
LINE
  5
38D2
330
3EE1
100
AcDbEntity
  8
V0-VYPLNE
  6
DASHED
 62
    52
 48
2.0
100
AcDbLine
 10
2797.757892
 20
-49.752235
 30
0.0
 11
2767.438566
 21
-56.567791
 31
0.0
  0
LINE
  5
38D3
330
3EE1
100
AcDbEntity
  8
V0-VYPLNE
  6
DASHED
 62
    52
 48
2.0
100
AcDbLine
 10
2783.80274
 20
-9.402469999999999
 30
0.0
 11
2808.21094
 21
-9.402469999999999
 31
0.0
  0
LINE
  5
38D4
330
3EE1
100
AcDbEntity
  8
V0-VYPLNE
  6
DASHED
 62
    52
 48
2.0
100
AcDbLine
 10
2797.757892
 20
-149.013105
 30
0.0
 11
2767.438566
 21
-142.19755
 31
0.0
  0
LINE
  5
38D5
330
3EE1
100
AcDbEntity
  8
V0-VYPLNE
  6
DASHED
 62
    52
 48
2.0
100
AcDbLine
 10
2796.999906
 20
-112.663476
 30
0.0
 11
2768.196552
 21
-111.906192
 31
0.0
  0
LINE
  5
38D6
330
3EE1
100
AcDbEntity
  8
V0-VYPLNE
  6
DASHED
 62
    52
 48
2.0
100
AcDbLine
 10
2796.999906
 20
-130.838292
 30
0.0
 11
2768.196552
 21
-127.809155
 31
0.0
  0
LINE
  5
38D7
330
3EE1
100
AcDbEntity
  8
V0-VYPLNE
  6
DASHED
 62
    52
 48
2.0
100
AcDbLine
 10
2796.999906
 20
-167.945205
 30
0.0
 11
2768.954532
 21
-152.799527
 31
0.0
  0
LINE
  5
38D8
330
3EE1
100
AcDbEntity
  8
V0-VYPLNE
  6
DASHED
 62
    52
 48
2.0
100
AcDbLine
 10
2797.757892
 20
-183.848171
 30
0.0
 11
2768.196552
 21
-161.886937
 31
0.0
  0
LINE
  5
38D9
330
3EE1
100
AcDbEntity
  8
V0-VYPLNE
  6
DASHED
 62
    52
 48
2.0
100
AcDbLine
 10
2783.80274
 20
-189.36287
 30
0.0
 11
2808.21094
 21
-189.36287
 31
0.0
  0
DIMENSION
  5
38DA
330
3EE1
100
AcDbEntity
  8
V0-VYPLNE
  6
CONTINUOUS
 62
    41
100
AcDbDimension
  2
*D5
 10
2692.884483000031
 20
-189.36287
 30
0.0
 11
2692.884483
 21
-99.894113
 31
0.0
 70
   160
  1
%%c<>
  3
ED30
100
AcDbAlignedDimension
 13
2786.500777
 23
-9.402469999999999
 33
0.0
 14
2786.500777
 24
-189.36287
 34
0.0
 50
90.0
100
AcDbRotatedDimension
1001
ACAD
1000
DSTYLE
1002
{
1070
    41
1040
30.0
1070
   140
1040
30.0
1002
}
  0
LINE
  5
38DB
330
3EE1
100
AcDbEntity
  8
V0-VYPLNE
  6
DASHED
 62
    52
 48
2.0
100
AcDbLine
 10
2768.01674
 20
-99.38267000000001
 30
0.0
 11
2768.01674
 21
-173.57687
 31
0.0
  0
ARC
  5
38DC
330
3EE1
100
AcDbEntity
  8
V0-VYPLNE
  6
DASHED
 62
    52
 48
2.0
100
AcDbCircle
 10
2783.80274
 20
-173.57687
 30
0.0
 40
15.786
100
AcDbArc
 50
180.0
 51
270.0
  0
LINE
  5
38DD
330
3EE1
100
AcDbEntity
  8
V0-VYPLNE
  6
DASHED
 62
    52
 48
2.0
100
AcDbLine
 10
2768.01674
 20
-99.38267000000001
 30
0.0
 11
2768.01674
 21
-25.18847
 31
0.0
  0
ARC
  5
38DE
330
3EE1
100
AcDbEntity
  8
V0-VYPLNE
  6
DASHED
 62
    52
 48
2.0
100
AcDbCircle
 10
2783.80274
 20
-25.18847
 30
0.0
 40
15.786
100
AcDbArc
 50
90.0
 51
180.0
  0
LINE
  5
38DF
330
3EE1
100
AcDbEntity
  8
V0-VYPLNE
  6
DASHED
 62
    52
 48
2.0
100
AcDbLine
 10
2831.218384
 20
-181.46987
 30
0.0
 11
2831.218384
 21
-99.38267000000001
 31
0.0
  0
LINE
  5
38E0
330
3EE1
100
AcDbEntity
  8
V0-VYPLNE
  6
DASHED
 62
    52
 48
2.0
100
AcDbLine
 10
2798.01014
 20
-99.38267000000001
 30
0.0
 11
2798.01014
 21
-189.36287
 31
0.0
  0
LINE
  5
38E1
330
3EE1
100
AcDbEntity
  8
V0-VYPLNE
  6
DASHED
 62
    52
 48
2.0
100
AcDbLine
 10
2808.21094
 20
-112.663476
 30
0.0
 11
2830.460404
 21
-112.663476
 31
0.0
  0
LINE
  5
38E2
330
3EE1
100
AcDbEntity
  8
V0-VYPLNE
  6
DASHED
 62
    52
 48
2.0
100
AcDbLine
 10
2808.21094
 20
-130.838292
 30
0.0
 11
2831.218384
 21
-130.838292
 31
0.0
  0
LINE
  5
38E3
330
3EE1
100
AcDbEntity
  8
V0-VYPLNE
  6
DASHED
 62
    52
 48
2.0
100
AcDbLine
 10
2808.21094
 20
-149.013105
 30
0.0
 11
2830.460404
 21
-149.013105
 31
0.0
  0
LINE
  5
38E4
330
3EE1
100
AcDbEntity
  8
V0-VYPLNE
  6
DASHED
 62
    52
 48
2.0
100
AcDbLine
 10
2808.21094
 20
-167.945205
 30
0.0
 11
2831.218384
 21
-167.945205
 31
0.0
  0
LINE
  5
38E5
330
3EE1
100
AcDbEntity
  8
V0-VYPLNE
  6
DASHED
 62
    52
 48
2.0
100
AcDbLine
 10
2808.21094
 20
-189.36287
 30
0.0
 11
2823.325384
 21
-189.36287
 31
0.0
  0
LINE
  5
38E6
330
3EE1
100
AcDbEntity
  8
V0-VYPLNE
  6
DASHED
 62
    52
 48
2.0
100
AcDbLine
 10
2808.21094
 20
-183.848171
 30
0.0
 11
2831.218384
 21
-183.848171
 31
0.0
  0
LINE
  5
38E7
330
3EE1
100
AcDbEntity
  8
V0-VYPLNE
  6
DASHED
 62
    52
 48
2.0
100
AcDbLine
 10
2796.999906
 20
-167.945205
 30
0.0
 11
2808.21094
 21
-167.945205
 31
0.0
  0
LINE
  5
38E8
330
3EE1
100
AcDbEntity
  8
V0-VYPLNE
  6
DASHED
 62
    52
 48
2.0
100
AcDbLine
 10
2797.757892
 20
-183.848171
 30
0.0
 11
2808.21094
 21
-183.848171
 31
0.0
  0
LINE
  5
38E9
330
3EE1
100
AcDbEntity
  8
V0-VYPLNE
  6
DASHED
 62
    52
 48
2.0
100
AcDbLine
 10
2801.547805
 20
-130.838292
 30
0.0
 11
2808.21094
 21
-130.838292
 31
0.0
  0
LINE
  5
38EA
330
3EE1
100
AcDbEntity
  8
V0-VYPLNE
  6
DASHED
 62
    52
 48
2.0
100
AcDbLine
 10
2796.999906
 20
-112.663476
 30
0.0
 11
2808.21094
 21
-112.663476
 31
0.0
  0
LINE
  5
38EB
330
3EE1
100
AcDbEntity
  8
V0-VYPLNE
  6
DASHED
 62
    52
 48
2.0
100
AcDbLine
 10
2797.757892
 20
-149.013105
 30
0.0
 11
2808.21094
 21
-149.013105
 31
0.0
  0
LINE
  5
38EC
330
3EE1
100
AcDbEntity
  8
V0-VYPLNE
  6
DASHED
 62
    52
 48
2.0
100
AcDbLine
 10
2796.999906
 20
-130.838292
 30
0.0
 11
2801.547805
 21
-130.838292
 31
0.0
  0
ARC
  5
38ED
330
3EE1
100
AcDbEntity
  8
V0-VYPLNE
  6
DASHED
 62
    52
 48
2.0
100
AcDbCircle
 10
2823.325384
 20
-181.46987
 30
0.0
 40
7.893
100
AcDbArc
 50
270.0
 51
0.0
  0
LINE
  5
38EE
330
3EE1
100
AcDbEntity
  8
V0-VYPLNE
  6
DASHED
 62
    52
 48
2.0
100
AcDbLine
 10
2808.21094
 20
-14.91717
 30
0.0
 11
2831.218384
 21
-14.91717
 31
0.0
  0
LINE
  5
38EF
330
3EE1
100
AcDbEntity
  8
V0-VYPLNE
  6
DASHED
 62
    52
 48
2.0
100
AcDbLine
 10
2808.21094
 20
-9.402469999999999
 30
0.0
 11
2823.325384
 21
-9.402469999999999
 31
0.0
  0
LINE
  5
38F0
330
3EE1
100
AcDbEntity
  8
V0-VYPLNE
  6
DASHED
 62
    52
 48
2.0
100
AcDbLine
 10
2808.21094
 20
-30.820135
 30
0.0
 11
2831.218384
 21
-30.820135
 31
0.0
  0
LINE
  5
38F1
330
3EE1
100
AcDbEntity
  8
V0-VYPLNE
  6
DASHED
 62
    52
 48
2.0
100
AcDbLine
 10
2808.21094
 20
-49.752235
 30
0.0
 11
2830.460404
 21
-49.752235
 31
0.0
  0
LINE
  5
38F2
330
3EE1
100
AcDbEntity
  8
V0-VYPLNE
  6
DASHED
 62
    52
 48
2.0
100
AcDbLine
 10
2808.21094
 20
-67.927048
 30
0.0
 11
2831.218384
 21
-67.927048
 31
0.0
  0
LINE
  5
38F3
330
3EE1
100
AcDbEntity
  8
V0-VYPLNE
  6
DASHED
 62
    52
 48
2.0
100
AcDbLine
 10
2808.21094
 20
-86.101865
 30
0.0
 11
2830.460404
 21
-86.101865
 31
0.0
  0
LINE
  5
38F4
330
3EE1
100
AcDbEntity
  8
V0-VYPLNE
  6
DASHED
 62
    52
 48
2.0
100
AcDbLine
 10
2798.01014
 20
-99.38267000000001
 30
0.0
 11
2798.01014
 21
-9.402469999999994
 31
0.0
  0
LINE
  5
38F5
330
3EE1
100
AcDbEntity
  8
V0-VYPLNE
  6
DASHED
 62
    52
 48
2.0
100
AcDbLine
 10
2801.547805
 20
-67.927048
 30
0.0
 11
2808.21094
 21
-67.927048
 31
0.0
  0
LINE
  5
38F6
330
3EE1
100
AcDbEntity
  8
V0-VYPLNE
  6
DASHED
 62
    52
 48
2.0
100
AcDbLine
 10
2796.999906
 20
-86.101865
 30
0.0
 11
2808.21094
 21
-86.101865
 31
0.0
  0
LINE
  5
38F7
330
3EE1
100
AcDbEntity
  8
V0-VYPLNE
  6
DASHED
 62
    52
 48
2.0
100
AcDbLine
 10
2796.999906
 20
-67.927048
 30
0.0
 11
2801.547805
 21
-67.927048
 31
0.0
  0
LINE
  5
38F8
330
3EE1
100
AcDbEntity
  8
V0-VYPLNE
  6
DASHED
 62
    52
 48
2.0
100
AcDbLine
 10
2797.757892
 20
-14.91717
 30
0.0
 11
2808.21094
 21
-14.91717
 31
0.0
  0
LINE
  5
38F9
330
3EE1
100
AcDbEntity
  8
V0-VYPLNE
  6
DASHED
 62
    52
 48
2.0
100
AcDbLine
 10
2797.757892
 20
-49.752235
 30
0.0
 11
2808.21094
 21
-49.752235
 31
0.0
  0
LINE
  5
38FA
330
3EE1
100
AcDbEntity
  8
V0-VYPLNE
  6
DASHED
 62
    52
 48
2.0
100
AcDbLine
 10
2796.999906
 20
-30.820135
 30
0.0
 11
2808.21094
 21
-30.820135
 31
0.0
  0
LINE
  5
38FB
330
3EE1
100
AcDbEntity
  8
V0-VYPLNE
  6
DASHED
 62
    52
 48
2.0
100
AcDbLine
 10
2831.218384
 20
-17.29547
 30
0.0
 11
2831.218384
 21
-99.38266999999999
 31
0.0
  0
ARC
  5
38FC
330
3EE1
100
AcDbEntity
  8
V0-VYPLNE
  6
DASHED
 62
    52
 48
2.0
100
AcDbCircle
 10
2823.325384
 20
-17.29547
 30
0.0
 40
7.893
100
AcDbArc
 50
0.0
 51
90.0
  0
LINE
  5
3921
330
3EE1
100
AcDbEntity
  8
V0-VYPLNE
  6
DASHED
 62
    52
100
AcDbLine
 10
2782.605679
 20
-218.699474
 30
0.0
 11
2804.911821
 21
-207.373333
 31
0.0
  0
LINE
  5
3922
330
3EE1
100
AcDbEntity
  8
V0-VYPLNE
  6
DASHED
 62
    52
100
AcDbLine
 10
2782.605679
 20
-222.585066
 30
0.0
 11
2808.376381
 21
-209.499764
 31
0.0
  0
LINE
  5
3923
330
3EE1
100
AcDbEntity
  8
V0-VYPLNE
  6
DASHED
 62
    52
100
AcDbLine
 10
2786.070239
 20
-315.07
 30
0.0
 11
2803.437553
 21
-315.07
 31
0.0
  0
LINE
  5
3924
330
3EE1
100
AcDbEntity
  8
V0-VYPLNE
  6
DASHED
 62
    52
100
AcDbLine
 10
2782.605679
 20
-318.53456
 30
0.0
 11
2803.437553
 21
-318.53456
 31
0.0
  0
LINE
  5
3925
330
3EE1
100
AcDbEntity
  8
V0-VYPLNE
  6
DASHED
 62
    52
100
AcDbLine
 10
2782.605679
 20
119.76922
 30
0.0
 11
2803.437553
 21
119.76922
 31
0.0
  0
LINE
  5
3926
330
3EE1
100
AcDbEntity
  8
V0-VYPLNE
  6
DASHED
 62
    52
100
AcDbLine
 10
2786.070239
 20
116.30466
 30
0.0
 11
2803.437553
 21
116.30466
 31
0.0
  0
LINE
  5
3927
330
3EE1
100
AcDbEntity
  8
V0-VYPLNE
  6
DASHED
 62
    52
100
AcDbLine
 10
2782.605679
 20
23.819726
 30
0.0
 11
2808.376381
 21
10.734423
 31
0.0
  0
LINE
  5
3928
330
3EE1
100
AcDbEntity
  8
V0-VYPLNE
  6
DASHED
 62
    52
100
AcDbLine
 10
2782.605679
 20
19.934134
 30
0.0
 11
2804.911821
 21
8.607991999999999
 31
0.0
  0
LINE
  5
3929
330
3EE1
100
AcDbEntity
  8
V0-VYPLNE
  6
DASHED
 62
    52
100
AcDbLine
 10
2782.605679
 20
-319.38223
 30
0.0
 11
2782.605679
 21
-218.699474
 31
0.0
  0
LINE
  5
392A
330
3EE1
100
AcDbEntity
  8
V0-VYPLNE
  6
DASHED
 62
    52
100
AcDbLine
 10
2786.070239
 20
-315.07
 30
0.0
 11
2786.070239
 21
-220.64227
 31
0.0
  0
LINE
  5
392C
330
3EE1
100
AcDbEntity
  8
V0-VYPLNE
  6
DASHED
 62
    52
100
AcDbLine
 10
2782.605679
 20
-319.38223
 30
0.0
 11
2782.605679
 21
-318.53456
 31
0.0
  0
LINE
  5
392D
330
3EE1
100
AcDbEntity
  8
V0-VYPLNE
  6
DASHED
 62
    52
100
AcDbLine
 10
2786.070239
 20
116.30466
 30
0.0
 11
2786.070239
 21
21.87693
 31
0.0
  0
LINE
  5
392E
330
3EE1
100
AcDbEntity
  8
V0-VYPLNE
  6
DASHED
 62
    52
100
AcDbLine
 10
2782.605679
 20
116.30466
 30
0.0
 11
2782.605679
 21
19.934134
 31
0.0
  0
LINE
  5
392F
330
3EE1
100
AcDbEntity
  8
V0-VYPLNE
  6
DASHED
 62
    52
100
AcDbLine
 10
2782.605679
 20
120.61689
 30
0.0
 11
2782.605679
 21
119.76922
 31
0.0
  0
LINE
  5
3930
330
3EE1
100
AcDbEntity
  8
V0-VYPLNE
  6
DASHED
 62
    52
100
AcDbLine
 10
2808.376381
 20
10.734423
 30
0.0
 11
2808.376381
 21
-0.6644330000000007
 31
0.0
  0
LINE
  5
3931
330
3EE1
100
AcDbEntity
  8
V0-VYPLNE
  6
DASHED
 62
    52
100
AcDbLine
 10
2804.911821
 20
8.607991999999999
 30
0.0
 11
2804.911821
 21
-0.6644330000000007
 31
0.0
  0
LINE
  5
3932
330
3EE1
100
AcDbEntity
  8
V0-VYPLNE
  6
DASHED
 62
    52
100
AcDbLine
 10
2804.911821
 20
-207.373333
 30
0.0
 11
2804.911821
 21
-198.100908
 31
0.0
  0
LINE
  5
3933
330
3EE1
100
AcDbEntity
  8
V0-VYPLNE
  6
DASHED
 62
    52
100
AcDbLine
 10
2808.376381
 20
-209.499764
 30
0.0
 11
2808.376381
 21
-198.100908
 31
0.0
  0
DIMENSION
  5
399E
330
3EE1
100
AcDbEntity
  8
V0-VYPLNE
  6
CONTINUOUS
 62
    41
100
AcDbDimension
  2
*D6
 10
3074.865695999935
 20
-368.047445
 30
0.0
 11
3057.865695999935
 21
-99.38267000000002
 31
0.0
 70
    32
  1
%%c<>
  3
ED30
100
AcDbAlignedDimension
 13
2929.709164
 23
169.282105
 33
0.0
 14
2929.709164
 24
-368.047445
 34
0.0
 50
90.0
100
AcDbRotatedDimension
1001
ACAD
1000
DSTYLE
1002
{
1070
    41
1040
30.0
1070
   140
1040
30.0
1002
}
  0
DIMENSION
  5
39AB
330
3EE1
100
AcDbEntity
  8
V0-VYPLNE
  6
CONTINUOUS
 62
    41
100
AcDbDimension
  2
*D7
 10
3014.752803999931
 20
-349.54357
 30
0.0
 11
2997.752803999931
 21
-99.38266999999999
 31
0.0
 70
    32
  1
%%c<>
  3
ED30
100
AcDbAlignedDimension
 13
2950.031096
 23
150.77823
 33
0.0
 14
2950.031096
 24
-349.54357
 34
0.0
 50
90.0
100
AcDbRotatedDimension
1001
ACAD
1000
DSTYLE
1002
{
1070
    41
1040
30.0
1070
   140
1040
30.0
1002
}
  0
DIMENSION
  5
39EF
330
3EE1
100
AcDbEntity
  8
V0-VYPLNE
  6
CONTINUOUS
 62
    41
100
AcDbDimension
  2
*D8
 10
2930.709164
 20
-423.5777610000223
 30
0.0
 11
2840.910164
 21
-406.5777610000223
 31
0.0
 70
    32
  3
ED30
100
AcDbAlignedDimension
 13
2751.111164
 23
-368.047445
 33
0.0
 14
2930.709164
 24
-368.047445
 34
0.0
100
AcDbRotatedDimension
1001
ACAD
1000
DSTYLE
1002
{
1070
    41
1040
30.0
1070
   140
1040
30.0
1002
}
  0
LINE
  5
3A06
330
3EE1
100
AcDbEntity
  8
V0-OBRYS
  6
CONTINUOUS
 62
    90
100
AcDbLine
 10
2754.654464
 20
-1042.373508
 30
0.0
 11
2754.654464
 21
-1086.038733
 31
0.0
  0
LINE
  5
3A07
330
3EE1
100
AcDbEntity
  8
V0-OBRYS
  6
CONTINUOUS
 62
    90
100
AcDbLine
 10
2751.111164
 20
-817.373958
 30
0.0
 11
2751.111164
 21
-1086.038733
 31
0.0
  0
LINE
  5
3A08
330
3EE1
100
AcDbEntity
  8
V0-OBRYS
  6
CONTINUOUS
 62
    90
100
AcDbLine
 10
2929.709164
 20
-817.373958
 30
0.0
 11
2929.709164
 21
-1086.038733
 31
0.0
  0
LINE
  5
3A09
330
3EE1
100
AcDbEntity
  8
V0-OBRYS
  6
CONTINUOUS
 62
    90
100
AcDbLine
 10
2926.165864
 20
-1042.373508
 30
0.0
 11
2926.165864
 21
-1086.038733
 31
0.0
  0
LINE
  5
3A0A
330
3EE1
100
AcDbEntity
  8
V0-VYPLNE
  6
DASHED
 62
    52
100
AcDbLine
 10
2786.070239
 20
-601.686628
 30
0.0
 11
2786.070239
 21
-696.114358
 31
0.0
  0
LINE
  5
3A0B
330
3EE1
100
AcDbEntity
  8
V0-VYPLNE
  6
DASHED
 62
    52
100
AcDbLine
 10
2782.605679
 20
-601.686628
 30
0.0
 11
2782.605679
 21
-698.057154
 31
0.0
  0
LINE
  5
3A0C
330
3EE1
100
AcDbEntity
  8
V0-VYPLNE
  6
DASHED
 62
    52
 48
2.0
100
AcDbLine
 10
2915.861707
 20
-707.968808
 30
0.0
 11
2898.114937
 21
-596.52055
 31
0.0
  0
LINE
  5
3A0D
330
3EE1
100
AcDbEntity
  8
V0-VYPLNE
  6
DASHED
 62
    52
 48
2.0
100
AcDbLine
 10
2836.575107
 20
-707.968808
 30
0.0
 11
2854.321878
 21
-596.52055
 31
0.0
  0
LINE
  5
3A0E
330
3EE1
100
AcDbEntity
  8
V0-OBRYS
  6
CONTINUOUS
 62
    90
100
AcDbLine
 10
2751.111164
 20
-817.373958
 30
0.0
 11
2751.111164
 21
-548.7091830000001
 31
0.0
  0
LINE
  5
3A0F
330
3EE1
100
AcDbEntity
  8
V0-OBRYS
  6
CONTINUOUS
 62
    90
100
AcDbLine
 10
2929.709164
 20
-817.373958
 30
0.0
 11
2929.709164
 21
-548.7091830000001
 31
0.0
  0
LINE
  5
3A10
330
3EE1
100
AcDbEntity
  8
V0-VYPLNE
  6
DASHED
 62
    52
 48
2.0
100
AcDbLine
 10
2854.321878
 20
-1036.466627
 30
0.0
 11
2898.114937
 21
-1036.466627
 31
0.0
  0
ARC
  5
3A11
330
3EE1
100
AcDbEntity
  8
V0-VYPLNE
  6
DASHED
 62
    52
 48
2.0
100
AcDbCircle
 10
2876.218407
 20
-763.429665
 30
0.0
 40
158.413346
100
AcDbArc
 50
255.523734
 51
282.123858
  0
ARC
  5
3A12
330
3EE1
100
AcDbEntity
  8
V0-VYPLNE
  6
DASHED
 62
    52
 48
2.0
100
AcDbCircle
 10
2876.218407
 20
-869.557512
 30
0.0
 40
158.413346
100
AcDbArc
 50
77.876142
 51
104.476266
  0
LINE
  5
3A13
330
3EE1
100
AcDbEntity
  8
V0-VYPLNE
  6
DASHED
 62
    52
 48
2.0
100
AcDbLine
 10
2837.317127
 20
-828.539675
 30
0.0
 11
2918.836853
 21
-804.03424
 31
0.0
  0
LINE
  5
3A14
330
3EE1
100
AcDbEntity
  8
V0-VYPLNE
  6
DASHDOT
 62
    63
 48
2.0
100
AcDbLine
 10
2772.425606
 20
-816.845662
 30
0.0
 11
2954.639912
 21
-816.845662
 31
0.0
  0
LINE
  5
3A15
330
3EE1
100
AcDbEntity
  8
V0-OBRYS
  6
CONTINUOUS
 62
    90
100
AcDbLine
 10
2926.165864
 20
-1042.373508
 30
0.0
 11
2754.654464
 21
-1042.373508
 31
0.0
  0
LINE
  5
3A16
330
3EE1
100
AcDbEntity
  8
V0-VYPLNE
  6
DASHED
 62
    52
 48
2.0
100
AcDbLine
 10
2796.999906
 20
-885.936493
 30
0.0
 11
2768.954532
 21
-870.790814
 31
0.0
  0
LINE
  5
3A17
330
3EE1
100
AcDbEntity
  8
V0-VYPLNE
  6
DASHED
 62
    52
 48
2.0
100
AcDbLine
 10
2768.01674
 20
-817.373958
 30
0.0
 11
2768.01674
 21
-891.568158
 31
0.0
  0
LINE
  5
3A18
330
3EE1
100
AcDbEntity
  8
V0-VYPLNE
  6
DASHED
 62
    52
 48
2.0
100
AcDbLine
 10
2798.01014
 20
-817.373958
 30
0.0
 11
2798.01014
 21
-907.354158
 31
0.0
  0
LINE
  5
3A19
330
3EE1
100
AcDbEntity
  8
V0-VYPLNE
  6
DASHED
 62
    52
 48
2.0
100
AcDbLine
 10
2876.218407
 20
-921.8430100000001
 30
0.0
 11
2876.218407
 21
-816.493589
 31
0.0
  0
LINE
  5
3A1A
330
3EE1
100
AcDbEntity
  8
V0-VYPLNE
  6
DASHED
 62
    52
 48
2.0
100
AcDbLine
 10
2836.618407
 20
-816.493589
 30
0.0
 11
2836.618407
 21
-916.813589
 31
0.0
  0
LINE
  5
3A1B
330
3EE1
100
AcDbEntity
  8
V0-VYPLNE
  6
DASHED
 62
    52
 48
2.0
100
AcDbLine
 10
2831.218384
 20
-899.461158
 30
0.0
 11
2831.218384
 21
-817.373958
 31
0.0
  0
LINE
  5
3A1C
330
3EE1
100
AcDbEntity
  8
V0-VYPLNE
  6
DASHED
 62
    52
100
AcDbLine
 10
2782.605679
 20
-1037.373518
 30
0.0
 11
2782.605679
 21
-936.690762
 31
0.0
  0
LINE
  5
3A1D
330
3EE1
100
AcDbEntity
  8
V0-VYPLNE
  6
DASHED
 62
    52
100
AcDbLine
 10
2786.070239
 20
-1033.061288
 30
0.0
 11
2786.070239
 21
-938.633558
 31
0.0
  0
LINE
  5
3A1E
330
3EE1
100
AcDbEntity
  8
V0-VYPLNE
  6
DASHED
 62
    52
 48
2.0
100
AcDbLine
 10
2836.575107
 20
-925.018369
 30
0.0
 11
2854.321878
 21
-1036.466627
 31
0.0
  0
LINE
  5
3A1F
330
3EE1
100
AcDbEntity
  8
V0-VYPLNE
  6
DASHDOT
 62
    63
 48
2.0
100
AcDbLine
 10
2733.394664
 20
-1067.534858
 30
0.0
 11
2784.144988
 21
-1067.534858
 31
0.0
  0
LINE
  5
3A21
330
3EE1
100
AcDbEntity
  8
V0-VYPLNE
  6
DASHED
 62
    52
100
AcDbLine
 10
2782.605679
 20
-1037.373518
 30
0.0
 11
2782.605679
 21
-1036.525848
 31
0.0
  0
LINE
  5
3A22
330
3EE1
100
AcDbEntity
  8
V0-VYPLNE
  6
DASHED
 62
    52
100
AcDbLine
 10
2786.070239
 20
-1033.061288
 30
0.0
 11
2803.437553
 21
-1033.061288
 31
0.0
  0
LINE
  5
3A23
330
3EE1
100
AcDbEntity
  8
V0-VYPLNE
  6
DASHED
 62
    52
100
AcDbLine
 10
2782.605679
 20
-1036.525848
 30
0.0
 11
2803.437553
 21
-1036.525848
 31
0.0
  0
ARC
  5
3A24
330
3EE1
100
AcDbEntity
  8
V0-VYPLNE
  6
DASHED
 62
    52
 48
2.0
100
AcDbCircle
 10
2783.80274
 20
-891.568158
 30
0.0
 40
15.786
100
AcDbArc
 50
180.0
 51
270.0
  0
LINE
  5
3A25
330
3EE1
100
AcDbEntity
  8
V0-VYPLNE
  6
DASHED
 62
    52
 48
2.0
100
AcDbLine
 10
2797.757892
 20
-901.839459
 30
0.0
 11
2768.196552
 21
-879.8782240000001
 31
0.0
  0
LINE
  5
3A26
330
3EE1
100
AcDbEntity
  8
V0-VYPLNE
  6
DASHED
 62
    52
100
AcDbLine
 10
2808.376381
 20
-927.491051
 30
0.0
 11
2808.376381
 21
-907.354158
 31
0.0
  0
LINE
  5
3A27
330
3EE1
100
AcDbEntity
  8
V0-VYPLNE
  6
DASHED
 62
    52
100
AcDbLine
 10
2782.605679
 20
-936.690762
 30
0.0
 11
2804.911821
 21
-925.36462
 31
0.0
  0
LINE
  5
3A28
330
3EE1
100
AcDbEntity
  8
V0-VYPLNE
  6
DASHED
 62
    52
100
AcDbLine
 10
2782.605679
 20
-940.576354
 30
0.0
 11
2808.376381
 21
-927.491051
 31
0.0
  0
LINE
  5
3A29
330
3EE1
100
AcDbEntity
  8
V0-VYPLNE
  6
DASHED
 62
    52
 48
2.0
100
AcDbLine
 10
2843.335783
 20
-918.263929
 30
0.0
 11
2836.575107
 21
-925.018369
 31
0.0
  0
ARC
  5
3A2A
330
3EE1
100
AcDbEntity
  8
V0-VYPLNE
  6
DASHED
 62
    52
 48
2.0
100
AcDbCircle
 10
2823.325384
 20
-899.461158
 30
0.0
 40
7.893
100
AcDbArc
 50
270.0
 51
0.0
  0
LINE
  5
3A2B
330
3EE1
100
AcDbEntity
  8
V0-VYPLNE
  6
DASHED
 62
    52
 48
2.0
100
AcDbLine
 10
2808.21094
 20
-901.839459
 30
0.0
 11
2831.218384
 21
-901.839459
 31
0.0
  0
LINE
  5
3A2C
330
3EE1
100
AcDbEntity
  8
V0-VYPLNE
  6
DASHED
 62
    52
 48
2.0
100
AcDbLine
 10
2808.21094
 20
-907.354158
 30
0.0
 11
2823.325384
 21
-907.354158
 31
0.0
  0
LINE
  5
3A2D
330
3EE1
100
AcDbEntity
  8
V0-VYPLNE
  6
DASHED
 62
    52
 48
2.0
100
AcDbLine
 10
2797.757892
 20
-901.839459
 30
0.0
 11
2808.21094
 21
-901.839459
 31
0.0
  0
LINE
  5
3A2E
330
3EE1
100
AcDbEntity
  8
V0-VYPLNE
  6
DASHED
 62
    52
100
AcDbLine
 10
2804.911821
 20
-925.36462
 30
0.0
 11
2804.911821
 21
-907.354158
 31
0.0
  0
LINE
  5
3A2F
330
3EE1
100
AcDbEntity
  8
V0-VYPLNE
  6
DASHED
 62
    52
 48
2.0
100
AcDbLine
 10
2783.80274
 20
-907.354158
 30
0.0
 11
2808.21094
 21
-907.354158
 31
0.0
  0
LINE
  5
3A30
330
3EE1
100
AcDbEntity
  8
V0-VYPLNE
  6
DASHED
 62
    52
 48
2.0
100
AcDbLine
 10
2808.21094
 20
-885.936493
 30
0.0
 11
2831.218384
 21
-885.936493
 31
0.0
  0
LINE
  5
3A31
330
3EE1
100
AcDbEntity
  8
V0-VYPLNE
  6
DASHED
 62
    52
 48
2.0
100
AcDbLine
 10
2796.999906
 20
-885.936493
 30
0.0
 11
2808.21094
 21
-885.936493
 31
0.0
  0
LINE
  5
3A32
330
3EE1
100
AcDbEntity
  8
V0-VYPLNE
  6
DASHED
 62
    52
 48
2.0
100
AcDbLine
 10
2797.757892
 20
-767.743523
 30
0.0
 11
2767.438566
 21
-774.559079
 31
0.0
  0
LINE
  5
3A33
330
3EE1
100
AcDbEntity
  8
V0-VYPLNE
  6
DASHED
 62
    52
 48
2.0
100
AcDbLine
 10
2768.01674
 20
-817.373958
 30
0.0
 11
2768.01674
 21
-743.179758
 31
0.0
  0
LINE
  5
3A34
330
3EE1
100
AcDbEntity
  8
V0-VYPLNE
  6
DASHED
 62
    52
 48
2.0
100
AcDbLine
 10
2798.01014
 20
-817.373958
 30
0.0
 11
2798.01014
 21
-727.3937580000001
 31
0.0
  0
LINE
  5
3A35
330
3EE1
100
AcDbEntity
  8
V0-VYPLNE
  6
DASHED
 62
    52
 48
2.0
100
AcDbLine
 10
2876.218407
 20
-711.144167
 30
0.0
 11
2876.218407
 21
-816.493589
 31
0.0
  0
LINE
  5
3A36
330
3EE1
100
AcDbEntity
  8
V0-VYPLNE
  6
DASHED
 62
    52
 48
2.0
100
AcDbLine
 10
2836.618407
 20
-816.493589
 30
0.0
 11
2836.618407
 21
-716.173589
 31
0.0
  0
LINE
  5
3A37
330
3EE1
100
AcDbEntity
  8
V0-VYPLNE
  6
DASHED
 62
    52
 48
2.0
100
AcDbLine
 10
2831.218384
 20
-735.286758
 30
0.0
 11
2831.218384
 21
-817.373958
 31
0.0
  0
LINE
  5
3A38
330
3EE1
100
AcDbEntity
  8
V0-VYPLNE
  6
DASHED
 62
    52
 48
2.0
100
AcDbLine
 10
2796.999906
 20
-785.918336
 30
0.0
 11
2768.196552
 21
-788.9474740000001
 31
0.0
  0
LINE
  5
3A39
330
3EE1
100
AcDbEntity
  8
V0-VYPLNE
  6
DASHED
 62
    52
 48
2.0
100
AcDbLine
 10
2796.999906
 20
-804.093153
 30
0.0
 11
2768.196552
 21
-804.850436
 31
0.0
  0
LINE
  5
3A3A
330
3EE1
100
AcDbEntity
  8
V0-VYPLNE
  6
DASHED
 62
    52
 48
2.0
100
AcDbLine
 10
2797.757892
 20
-867.0043930000001
 30
0.0
 11
2767.438566
 21
-860.188837
 31
0.0
  0
LINE
  5
3A3B
330
3EE1
100
AcDbEntity
  8
V0-VYPLNE
  6
DASHED
 62
    52
 48
2.0
100
AcDbLine
 10
2796.999906
 20
-830.654763
 30
0.0
 11
2768.196552
 21
-829.89748
 31
0.0
  0
LINE
  5
3A3C
330
3EE1
100
AcDbEntity
  8
V0-VYPLNE
  6
DASHED
 62
    52
 48
2.0
100
AcDbLine
 10
2796.999906
 20
-848.82958
 30
0.0
 11
2768.196552
 21
-845.800442
 31
0.0
  0
CIRCLE
  5
3A3D
330
3EE1
100
AcDbEntity
  8
V0-VYPLNE
  6
DASHED
 62
    52
 48
2.0
100
AcDbCircle
 10
2876.218407
 20
-816.845662
 30
0.0
 40
7.458195
  0
LINE
  5
3A3E
330
3EE1
100
AcDbEntity
  8
V0-VYPLNE
  6
DASHED
 62
    52
 48
2.0
100
AcDbLine
 10
2808.21094
 20
-867.0043930000001
 30
0.0
 11
2830.460404
 21
-867.0043930000001
 31
0.0
  0
LINE
  5
3A3F
330
3EE1
100
AcDbEntity
  8
V0-VYPLNE
  6
DASHED
 62
    52
 48
2.0
100
AcDbLine
 10
2808.21094
 20
-848.82958
 30
0.0
 11
2831.218384
 21
-848.82958
 31
0.0
  0
LINE
  5
3A40
330
3EE1
100
AcDbEntity
  8
V0-VYPLNE
  6
DASHED
 62
    52
 48
2.0
100
AcDbLine
 10
2801.547805
 20
-848.82958
 30
0.0
 11
2808.21094
 21
-848.82958
 31
0.0
  0
LINE
  5
3A41
330
3EE1
100
AcDbEntity
  8
V0-VYPLNE
  6
DASHED
 62
    52
 48
2.0
100
AcDbLine
 10
2797.757892
 20
-867.0043930000001
 30
0.0
 11
2808.21094
 21
-867.0043930000001
 31
0.0
  0
LINE
  5
3A42
330
3EE1
100
AcDbEntity
  8
V0-VYPLNE
  6
DASHED
 62
    52
 48
2.0
100
AcDbLine
 10
2796.999906
 20
-848.82958
 30
0.0
 11
2801.547805
 21
-848.82958
 31
0.0
  0
LINE
  5
3A43
330
3EE1
100
AcDbEntity
  8
V0-VYPLNE
  6
DASHED
 62
    52
 48
2.0
100
AcDbLine
 10
2808.21094
 20
-830.654763
 30
0.0
 11
2830.460404
 21
-830.654763
 31
0.0
  0
LINE
  5
3A44
330
3EE1
100
AcDbEntity
  8
V0-VYPLNE
  6
DASHED
 62
    52
 48
2.0
100
AcDbLine
 10
2796.999906
 20
-830.654763
 30
0.0
 11
2808.21094
 21
-830.654763
 31
0.0
  0
LINE
  5
3A45
330
3EE1
100
AcDbEntity
  8
V0-VYPLNE
  6
DASHED
 62
    52
 48
2.0
100
AcDbLine
 10
2808.21094
 20
-804.093153
 30
0.0
 11
2830.460404
 21
-804.093153
 31
0.0
  0
LINE
  5
3A46
330
3EE1
100
AcDbEntity
  8
V0-VYPLNE
  6
DASHED
 62
    52
 48
2.0
100
AcDbLine
 10
2796.999906
 20
-804.093153
 30
0.0
 11
2808.21094
 21
-804.093153
 31
0.0
  0
LINE
  5
3A47
330
3EE1
100
AcDbEntity
  8
V0-VYPLNE
  6
DASHED
 62
    52
 48
2.0
100
AcDbLine
 10
2808.21094
 20
-785.918336
 30
0.0
 11
2831.218384
 21
-785.918336
 31
0.0
  0
LINE
  5
3A48
330
3EE1
100
AcDbEntity
  8
V0-VYPLNE
  6
DASHED
 62
    52
 48
2.0
100
AcDbLine
 10
2801.547805
 20
-785.918336
 30
0.0
 11
2808.21094
 21
-785.918336
 31
0.0
  0
LINE
  5
3A49
330
3EE1
100
AcDbEntity
  8
V0-VYPLNE
  6
DASHED
 62
    52
 48
2.0
100
AcDbLine
 10
2796.999906
 20
-785.918336
 30
0.0
 11
2801.547805
 21
-785.918336
 31
0.0
  0
ARC
  5
3A4A
330
3EE1
100
AcDbEntity
  8
V0-VYPLNE
  6
DASHED
 62
    52
 48
2.0
100
AcDbCircle
 10
2783.80274
 20
-743.179758
 30
0.0
 40
15.786
100
AcDbArc
 50
90.0
 51
180.0
  0
LINE
  5
3A4B
330
3EE1
100
AcDbEntity
  8
V0-VYPLNE
  6
DASHED
 62
    52
 48
2.0
100
AcDbLine
 10
2797.757892
 20
-732.908457
 30
0.0
 11
2768.196552
 21
-754.869692
 31
0.0
  0
LINE
  5
3A4C
330
3EE1
100
AcDbEntity
  8
V0-VYPLNE
  6
DASHED
 62
    52
 48
2.0
100
AcDbLine
 10
2796.999906
 20
-748.811423
 30
0.0
 11
2768.954532
 21
-763.957102
 31
0.0
  0
LINE
  5
3A4D
330
3EE1
100
AcDbEntity
  8
V0-VYPLNE
  6
DASHED
 62
    52
 48
2.0
100
AcDbLine
 10
2808.21094
 20
-767.743523
 30
0.0
 11
2830.460404
 21
-767.743523
 31
0.0
  0
LINE
  5
3A4E
330
3EE1
100
AcDbEntity
  8
V0-VYPLNE
  6
DASHED
 62
    52
 48
2.0
100
AcDbLine
 10
2808.21094
 20
-748.811423
 30
0.0
 11
2831.218384
 21
-748.811423
 31
0.0
  0
LINE
  5
3A4F
330
3EE1
100
AcDbEntity
  8
V0-VYPLNE
  6
DASHED
 62
    52
 48
2.0
100
AcDbLine
 10
2797.757892
 20
-767.743523
 30
0.0
 11
2808.21094
 21
-767.743523
 31
0.0
  0
LINE
  5
3A50
330
3EE1
100
AcDbEntity
  8
V0-VYPLNE
  6
DASHED
 62
    52
 48
2.0
100
AcDbLine
 10
2796.999906
 20
-748.811423
 30
0.0
 11
2808.21094
 21
-748.811423
 31
0.0
  0
LINE
  5
3A51
330
3EE1
100
AcDbEntity
  8
V0-VYPLNE
  6
DASHED
 62
    52
 48
2.0
100
AcDbLine
 10
2808.21094
 20
-727.3937580000001
 30
0.0
 11
2823.325384
 21
-727.3937580000001
 31
0.0
  0
LINE
  5
3A52
330
3EE1
100
AcDbEntity
  8
V0-VYPLNE
  6
DASHED
 62
    52
 48
2.0
100
AcDbLine
 10
2808.21094
 20
-732.908457
 30
0.0
 11
2831.218384
 21
-732.908457
 31
0.0
  0
LINE
  5
3A53
330
3EE1
100
AcDbEntity
  8
V0-VYPLNE
  6
DASHED
 62
    52
 48
2.0
100
AcDbLine
 10
2797.757892
 20
-732.908457
 30
0.0
 11
2808.21094
 21
-732.908457
 31
0.0
  0
LINE
  5
3A54
330
3EE1
100
AcDbEntity
  8
V0-VYPLNE
  6
DASHED
 62
    52
 48
2.0
100
AcDbLine
 10
2783.80274
 20
-727.3937580000001
 30
0.0
 11
2808.21094
 21
-727.3937580000001
 31
0.0
  0
ARC
  5
3A55
330
3EE1
100
AcDbEntity
  8
V0-VYPLNE
  6
DASHED
 62
    52
 48
2.0
100
AcDbCircle
 10
2823.325384
 20
-735.286758
 30
0.0
 40
7.893
100
AcDbArc
 50
0.0
 51
90.0
  0
LINE
  5
3A56
330
3EE1
100
AcDbEntity
  8
V0-VYPLNE
  6
DASHED
 62
    52
 48
2.0
100
AcDbLine
 10
2843.335783
 20
-714.723248
 30
0.0
 11
2836.575107
 21
-707.968808
 31
0.0
  0
LINE
  5
3A57
330
3EE1
100
AcDbEntity
  8
V0-VYPLNE
  6
DASHED
 62
    52
100
AcDbLine
 10
2808.376381
 20
-707.256865
 30
0.0
 11
2808.376381
 21
-727.3937580000001
 31
0.0
  0
LINE
  5
3A58
330
3EE1
100
AcDbEntity
  8
V0-VYPLNE
  6
DASHED
 62
    52
100
AcDbLine
 10
2804.911821
 20
-709.383296
 30
0.0
 11
2804.911821
 21
-727.3937580000001
 31
0.0
  0
LINE
  5
3A59
330
3EE1
100
AcDbEntity
  8
V0-VYPLNE
  6
DASHED
 62
    52
100
AcDbLine
 10
2782.605679
 20
-694.171562
 30
0.0
 11
2808.376381
 21
-707.256865
 31
0.0
  0
LINE
  5
3A5A
330
3EE1
100
AcDbEntity
  8
V0-VYPLNE
  6
DASHED
 62
    52
100
AcDbLine
 10
2782.605679
 20
-698.057154
 30
0.0
 11
2804.911821
 21
-709.383296
 31
0.0
  0
ARC
  5
3A5B
330
3EE1
100
AcDbEntity
  8
V0-VYPLNE
  6
DASHED
 62
    52
 48
2.0
100
AcDbCircle
 10
1746.817822
 20
-804.988295
 30
0.0
 40
1174.336947
100
AcDbArc
 50
354.845307
 51
359.438649
  0
LINE
  5
3A5C
330
3EE1
100
AcDbEntity
  8
V0-VYPLNE
  6
DASHED
 62
    52
 48
2.0
100
AcDbLine
 10
2915.861707
 20
-925.018369
 30
0.0
 11
2898.114937
 21
-1036.466627
 31
0.0
  0
LINE
  5
3A5D
330
3EE1
100
AcDbEntity
  8
V0-VYPLNE
  6
DASHDOT
 62
    63
 48
2.0
100
AcDbLine
 10
2909.474491
 20
-1067.534858
 30
0.0
 11
2950.031096
 21
-1067.534858
 31
0.0
  0
LINE
  5
3A5E
330
3EE1
100
AcDbEntity
  8
V0-VYPLNE
  6
DASHED
 62
    52
 48
2.0
100
AcDbLine
 10
2909.101031
 20
-918.263929
 30
0.0
 11
2915.861707
 21
-925.018369
 31
0.0
  0
ARC
  5
3A5F
330
3EE1
100
AcDbEntity
  8
V0-VYPLNE
  6
DASHED
 62
    52
 48
2.0
100
AcDbCircle
 10
2907.641053
 20
-909.706015
 30
0.0
 40
8.800000000000001
100
AcDbArc
 50
282.123858
 51
354.845307
  0
ARC
  5
3A60
330
3EE1
100
AcDbEntity
  8
V0-VYPLNE
  6
DASHED
 62
    52
 48
2.0
100
AcDbCircle
 10
1746.817822
 20
-827.998882
 30
0.0
 40
1174.336947
100
AcDbArc
 50
0.561351
 51
5.154693
  0
LINE
  5
3A61
330
3EE1
100
AcDbEntity
  8
V0-VYPLNE
  6
DASHED
 62
    52
 48
2.0
100
AcDbLine
 10
2909.101031
 20
-714.723248
 30
0.0
 11
2915.861707
 21
-707.968808
 31
0.0
  0
LINE
  5
3A62
330
3EE1
100
AcDbEntity
  8
V0-VYPLNE
  6
DASHED
 62
    52
 48
2.0
100
AcDbLine
 10
2854.321878
 20
-596.52055
 30
0.0
 11
2898.114937
 21
-596.52055
 31
0.0
  0
LINE
  5
3A63
330
3EE1
100
AcDbEntity
  8
V0-OBRYS
  6
CONTINUOUS
 62
    90
100
AcDbLine
 10
2926.165864
 20
-592.374408
 30
0.0
 11
2754.654464
 21
-592.374408
 31
0.0
  0
LINE
  5
3A64
330
3EE1
100
AcDbEntity
  8
V0-OBRYS
  6
CONTINUOUS
 62
    90
100
AcDbLine
 10
2754.654464
 20
-1042.373508
 30
0.0
 11
2754.654464
 21
-548.7091830000001
 31
0.0
  0
LINE
  5
3A65
330
3EE1
100
AcDbEntity
  8
V0-VYPLNE
  6
DASHDOT
 62
    63
 48
2.0
100
AcDbLine
 10
2733.394664
 20
-567.2130580000001
 30
0.0
 11
2784.144988
 21
-567.2130580000001
 31
0.0
  0
LINE
  5
3A66
330
3EE1
100
AcDbEntity
  8
V0-VYPLNE
  6
DASHED
 62
    52
100
AcDbLine
 10
2782.605679
 20
-597.374398
 30
0.0
 11
2782.605679
 21
-598.222068
 31
0.0
  0
LINE
  5
3A67
330
3EE1
100
AcDbEntity
  8
V0-VYPLNE
  6
DASHED
 62
    52
100
AcDbLine
 10
2782.605679
 20
-598.222068
 30
0.0
 11
2803.437553
 21
-598.222068
 31
0.0
  0
LINE
  5
3A68
330
3EE1
100
AcDbEntity
  8
V0-VYPLNE
  6
DASHED
 62
    52
100
AcDbLine
 10
2786.070239
 20
-601.686628
 30
0.0
 11
2803.437553
 21
-601.686628
 31
0.0
  0
LINE
  5
3A69
330
3EE1
100
AcDbEntity
  8
V0-OBRYS
  6
CONTINUOUS
 62
    90
100
AcDbLine
 10
2926.165864
 20
-1042.373508
 30
0.0
 11
2926.165864
 21
-548.7091830000001
 31
0.0
  0
LINE
  5
3A6A
330
3EE1
100
AcDbEntity
  8
V0-VYPLNE
  6
DASHDOT
 62
    63
 48
2.0
100
AcDbLine
 10
2909.474491
 20
-567.2130580000001
 30
0.0
 11
2950.031096
 21
-567.2130580000001
 31
0.0
  0
LINE
  5
3A86
330
3EE1
100
AcDbEntity
  8
V0-VYPLNE
 48
2.0
100
AcDbLine
 10
3442.167634
 20
-98.85437400000001
 30
0.0
 11
3442.167634
 21
174.54303
 31
0.0
  0
CIRCLE
  5
3A87
330
3EE1
100
AcDbEntity
  8
V0-VYPLNE
  6
DASHDOT
 62
    63
 48
2.0
100
AcDbCircle
 10
3442.167634
 20
-98.85437400000001
 30
0.0
 40
250.12509
  0
CIRCLE
  5
3A88
330
3EE1
100
AcDbEntity
  8
V0-OBRYS
  6
CONTINUOUS
 62
    90
100
AcDbCircle
 10
3442.167634
 20
-98.85437400000001
 30
0.0
 40
268.519246
  0
LINE
  5
3A89
330
3EE1
100
AcDbEntity
  8
V0-OBRYS
  6
CONTINUOUS
 62
    90
100
AcDbLine
 10
3593.384787
 20
61.942445
 30
0.0
 11
3561.26058
 21
39.493415
 31
0.0
  0
LINE
  5
3A8A
330
3EE1
100
AcDbEntity
  8
V0-OBRYS
  6
CONTINUOUS
 62
    90
100
AcDbLine
 10
3601.431035
 20
-15.451392
 30
0.0
 11
3578.621362
 21
-36.131219
 31
0.0
  0
LINE
  5
3A8B
330
3EE1
100
AcDbEntity
  8
V0-OBRYS
  6
CONTINUOUS
 62
    90
100
AcDbLine
 10
3589.538509
 20
-95.337153
 30
0.0
 11
3560.438438
 21
-86.727284
 31
0.0
  0
LINE
  5
3A8C
330
3EE1
100
AcDbEntity
  8
V0-OBRYS
  6
CONTINUOUS
 62
    90
100
AcDbLine
 10
3606.673818
 20
-171.370606
 30
0.0
 11
3576.284079
 21
-166.430947
 31
0.0
  0
LINE
  5
3A8D
330
3EE1
100
AcDbEntity
  8
VO-OBRYS
  6
CONTINUOUS
100
AcDbLine
 10
3513.577408
 20
-147.03699
 30
0.0
 11
3612.455482
 21
-245.915064
 31
0.0
  0
LINE
  5
3A8E
330
3EE1
100
AcDbEntity
  8
VO-OBRYS
  6
CONTINUOUS
100
AcDbLine
 10
3513.345445
 20
-142.892701
 30
0.0
 11
3614.256337
 21
-243.803593
 31
0.0
  0
LINE
  5
3A8F
330
3EE1
100
AcDbEntity
  8
VO-OBRYS
  6
CONTINUOUS
100
AcDbLine
 10
3490.350251
 20
-170.264148
 30
0.0
 11
3589.228324
 21
-269.142221
 31
0.0
  0
LINE
  5
3A90
330
3EE1
100
AcDbEntity
  8
V0-VYPLNE
 48
2.0
100
AcDbLine
 10
3442.167634
 20
-98.85437400000001
 30
0.0
 11
3614.665061
 21
-271.3518
 31
0.0
  0
CIRCLE
  5
3A91
330
3EE1
100
AcDbEntity
  8
V0-OBRYS
  6
CONTINUOUS
 62
    90
100
AcDbCircle
 10
3442.167634
 20
-98.85437400000001
 30
0.0
 40
224.99955
  0
CIRCLE
  5
3A92
330
3EE1
100
AcDbEntity
  8
V0-OBRYS
  6
CONTINUOUS
 62
    90
100
AcDbCircle
 10
3442.167634
 20
-98.85437400000001
 30
0.0
 40
179.780111
  0
CIRCLE
  5
3A93
330
3EE1
100
AcDbEntity
  8
V0-OBRYS
  6
CONTINUOUS
 62
    90
100
AcDbCircle
 10
3442.167634
 20
-98.85437400000001
 30
0.0
 40
182.546543
  0
LINE
  5
3A94
330
3EE1
100
AcDbEntity
  8
VO-OBRYS
  6
CONTINUOUS
100
AcDbLine
 10
3513.577408
 20
-50.671758
 30
0.0
 11
3612.455482
 21
48.206316
 31
0.0
  0
LINE
  5
3A95
330
3EE1
100
AcDbEntity
  8
VO-OBRYS
  6
CONTINUOUS
100
AcDbLine
 10
3490.350251
 20
-27.4446
 30
0.0
 11
3589.228324
 21
71.43347299999999
 31
0.0
  0
LINE
  5
3A96
330
3EE1
100
AcDbEntity
  8
V0-VYPLNE
 48
2.0
100
AcDbLine
 10
3442.167634
 20
-98.85437400000001
 30
0.0
 11
3598.248133
 21
57.226125
 31
0.0
  0
LINE
  5
3A97
330
3EE1
100
AcDbEntity
  8
VO-OBRYS
  6
CONTINUOUS
100
AcDbLine
 10
3513.345445
 20
-54.816047
 30
0.0
 11
3614.256337
 21
46.09484499999999
 31
0.0
  0
LINE
  5
3A98
330
3EE1
100
AcDbEntity
  8
V0-VYPLNE
 48
2.0
100
AcDbLine
 10
3724.231227
 20
-98.85437400000001
 30
0.0
 11
3156.955954
 21
-98.85437400000001
 31
0.0
  0
LINE
  5
3A9A
330
3EE1
100
AcDbEntity
  8
V0-OBRYS
  6
CONTINUOUS
 62
    90
100
AcDbLine
 10
3524.262627
 20
-180.984193
 30
0.0
 11
3515.11744
 21
-158.450431
 31
0.0
  0
LINE
  5
3A9B
330
3EE1
100
AcDbEntity
  8
V0-OBRYS
  6
CONTINUOUS
 62
    90
100
AcDbLine
 10
3434.183038
 20
-203.844594
 30
0.0
 11
3436.754501
 21
-170.032184
 31
0.0
  0
LINE
  5
3A9C
330
3EE1
100
AcDbEntity
  8
V0-OBRYS
  6
CONTINUOUS
 62
    90
100
AcDbLine
 10
3450.152231
 20
-203.844594
 30
0.0
 11
3447.580768
 21
-170.032184
 31
0.0
  0
LINE
  5
3A9D
330
3EE1
100
AcDbEntity
  8
V0-OBRYS
  6
CONTINUOUS
 62
    90
100
AcDbLine
 10
3458.792533
 20
-167.581052
 30
0.0
 11
3467.096633
 21
-201.909875
 31
0.0
  0
LINE
  5
3A9E
330
3EE1
100
AcDbEntity
  8
V0-OBRYS
  6
CONTINUOUS
 62
    90
100
AcDbLine
 10
3482.104536
 20
-196.589403
 30
0.0
 11
3468.914164
 21
-164.309448
 31
0.0
  0
LINE
  5
3A9F
330
3EE1
100
AcDbEntity
  8
V0-OBRYS
  6
CONTINUOUS
 62
    90
100
AcDbLine
 10
3478.443239
 20
-159.548888
 30
0.0
 11
3497.112438
 21
-190.785249
 31
0.0
  0
LINE
  5
3AA0
330
3EE1
100
AcDbEntity
  8
V0-OBRYS
  6
CONTINUOUS
 62
    90
100
AcDbLine
 10
3360.072642
 20
-180.984193
 30
0.0
 11
3369.217829
 21
-158.450431
 31
0.0
  0
LINE
  5
3AA1
330
3EE1
100
AcDbEntity
  8
V0-OBRYS
  6
CONTINUOUS
 62
    90
100
AcDbLine
 10
3375.239269
 20
-179.653581
 30
0.0
 11
3396.934999
 21
-153.202808
 31
0.0
  0
LINE
  5
3AA2
330
3EE1
100
AcDbEntity
  8
V0-OBRYS
  6
CONTINUOUS
 62
    90
100
AcDbLine
 10
3405.892029
 20
-159.548888
 30
0.0
 11
3387.222831
 21
-190.785249
 31
0.0
  0
LINE
  5
3AA3
330
3EE1
100
AcDbEntity
  8
V0-OBRYS
  6
CONTINUOUS
 62
    90
100
AcDbLine
 10
3402.230733
 20
-196.589403
 30
0.0
 11
3415.421105
 21
-164.309448
 31
0.0
  0
LINE
  5
3AA4
330
3EE1
100
AcDbEntity
  8
V0-OBRYS
  6
CONTINUOUS
 62
    90
100
AcDbLine
 10
3425.542735
 20
-167.581052
 30
0.0
 11
3417.238635
 21
-201.909875
 31
0.0
  0
LINE
  5
3AA5
330
3EE1
100
AcDbEntity
  8
V0-OBRYS
  6
CONTINUOUS
 62
    90
100
AcDbLine
 10
3236.158563
 20
-178.116638
 30
0.0
 11
3274.841742
 21
-171.828932
 31
0.0
  0
ARC
  5
3AA6
330
3EE1
100
AcDbEntity
  8
V0-OBRYS
  6
CONTINUOUS
 62
    90
100
AcDbCircle
 10
3442.167634
 20
-98.85437400000001
 30
0.0
 40
220.731158
100
AcDbArc
 50
184.66999
 51
201.044296
  0
LINE
  5
3AA7
330
3EE1
100
AcDbEntity
  8
VO-OBRYS
  6
CONTINUOUS
100
AcDbLine
 10
3370.757861
 20
-147.03699
 30
0.0
 11
3271.879787
 21
-245.915064
 31
0.0
  0
LINE
  5
3AA8
330
3EE1
100
AcDbEntity
  8
VO-OBRYS
  6
CONTINUOUS
100
AcDbLine
 10
3370.989824
 20
-142.892701
 30
0.0
 11
3270.078932
 21
-243.803593
 31
0.0
  0
LINE
  5
3AA9
330
3EE1
100
AcDbEntity
  8
VO-OBRYS
  6
CONTINUOUS
100
AcDbLine
 10
3393.985018
 20
-170.264148
 30
0.0
 11
3295.106944
 21
-269.142221
 31
0.0
  0
LINE
  5
3AAA
330
3EE1
100
AcDbEntity
  8
V0-VYPLNE
 48
2.0
100
AcDbLine
 10
3442.167634
 20
-98.85437400000001
 30
0.0
 11
3283.068927
 21
-257.953082
 31
0.0
  0
LINE
  5
3AAB
330
3EE1
100
AcDbEntity
  8
VO-OBRYS
  6
CONTINUOUS
100
AcDbLine
 10
3398.129307
 20
-170.032184
 30
0.0
 11
3297.218416
 21
-270.943076
 31
0.0
  0
LINE
  5
3AAC
330
3EE1
100
AcDbEntity
  8
V0-VYPLNE
  6
DASHDOT
 48
2.0
100
AcDbLine
 10
3442.167634
 20
-98.85437400000001
 30
0.0
 11
3442.167634
 21
-388.519149
 31
0.0
  0
LINE
  5
3AAD
330
3EE1
100
AcDbEntity
  8
VO-OBRYS
  6
CONTINUOUS
100
AcDbLine
 10
3486.205961
 20
-170.032184
 30
0.0
 11
3587.116853
 21
-270.943076
 31
0.0
  0
ARC
  5
3AAE
330
3EE1
100
AcDbEntity
  8
V0-OBRYS
  6
CONTINUOUS
 62
    90
100
AcDbCircle
 10
3442.167634
 20
-98.85437400000001
 30
0.0
 40
83.28691499999999
100
AcDbArc
 50
238.716649
 51
329.134287
  0
LINE
  5
3AAF
330
3EE1
100
AcDbEntity
  8
V0-OBRYS
  6
CONTINUOUS
 62
    90
100
AcDbLine
 10
3508.389875
 20
-179.341885
 30
0.0
 11
3487.029905
 21
-153.508927
 31
0.0
  0
LINE
  5
3AB0
330
3EE1
100
AcDbEntity
  8
V0-OBRYS
  6
CONTINUOUS
 62
    90
100
AcDbLine
 10
3375.692813
 20
-309.337965
 30
0.0
 11
3394.895454
 21
-275.173917
 31
0.0
  0
LINE
  5
3AB1
330
3EE1
100
AcDbEntity
  8
V0-OBRYS
  6
CONTINUOUS
 62
    90
100
AcDbLine
 10
3319.05131
 20
-282.060855
 30
0.0
 11
3333.789187
 21
-245.74669
 31
0.0
  0
ARC
  5
3AB2
330
3EE1
100
AcDbEntity
  8
V0-OBRYS
  6
CONTINUOUS
 62
    90
100
AcDbCircle
 10
3442.167634
 20
-98.85437400000001
 30
0.0
 40
220.731158
100
AcDbArc
 50
236.098561
 51
252.472867
  0
LINE
  5
3AB3
330
3EE1
100
AcDbEntity
  8
V0-OBRYS
  6
CONTINUOUS
 62
    90
100
AcDbLine
 10
3334.863466
 20
-243.099664
 30
0.0
 11
3346.441631
 21
-214.571037
 31
0.0
  0
LINE
  5
3AB4
330
3EE1
100
AcDbEntity
  8
V0-OBRYS
  6
CONTINUOUS
 62
    90
100
AcDbLine
 10
3347.533523
 20
-211.880612
 30
0.0
 11
3358.945654
 21
-183.761094
 31
0.0
  0
LINE
  5
3AB6
330
3EE1
100
AcDbEntity
  8
V0-OBRYS
  6
CONTINUOUS
 62
    90
100
AcDbLine
 10
3508.642456
 20
-309.337965
 30
0.0
 11
3489.439815
 21
-275.173917
 31
0.0
  0
LINE
  5
3AB7
330
3EE1
100
AcDbEntity
  8
V0-OBRYS
  6
CONTINUOUS
 62
    90
100
AcDbLine
 10
3488.040089
 20
-272.683618
 30
0.0
 11
3472.954378
 21
-245.844137
 31
0.0
  0
LINE
  5
3AB8
330
3EE1
100
AcDbEntity
  8
V0-OBRYS
  6
CONTINUOUS
 62
    90
100
AcDbLine
 10
3396.29518
 20
-272.683618
 30
0.0
 11
3411.380891
 21
-245.844137
 31
0.0
  0
LINE
  5
3AB9
330
3EE1
100
AcDbEntity
  8
V0-OBRYS
  6
CONTINUOUS
 62
    90
100
AcDbLine
 10
3429.141346
 20
-214.245928
 30
0.0
 11
3441.057021
 21
-193.046362
 31
0.0
  0
LINE
  5
3ABA
330
3EE1
100
AcDbEntity
  8
V0-OBRYS
  6
CONTINUOUS
 62
    90
100
AcDbLine
 10
3441.057021
 20
-193.046362
 30
0.0
 11
3435.216166
 21
-183.177896
 31
0.0
  0
LINE
  5
3ABB
330
3EE1
100
AcDbEntity
  8
V0-OBRYS
  6
CONTINUOUS
 62
    90
100
AcDbLine
 10
3412.803566
 20
-243.313008
 30
0.0
 11
3427.672943
 21
-216.858413
 31
0.0
  0
LINE
  5
3ABC
330
3EE1
100
AcDbEntity
  8
V0-OBRYS
  6
CONTINUOUS
 62
    90
100
AcDbLine
 10
3455.193922
 20
-214.245928
 30
0.0
 11
3443.278248
 21
-193.046362
 31
0.0
  0
LINE
  5
3ABD
330
3EE1
100
AcDbEntity
  8
V0-OBRYS
  6
CONTINUOUS
 62
    90
100
AcDbLine
 10
3471.531702
 20
-243.313008
 30
0.0
 11
3456.662326
 21
-216.858413
 31
0.0
  0
LINE
  5
3ABE
330
3EE1
100
AcDbEntity
  8
V0-OBRYS
  6
CONTINUOUS
 62
    90
100
AcDbLine
 10
3443.278248
 20
-193.046362
 30
0.0
 11
3449.119102
 21
-183.177896
 31
0.0
  0
LINE
  5
3ABF
330
3EE1
100
AcDbEntity
  8
V0-OBRYS
  6
CONTINUOUS
 62
    90
100
AcDbLine
 10
3565.283959
 20
-282.060855
 30
0.0
 11
3550.546082
 21
-245.74669
 31
0.0
  0
ARC
  5
3AC0
330
3EE1
100
AcDbEntity
  8
V0-OBRYS
  6
CONTINUOUS
 62
    90
100
AcDbCircle
 10
3442.167634
 20
-98.85437400000001
 30
0.0
 40
220.731158
100
AcDbArc
 50
287.527133
 51
303.901439
  0
LINE
  5
3AC1
330
3EE1
100
AcDbEntity
  8
V0-OBRYS
  6
CONTINUOUS
 62
    90
100
AcDbLine
 10
3549.471803
 20
-243.099664
 30
0.0
 11
3537.893638
 21
-214.571037
 31
0.0
  0
LINE
  5
3AC2
330
3EE1
100
AcDbEntity
  8
V0-OBRYS
  6
CONTINUOUS
 62
    90
100
AcDbLine
 10
3536.801745
 20
-211.880612
 30
0.0
 11
3525.389615
 21
-183.761094
 31
0.0
  0
LINE
  5
3AC3
330
3EE1
100
AcDbEntity
  8
V0-OBRYS
  6
CONTINUOUS
 62
    90
100
AcDbLine
 10
3375.945393
 20
-18.366863
 30
0.0
 11
3397.305363
 21
-44.199821
 31
0.0
  0
POINT
  5
3AC4
330
3EE1
100
AcDbEntity
  8
V0-VYPLNE
  6
DASHED
 62
    52
100
AcDbPoint
 10
3442.167634
 20
-98.85437400000001
 30
0.0
  0
ARC
  5
3AC5
330
3EE1
100
AcDbEntity
  8
V0-OBRYS
  6
CONTINUOUS
 62
    90
100
AcDbCircle
 10
3442.167634
 20
-98.85437400000001
 30
0.0
 40
83.28691499999999
100
AcDbArc
 50
148.716649
 51
239.134287
  0
CIRCLE
  5
3AC6
330
3EE1
100
AcDbEntity
  8
V0-OBRYS
  6
CONTINUOUS
 62
    90
100
AcDbCircle
 10
3442.167634
 20
-98.85437400000001
 30
0.0
 40
70.708865
  0
ARC
  5
3AC7
330
3EE1
100
AcDbEntity
  8
V0-OBRYS
  6
CONTINUOUS
 62
    90
100
AcDbCircle
 10
3442.167634
 20
-98.85437400000001
 30
0.0
 40
83.28691499999999
100
AcDbArc
 50
58.71664899999999
 51
149.134287
  0
LINE
  5
3AC8
330
3EE1
100
AcDbEntity
  8
VO-OBRYS
  6
CONTINUOUS
100
AcDbLine
 10
3398.129307
 20
-27.676564
 30
0.0
 11
3297.218416
 21
73.23432800000001
 31
0.0
  0
LINE
  5
3AC9
330
3EE1
100
AcDbEntity
  8
V0-VYPLNE
 48
2.0
100
AcDbLine
 10
3442.167634
 20
-98.85437400000001
 30
0.0
 11
3270.651239
 21
72.66202099999998
 31
0.0
  0
LINE
  5
3ACA
330
3EE1
100
AcDbEntity
  8
V0-OBRYS
  6
CONTINUOUS
 62
    90
100
AcDbLine
 10
3380.364835
 20
-0.5420700000000001
 30
0.0
 11
3400.298634
 21
-14.472202
 31
0.0
  0
LINE
  5
3ACB
330
3EE1
100
AcDbEntity
  8
V0-OBRYS
  6
CONTINUOUS
 62
    90
100
AcDbLine
 10
3399.626423
 20
-27.676564
 30
0.0
 11
3387.222831
 21
-6.923498000000002
 31
0.0
  0
LINE
  5
3ACC
330
3EE1
100
AcDbEntity
  8
V0-OBRYS
  6
CONTINUOUS
 62
    90
100
AcDbLine
 10
3405.892029
 20
-38.15986
 30
0.0
 11
3387.222831
 21
-6.923498000000002
 31
0.0
  0
LINE
  5
3ACD
330
3EE1
100
AcDbEntity
  8
V0-OBRYS
  6
CONTINUOUS
 62
    90
100
AcDbLine
 10
3282.904233
 20
-15.451392
 30
0.0
 11
3305.713907
 21
-36.131219
 31
0.0
  0
LINE
  5
3ACE
330
3EE1
100
AcDbEntity
  8
VO-OBRYS
  6
CONTINUOUS
100
AcDbLine
 10
3393.985018
 20
-27.4446
 30
0.0
 11
3298.133383
 21
68.40703399999998
 31
0.0
  0
LINE
  5
3ACF
330
3EE1
100
AcDbEntity
  8
VO-OBRYS
  6
CONTINUOUS
100
AcDbLine
 10
3370.757861
 20
-50.671758
 30
0.0
 11
3271.879787
 21
48.206316
 31
0.0
  0
LINE
  5
3AD0
330
3EE1
100
AcDbEntity
  8
VO-OBRYS
  6
CONTINUOUS
100
AcDbLine
 10
3370.989824
 20
-54.816047
 30
0.0
 11
3270.078932
 21
46.09484499999999
 31
0.0
  0
LINE
  5
3AD1
330
3EE1
100
AcDbEntity
  8
V0-OBRYS
  6
CONTINUOUS
 62
    90
100
AcDbLine
 10
3294.79676
 20
-95.337153
 30
0.0
 11
3323.896831
 21
-86.727284
 31
0.0
  0
LINE
  5
3AD2
330
3EE1
100
AcDbEntity
  8
V0-OBRYS
  6
CONTINUOUS
 62
    90
100
AcDbLine
 10
3277.661451
 20
-171.370606
 30
0.0
 11
3308.05119
 21
-166.430947
 31
0.0
  0
LINE
  5
3AD3
330
3EE1
100
AcDbEntity
  8
V0-OBRYS
  6
CONTINUOUS
 62
    90
100
AcDbLine
 10
3262.489071
 20
-104.896064
 30
0.0
 11
3292.012517
 21
-96.16092999999999
 31
0.0
  0
LINE
  5
3AD4
330
3EE1
100
AcDbEntity
  8
V0-OBRYS
  6
CONTINUOUS
 62
    90
100
AcDbLine
 10
3222.169267
 20
-116.825528
 30
0.0
 11
3259.74974
 21
-105.706553
 31
0.0
  0
LINE
  5
3AD5
330
3EE1
100
AcDbEntity
  8
V0-OBRYS
  6
CONTINUOUS
 62
    90
100
AcDbLine
 10
3343.829127
 20
-160.615469
 30
0.0
 11
3367.832916
 21
-156.713805
 31
0.0
  0
LINE
  5
3AD6
330
3EE1
100
AcDbEntity
  8
V0-OBRYS
  6
CONTINUOUS
 62
    90
100
AcDbLine
 10
3337.177414
 20
-106.83897
 30
0.0
 11
3370.989824
 21
-104.267507
 31
0.0
  0
LINE
  5
3AD7
330
3EE1
100
AcDbEntity
  8
V0-OBRYS
  6
CONTINUOUS
 62
    90
100
AcDbLine
 10
3373.440956
 20
-115.479273
 30
0.0
 11
3339.112133
 21
-123.783373
 31
0.0
  0
LINE
  5
3AD8
330
3EE1
100
AcDbEntity
  8
V0-OBRYS
  6
CONTINUOUS
 62
    90
100
AcDbLine
 10
3344.432605
 20
-138.791275
 30
0.0
 11
3376.71256
 21
-125.600903
 31
0.0
  0
LINE
  5
3AD9
330
3EE1
100
AcDbEntity
  8
V0-OBRYS
  6
CONTINUOUS
 62
    90
100
AcDbLine
 10
3310.917129
 20
-165.965106
 30
0.0
 11
3340.87107
 21
-161.096283
 31
0.0
  0
LINE
  5
3ADA
330
3EE1
100
AcDbEntity
  8
V0-OBRYS
  6
CONTINUOUS
 62
    90
100
AcDbLine
 10
3369.217829
 20
-158.450431
 30
0.0
 11
3380.575019
 21
-156.864107
 31
0.0
  0
LINE
  5
3ADB
330
3EE1
100
AcDbEntity
  8
V0-OBRYS
  6
CONTINUOUS
 62
    90
100
AcDbLine
 10
3367.832916
 20
-156.713805
 30
0.0
 11
3371.906681
 21
-145.994353
 31
0.0
  0
LINE
  5
3ADC
330
3EE1
100
AcDbEntity
  8
V0-OBRYS
  6
CONTINUOUS
 62
    90
100
AcDbLine
 10
3381.47312
 20
-135.129979
 30
0.0
 11
3350.236759
 21
-153.799177
 31
0.0
  0
LINE
  5
3ADD
330
3EE1
100
AcDbEntity
  8
V0-OBRYS
  6
CONTINUOUS
 62
    90
100
AcDbLine
 10
3361.680124
 20
-165.076615
 30
0.0
 11
3387.513081
 21
-143.716645
 31
0.0
  0
LINE
  5
3ADE
330
3EE1
100
AcDbEntity
  8
V0-OBRYS
  6
CONTINUOUS
 62
    90
100
AcDbLine
 10
3344.432605
 20
-58.917473
 30
0.0
 11
3376.71256
 21
-72.107845
 31
0.0
  0
LINE
  5
3ADF
330
3EE1
100
AcDbEntity
  8
V0-OBRYS
  6
CONTINUOUS
 62
    90
100
AcDbLine
 10
3373.440956
 20
-82.22947499999999
 30
0.0
 11
3339.112133
 21
-73.925375
 31
0.0
  0
LINE
  5
3AE0
330
3EE1
100
AcDbEntity
  8
V0-OBRYS
  6
CONTINUOUS
 62
    90
100
AcDbLine
 10
3337.177414
 20
-90.869778
 30
0.0
 11
3370.989824
 21
-93.44123999999999
 31
0.0
  0
LINE
  5
3AE1
330
3EE1
100
AcDbEntity
  8
V0-OBRYS
  6
CONTINUOUS
 62
    90
100
AcDbLine
 10
3332.567809
 20
-60.477646
 30
0.0
 11
3350.584371
 21
-76.81191699999999
 31
0.0
  0
LINE
  5
3AE2
330
3EE1
100
AcDbEntity
  8
V0-OBRYS
  6
CONTINUOUS
 62
    90
100
AcDbLine
 10
3326.770565
 20
-85.87702899999999
 30
0.0
 11
3350.090101
 21
-78.977453
 31
0.0
  0
LINE
  5
3AE3
330
3EE1
100
AcDbEntity
  8
V0-OBRYS
  6
CONTINUOUS
 62
    90
100
AcDbLine
 10
3307.865
 20
-38.081454
 30
0.0
 11
3330.347576
 21
-58.464726
 31
0.0
  0
LINE
  5
3AE4
330
3EE1
100
AcDbEntity
  8
V0-OBRYS
  6
CONTINUOUS
 62
    90
100
AcDbLine
 10
3381.47312
 20
-62.578769
 30
0.0
 11
3350.236759
 21
-43.909571
 31
0.0
  0
LINE
  5
3AE5
330
3EE1
100
AcDbEntity
  8
V0-OBRYS
  6
CONTINUOUS
 62
    90
100
AcDbLine
 10
3361.368428
 20
-31.926009
 30
0.0
 11
3387.819201
 21
-53.621738
 31
0.0
  0
LINE
  5
3AE6
330
3EE1
100
AcDbEntity
  8
V0-OBRYS
  6
CONTINUOUS
 62
    90
100
AcDbLine
 10
3350.090101
 20
-78.977453
 30
0.0
 11
3358.411432
 21
-86.867805
 31
0.0
  0
LINE
  5
3AE7
330
3EE1
100
AcDbEntity
  8
V0-OBRYS
  6
CONTINUOUS
 62
    90
100
AcDbLine
 10
3350.584371
 20
-76.81191699999999
 30
0.0
 11
3361.505126
 21
-73.313445
 31
0.0
  0
LINE
  5
3AE8
330
3EE1
100
AcDbEntity
  8
V0-OBRYS
  6
CONTINUOUS
 62
    90
100
AcDbLine
 10
3290.950482
 20
61.942445
 30
0.0
 11
3323.074689
 21
39.493415
 31
0.0
  0
ARC
  5
3AE9
330
3EE1
100
AcDbEntity
  8
V0-OBRYS
  6
CONTINUOUS
 62
    90
100
AcDbCircle
 10
3442.167634
 20
-98.85437400000001
 30
0.0
 40
220.731158
100
AcDbArc
 50
133.241418
 51
149.615725
  0
LINE
  5
3AEA
330
3EE1
100
AcDbEntity
  8
V0-OBRYS
  6
CONTINUOUS
 62
    90
100
AcDbLine
 10
3251.753346
 20
12.790791
 30
0.0
 11
3280.78784
 21
-13.532616
 31
0.0
  0
LINE
  5
3AEB
330
3EE1
100
AcDbEntity
  8
V0-OBRYS
  6
CONTINUOUS
 62
    90
100
AcDbLine
 10
3325.416299
 20
37.857052
 30
0.0
 11
3350.653269
 21
20.220959
 31
0.0
  0
LINE
  5
3AEC
330
3EE1
100
AcDbEntity
  8
V0-OBRYS
  6
CONTINUOUS
 62
    90
100
AcDbLine
 10
3353.033271
 20
18.557766
 30
0.0
 11
3377.908335
 21
1.174579999999999
 31
0.0
  0
LINE
  5
3AED
330
3EE1
100
AcDbEntity
  8
V0-OBRYS
  6
CONTINUOUS
 62
    90
100
AcDbLine
 10
3484.036635
 20
-14.472202
 30
0.0
 11
3485.017296
 21
-25.897635
 31
0.0
  0
LINE
  5
3AEE
330
3EE1
100
AcDbEntity
  8
V0-OBRYS
  6
CONTINUOUS
 62
    90
100
AcDbLine
 10
3400.298634
 20
-14.472202
 30
0.0
 11
3399.317973
 21
-25.897635
 31
0.0
  0
ARC
  5
3AEF
330
3EE1
100
AcDbEntity
  8
V0-OBRYS
  6
CONTINUOUS
 62
    90
100
AcDbCircle
 10
3442.167634
 20
-98.85437400000001
 30
0.0
 40
83.28691499999999
100
AcDbArc
 50
328.716649
 51
59.134287
  0
LINE
  5
3AF0
330
3EE1
100
AcDbEntity
  8
V0-OBRYS
  6
CONTINUOUS
 62
    90
100
AcDbLine
 10
3509.096
 20
-18.055167
 30
0.0
 11
3487.40027
 21
-44.50594
 31
0.0
  0
LINE
  5
3AF1
330
3EE1
100
AcDbEntity
  8
V0-OBRYS
  6
CONTINUOUS
 62
    90
100
AcDbLine
 10
3450.152231
 20
6.135846
 30
0.0
 11
3447.580768
 21
-27.676564
 31
0.0
  0
LINE
  5
3AF2
330
3EE1
100
AcDbEntity
  8
V0-OBRYS
  6
CONTINUOUS
 62
    90
100
AcDbLine
 10
3458.792533
 20
-30.127696
 30
0.0
 11
3467.096633
 21
4.201127
 31
0.0
  0
LINE
  5
3AF3
330
3EE1
100
AcDbEntity
  8
V0-OBRYS
  6
CONTINUOUS
 62
    90
100
AcDbLine
 10
3482.104536
 20
-1.119345
 30
0.0
 11
3468.914164
 21
-33.3993
 31
0.0
  0
LINE
  5
3AF4
330
3EE1
100
AcDbEntity
  8
V0-OBRYS
  6
CONTINUOUS
 62
    90
100
AcDbLine
 10
3484.708846
 20
-27.676564
 30
0.0
 11
3497.112438
 21
-6.923498000000002
 31
0.0
  0
LINE
  5
3AF5
330
3EE1
100
AcDbEntity
  8
V0-OBRYS
  6
CONTINUOUS
 62
    90
100
AcDbLine
 10
3402.230733
 20
-1.119345
 30
0.0
 11
3413.082656
 21
-27.676564
 31
0.0
  0
LINE
  5
3AF6
330
3EE1
100
AcDbEntity
  8
V0-OBRYS
  6
CONTINUOUS
 62
    90
100
AcDbLine
 10
3424.949809
 20
-27.676564
 30
0.0
 11
3417.238635
 21
4.201127
 31
0.0
  0
LINE
  5
3AF7
330
3EE1
100
AcDbEntity
  8
V0-OBRYS
  6
CONTINUOUS
 62
    90
100
AcDbLine
 10
3434.183038
 20
6.135846
 30
0.0
 11
3436.754501
 21
-27.676564
 31
0.0
  0
LINE
  5
3AF8
330
3EE1
100
AcDbEntity
  8
V0-OBRYS
  6
CONTINUOUS
 62
    90
100
AcDbLine
 10
3402.230733
 20
-1.119345
 30
0.0
 11
3415.421105
 21
-33.3993
 31
0.0
  0
LINE
  5
3AF9
330
3EE1
100
AcDbEntity
  8
V0-OBRYS
  6
CONTINUOUS
 62
    90
100
AcDbLine
 10
3425.542735
 20
-30.127696
 30
0.0
 11
3417.238635
 21
4.201127
 31
0.0
  0
LINE
  5
3AFA
330
3EE1
100
AcDbEntity
  8
V0-OBRYS
  6
CONTINUOUS
 62
    90
100
AcDbLine
 10
3434.183038
 20
6.135846
 30
0.0
 11
3436.754501
 21
-27.676564
 31
0.0
  0
LINE
  5
3AFB
330
3EE1
100
AcDbEntity
  8
VO-OBRYS
  6
CONTINUOUS
100
AcDbLine
 10
3476.719965
 20
-37.162559
 30
0.0
 11
3587.116853
 21
73.23432800000001
 31
0.0
  0
LINE
  5
3AFC
330
3EE1
100
AcDbEntity
  8
V0-OBRYS
  6
CONTINUOUS
 62
    90
100
AcDbLine
 10
3510.894313
 20
-115.479273
 30
0.0
 11
3545.223135
 21
-123.783373
 31
0.0
  0
LINE
  5
3AFD
330
3EE1
100
AcDbEntity
  8
V0-OBRYS
  6
CONTINUOUS
 62
    90
100
AcDbLine
 10
3547.157854
 20
-106.83897
 30
0.0
 11
3513.345445
 21
-104.267507
 31
0.0
  0
LINE
  5
3AFE
330
3EE1
100
AcDbEntity
  8
V0-OBRYS
  6
CONTINUOUS
 62
    90
100
AcDbLine
 10
3540.506142
 20
-160.615469
 30
0.0
 11
3516.502352
 21
-156.713805
 31
0.0
  0
LINE
  5
3AFF
330
3EE1
100
AcDbEntity
  8
V0-OBRYS
  6
CONTINUOUS
 62
    90
100
AcDbLine
 10
3516.502352
 20
-156.713805
 30
0.0
 11
3512.428588
 21
-145.994353
 31
0.0
  0
LINE
  5
3B00
330
3EE1
100
AcDbEntity
  8
V0-OBRYS
  6
CONTINUOUS
 62
    90
100
AcDbLine
 10
3515.11744
 20
-158.450431
 30
0.0
 11
3503.760249
 21
-156.864107
 31
0.0
  0
LINE
  5
3B01
330
3EE1
100
AcDbEntity
  8
V0-OBRYS
  6
CONTINUOUS
 62
    90
100
AcDbLine
 10
3502.862148
 20
-135.129979
 30
0.0
 11
3534.09851
 21
-153.799177
 31
0.0
  0
LINE
  5
3B02
330
3EE1
100
AcDbEntity
  8
V0-OBRYS
  6
CONTINUOUS
 62
    90
100
AcDbLine
 10
3539.902663
 20
-138.791275
 30
0.0
 11
3507.622709
 21
-125.600903
 31
0.0
  0
LINE
  5
3B03
330
3EE1
100
AcDbEntity
  8
V0-OBRYS
  6
CONTINUOUS
 62
    90
100
AcDbLine
 10
3522.966841
 20
-165.782739
 30
0.0
 11
3496.516068
 21
-144.08701
 31
0.0
  0
LINE
  5
3B04
330
3EE1
100
AcDbEntity
  8
V0-OBRYS
  6
CONTINUOUS
 62
    90
100
AcDbLine
 10
3573.418139
 20
-165.965106
 30
0.0
 11
3543.464199
 21
-161.096283
 31
0.0
  0
LINE
  5
3B05
330
3EE1
100
AcDbEntity
  8
V0-OBRYS
  6
CONTINUOUS
 62
    90
100
AcDbLine
 10
3547.157854
 20
-90.869778
 30
0.0
 11
3513.345445
 21
-93.44123999999999
 31
0.0
  0
LINE
  5
3B06
330
3EE1
100
AcDbEntity
  8
V0-OBRYS
  6
CONTINUOUS
 62
    90
100
AcDbLine
 10
3510.894313
 20
-82.22947499999999
 30
0.0
 11
3545.223135
 21
-73.925375
 31
0.0
  0
LINE
  5
3B07
330
3EE1
100
AcDbEntity
  8
V0-OBRYS
  6
CONTINUOUS
 62
    90
100
AcDbLine
 10
3557.564703
 20
-85.87702899999999
 30
0.0
 11
3534.245167
 21
-78.977453
 31
0.0
  0
LINE
  5
3B08
330
3EE1
100
AcDbEntity
  8
V0-OBRYS
  6
CONTINUOUS
 62
    90
100
AcDbLine
 10
3551.76746
 20
-60.477646
 30
0.0
 11
3533.750898
 21
-76.81191699999999
 31
0.0
  0
LINE
  5
3B09
330
3EE1
100
AcDbEntity
  8
V0-OBRYS
  6
CONTINUOUS
 62
    90
100
AcDbLine
 10
3502.862148
 20
-62.578769
 30
0.0
 11
3534.09851
 21
-43.909571
 31
0.0
  0
LINE
  5
3B0A
330
3EE1
100
AcDbEntity
  8
V0-OBRYS
  6
CONTINUOUS
 62
    90
100
AcDbLine
 10
3533.750898
 20
-76.81191699999999
 30
0.0
 11
3522.830143
 21
-73.313445
 31
0.0
  0
LINE
  5
3B0B
330
3EE1
100
AcDbEntity
  8
V0-OBRYS
  6
CONTINUOUS
 62
    90
100
AcDbLine
 10
3534.245167
 20
-78.977453
 30
0.0
 11
3525.923837
 21
-86.867805
 31
0.0
  0
LINE
  5
3B0C
330
3EE1
100
AcDbEntity
  8
V0-OBRYS
  6
CONTINUOUS
 62
    90
100
AcDbLine
 10
3539.902663
 20
-58.917473
 30
0.0
 11
3507.622709
 21
-72.107845
 31
0.0
  0
LINE
  5
3B0D
330
3EE1
100
AcDbEntity
  8
V0-OBRYS
  6
CONTINUOUS
 62
    90
100
AcDbLine
 10
3522.655145
 20
-32.632133
 30
0.0
 11
3496.822188
 21
-53.992103
 31
0.0
  0
LINE
  5
3B0E
330
3EE1
100
AcDbEntity
  8
V0-OBRYS
  6
CONTINUOUS
 62
    90
100
AcDbLine
 10
3576.470269
 20
-38.081454
 30
0.0
 11
3553.987693
 21
-58.464726
 31
0.0
  0
LINE
  5
3B0F
330
3EE1
100
AcDbEntity
  8
V0-OBRYS
  6
CONTINUOUS
 62
    90
100
AcDbLine
 10
3503.970433
 20
-0.5420700000000001
 30
0.0
 11
3484.036635
 21
-14.472202
 31
0.0
  0
LINE
  5
3B10
330
3EE1
100
AcDbEntity
  8
V0-OBRYS
  6
CONTINUOUS
 62
    90
100
AcDbLine
 10
3476.259664
 20
77.663676
 30
0.0
 11
3478.206205
 21
46.936693
 31
0.0
  0
LINE
  5
3B11
330
3EE1
100
AcDbEntity
  8
V0-OBRYS
  6
CONTINUOUS
 62
    90
100
AcDbLine
 10
3408.075605
 20
77.663676
 30
0.0
 11
3406.129064
 21
46.936693
 31
0.0
  0
LINE
  5
3B12
330
3EE1
100
AcDbEntity
  8
V0-OBRYS
  6
CONTINUOUS
 62
    90
100
AcDbLine
 10
3405.945493
 20
44.03895
 30
0.0
 11
3404.026866
 21
13.752602
 31
0.0
  0
LINE
  5
3B13
330
3EE1
100
AcDbEntity
  8
V0-OBRYS
  6
CONTINUOUS
 62
    90
100
AcDbLine
 10
3402.299891
 20
-13.508448
 30
0.0
 11
3411.844086
 21
-19.865377
 31
0.0
  0
LINE
  5
3B14
330
3EE1
100
AcDbEntity
  8
V0-OBRYS
  6
CONTINUOUS
 62
    90
100
AcDbLine
 10
3403.837395
 20
10.761719
 30
0.0
 11
3402.299891
 21
-13.508448
 31
0.0
  0
LINE
  5
3B15
330
3EE1
100
AcDbEntity
  8
V0-OBRYS
  6
CONTINUOUS
 62
    90
100
AcDbLine
 10
3478.389776
 20
44.03895
 30
0.0
 11
3480.308402
 21
13.752602
 31
0.0
  0
LINE
  5
3B16
330
3EE1
100
AcDbEntity
  8
V0-OBRYS
  6
CONTINUOUS
 62
    90
100
AcDbLine
 10
3482.035378
 20
-13.508448
 30
0.0
 11
3472.491183
 21
-19.865377
 31
0.0
  0
LINE
  5
3B17
330
3EE1
100
AcDbEntity
  8
V0-OBRYS
  6
CONTINUOUS
 62
    90
100
AcDbLine
 10
3480.497874
 20
10.761719
 30
0.0
 11
3482.035378
 21
-13.508448
 31
0.0
  0
ARC
  5
3B18
330
3EE1
100
AcDbEntity
  8
V0-OBRYS
  6
CONTINUOUS
 62
    90
100
AcDbCircle
 10
3442.167634
 20
-98.85437400000001
 30
0.0
 40
220.731158
100
AcDbArc
 50
81.81284700000001
 51
98.187153
  0
LINE
  5
3B19
330
3EE1
100
AcDbEntity
  8
V0-OBRYS
  6
CONTINUOUS
 62
    90
100
AcDbLine
 10
3410.733972
 20
119.627133
 30
0.0
 11
3410.427767
 21
114.793557
 31
0.0
  0
LINE
  5
3B1A
330
3EE1
100
AcDbEntity
  8
V0-OBRYS
  6
CONTINUOUS
 62
    90
100
AcDbLine
 10
3410.248855
 20
111.969352
 30
0.0
 11
3408.256215
 21
80.51467599999999
 31
0.0
  0
LINE
  5
3B1B
330
3EE1
100
AcDbEntity
  8
V0-OBRYS
  6
CONTINUOUS
 62
    90
100
AcDbLine
 10
3473.601297
 20
119.627133
 30
0.0
 11
3476.079054
 21
80.51467599999999
 31
0.0
  0
LINE
  5
3B1C
330
3EE1
100
AcDbEntity
  8
V0-OBRYS
  6
CONTINUOUS
 62
    90
100
AcDbLine
 10
3558.91897
 20
37.857052
 30
0.0
 11
3533.682
 21
20.220959
 31
0.0
  0
LINE
  5
3B1D
330
3EE1
100
AcDbEntity
  8
V0-OBRYS
  6
CONTINUOUS
 62
    90
100
AcDbLine
 10
3531.301998
 20
18.557766
 30
0.0
 11
3506.426933
 21
1.174579999999999
 31
0.0
  0
LINE
  5
3B1E
330
3EE1
100
AcDbEntity
  8
V0-OBRYS
  6
CONTINUOUS
 62
    90
100
AcDbLine
 10
3648.176706
 20
-178.116638
 30
0.0
 11
3609.493527
 21
-171.828932
 31
0.0
  0
ARC
  5
3B1F
330
3EE1
100
AcDbEntity
  8
V0-OBRYS
  6
CONTINUOUS
 62
    90
100
AcDbCircle
 10
3442.167634
 20
-98.85437400000001
 30
0.0
 40
220.731158
100
AcDbArc
 50
338.955704
 51
355.33001
  0
LINE
  5
3B20
330
3EE1
100
AcDbEntity
  8
V0-OBRYS
  6
CONTINUOUS
 62
    90
100
AcDbLine
 10
3621.846198
 20
-104.896064
 30
0.0
 11
3592.322752
 21
-96.16092999999999
 31
0.0
  0
LINE
  5
3B21
330
3EE1
100
AcDbEntity
  8
V0-OBRYS
  6
CONTINUOUS
 62
    90
100
AcDbLine
 10
3662.166002
 20
-116.825528
 30
0.0
 11
3624.585529
 21
-105.706553
 31
0.0
  0
ARC
  5
3B23
330
3EE1
100
AcDbEntity
  8
V0-OBRYS
  6
CONTINUOUS
 62
    90
100
AcDbCircle
 10
3442.167634
 20
-98.85437400000001
 30
0.0
 40
220.731158
100
AcDbArc
 50
30.384275
 51
46.758582
  0
LINE
  5
3B24
330
3EE1
100
AcDbEntity
  8
V0-OBRYS
  6
CONTINUOUS
 62
    90
100
AcDbLine
 10
3632.581923
 20
12.790791
 30
0.0
 11
3603.547429
 21
-13.532616
 31
0.0
  0
CIRCLE
  5
3B25
330
3EE1
100
AcDbEntity
  8
V0-OBRYS
  6
CONTINUOUS
 62
    90
100
AcDbCircle
 10
3442.167634
 20
151.270716
 30
0.0
 40
5.935028
  0
CIRCLE
  5
3B46
330
3EE1
100
AcDbEntity
  8
V0-OBRYS
  6
CONTINUOUS
 62
    90
100
AcDbCircle
 10
3265.302487
 20
78.010774
 30
0.0
 40
5.935028
  0
CIRCLE
  5
3B47
330
3EE1
100
AcDbEntity
  8
V0-OBRYS
  6
CONTINUOUS
 62
    90
100
AcDbCircle
 10
3192.042544
 20
-98.85437400000001
 30
0.0
 40
5.935028
  0
CIRCLE
  5
3B48
330
3EE1
100
AcDbEntity
  8
V0-OBRYS
  6
CONTINUOUS
 62
    90
100
AcDbCircle
 10
3265.302487
 20
-275.719521
 30
0.0
 40
5.935028
  0
CIRCLE
  5
3B49
330
3EE1
100
AcDbEntity
  8
V0-OBRYS
  6
CONTINUOUS
 62
    90
100
AcDbCircle
 10
3442.167634
 20
-348.979464
 30
0.0
 40
5.935028
  0
CIRCLE
  5
3B4A
330
3EE1
100
AcDbEntity
  8
V0-OBRYS
  6
CONTINUOUS
 62
    90
100
AcDbCircle
 10
3619.032782
 20
-275.719521
 30
0.0
 40
5.935028
  0
CIRCLE
  5
3B4B
330
3EE1
100
AcDbEntity
  8
V0-OBRYS
  6
CONTINUOUS
 62
    90
100
AcDbCircle
 10
3692.292725
 20
-98.85437400000001
 30
0.0
 40
5.935028
  0
CIRCLE
  5
3B4C
330
3EE1
100
AcDbEntity
  8
V0-OBRYS
  6
CONTINUOUS
 62
    90
100
AcDbCircle
 10
3619.032782
 20
78.010774
 30
0.0
 40
5.935028
  0
LINE
  5
3B56
330
3EE1
100
AcDbEntity
  8
V0-OBRYS
  6
CONTINUOUS
 62
    90
100
AcDbLine
 10
2751.111164
 20
169.282105
 30
0.0
 11
2754.654464
 21
169.282105
 31
0.0
  0
LINE
  5
3B57
330
3EE1
100
AcDbEntity
  8
V0-OBRYS
  6
CONTINUOUS
 62
    90
100
AcDbLine
 10
2926.165864
 20
169.282105
 30
0.0
 11
2930.709164
 21
169.282105
 31
0.0
  0
LINE
  5
3B59
330
3EE1
100
AcDbEntity
  8
V0-OBRYS
  6
CONTINUOUS
 62
    90
100
AcDbLine
 10
2926.165864
 20
-368.047445
 30
0.0
 11
2926.165864
 21
-368.047445
 31
0.0
  0
LINE
  5
3B5A
330
3EE1
100
AcDbEntity
  8
V0-OBRYS
  6
CONTINUOUS
 62
    90
100
AcDbLine
 10
2751.111164
 20
-548.7091830000001
 30
0.0
 11
2754.654464
 21
-548.7091830000001
 31
0.0
  0
LINE
  5
3B5B
330
3EE1
100
AcDbEntity
  8
V0-OBRYS
  6
CONTINUOUS
 62
    90
100
AcDbLine
 10
2926.165864
 20
-548.7091830000001
 30
0.0
 11
2929.709164
 21
-548.7091830000001
 31
0.0
  0
LINE
  5
3B5C
330
3EE1
100
AcDbEntity
  8
V0-OBRYS
  6
CONTINUOUS
 62
    90
100
AcDbLine
 10
2751.111164
 20
-1086.038733
 30
0.0
 11
2754.654464
 21
-1086.038733
 31
0.0
  0
LINE
  5
3B5E
330
3EE1
100
AcDbEntity
  8
V0-OBRYS
  6
CONTINUOUS
 62
    90
100
AcDbLine
 10
2926.165864
 20
-1086.038733
 30
0.0
 11
2929.709164
 21
-1086.038733
 31
0.0
  0
LINE
  5
3B5F
330
3EE1
100
AcDbEntity
  8
V0-OBRYS
  6
CONTINUOUS
 62
    90
100
AcDbLine
 10
2751.111164
 20
-368.047445
 30
0.0
 11
2754.654464
 21
-368.047445
 31
0.0
  0
LINE
  5
3B60
330
3EE1
100
AcDbEntity
  8
V0-OBRYS
  6
CONTINUOUS
 62
    90
100
AcDbLine
 10
2926.165864
 20
-368.047445
 30
0.0
 11
2929.709164
 21
-368.047445
 31
0.0
  0
LINE
  5
3B66
330
3EE1
100
AcDbEntity
  8
V0-OBRYS
  6
CONTINUOUS
 62
    90
100
AcDbLine
 10
2864.709164
 20
-846.845662
 30
0.0
 11
2794.709164
 21
-846.845662
 31
0.0
  0
LINE
  5
3B67
330
3EE1
100
AcDbEntity
  8
V0-OBRYS
  6
CONTINUOUS
 62
    90
100
AcDbLine
 10
2794.709164
 20
-786.845662
 30
0.0
 11
2864.709164
 21
-786.845662
 31
0.0
  0
CIRCLE
  5
3B68
330
3EE1
100
AcDbEntity
  8
V0-OBRYS
  6
CONTINUOUS
 62
    90
100
AcDbCircle
 10
2794.378328
 20
-842.380546
 30
0.0
 40
2.347961
  0
CIRCLE
  5
3B69
330
3EE1
100
AcDbEntity
  8
V0-OBRYS
  6
CONTINUOUS
 62
    90
100
AcDbCircle
 10
2794.378328
 20
-791.310777
 30
0.0
 40
2.347961
  0
ARC
  5
3B6A
330
3EE1
100
AcDbEntity
  8
V0-OBRYS
  6
CONTINUOUS
 62
    90
100
AcDbCircle
 10
2794.709164
 20
-791.845662
 30
0.0
 40
5.0
100
AcDbArc
 50
90.0
 51
180.0
  0
LINE
  5
3B6B
330
3EE1
100
AcDbEntity
  8
V0-OBRYS
  6
CONTINUOUS
 62
    90
100
AcDbLine
 10
2789.709164
 20
-841.845662
 30
0.0
 11
2789.709164
 21
-791.845662
 31
0.0
  0
ARC
  5
3B6C
330
3EE1
100
AcDbEntity
  8
V0-OBRYS
  6
CONTINUOUS
 62
    90
100
AcDbCircle
 10
2794.709164
 20
-841.845662
 30
0.0
 40
5.0
100
AcDbArc
 50
180.0
 51
270.0
  0
ARC
  5
3B6D
330
3EE1
100
AcDbEntity
  8
V0-OBRYS
  6
CONTINUOUS
 62
    90
100
AcDbCircle
 10
2864.709164
 20
-791.845662
 30
0.0
 40
5.0
100
AcDbArc
 50
0.0
 51
90.0
  0
LINE
  5
3B6E
330
3EE1
100
AcDbEntity
  8
V0-OBRYS
  6
CONTINUOUS
 62
    90
100
AcDbLine
 10
2869.709164
 20
-791.845662
 30
0.0
 11
2869.709164
 21
-841.845662
 31
0.0
  0
ARC
  5
3B6F
330
3EE1
100
AcDbEntity
  8
V0-OBRYS
  6
CONTINUOUS
 62
    90
100
AcDbCircle
 10
2864.709164
 20
-841.845662
 30
0.0
 40
5.0
100
AcDbArc
 50
270.0
 51
0.0
  0
CIRCLE
  5
3B70
330
3EE1
100
AcDbEntity
  8
V0-OBRYS
  6
CONTINUOUS
 62
    90
100
AcDbCircle
 10
2865.04
 20
-842.380546
 30
0.0
 40
2.347961
  0
CIRCLE
  5
3B71
330
3EE1
100
AcDbEntity
  8
V0-OBRYS
  6
CONTINUOUS
 62
    90
100
AcDbCircle
 10
2865.04
 20
-791.310777
 30
0.0
 40
2.347961
  0
LINE
  5
3B72
330
3EE1
100
AcDbEntity
  8
V0-OBRYS
  6
CONTINUOUS
 62
    90
100
AcDbLine
 10
2789.708944
 20
155.61733
 30
0.0
 11
2869.708944
 21
155.61733
 31
0.0
  0
LINE
  5
3B73
330
3EE1
100
AcDbEntity
  8
V0-OBRYS
  6
CONTINUOUS
 62
    90
100
AcDbLine
 10
2869.708944
 20
125.61733
 30
0.0
 11
2789.708944
 21
125.61733
 31
0.0
  0
LINE
  5
3B74
330
3EE1
100
AcDbEntity
  8
V0-OBRYS
  6
CONTINUOUS
 62
    90
100
AcDbLine
 10
2789.708944
 20
165.61733
 30
0.0
 11
2869.708944
 21
165.61733
 31
0.0
  0
LINE
  5
3B75
330
3EE1
100
AcDbEntity
  8
V0-OBRYS
  6
CONTINUOUS
 62
    90
100
AcDbLine
 10
2789.708944
 20
125.61733
 30
0.0
 11
2789.708944
 21
165.61733
 31
0.0
  0
LINE
  5
3B76
330
3EE1
100
AcDbEntity
  8
V0-OBRYS
  6
CONTINUOUS
 62
    90
100
AcDbLine
 10
2869.708944
 20
165.61733
 30
0.0
 11
2869.708944
 21
125.61733
 31
0.0
  0
POINT
  5
3B77
330
3EE1
100
AcDbEntity
  8
V0-VYPLNE
  6
CONTINUOUS
 62
    41
100
AcDbPoint
 10
2751.111164
 20
-99.38267000000001
 30
0.0
  0
POINT
  5
3B78
330
3EE1
100
AcDbEntity
  8
V0-VYPLNE
  6
CONTINUOUS
 62
    41
100
AcDbPoint
 10
2929.709164
 20
-99.38267000000001
 30
0.0
  0
POINT
  5
3B79
330
3EE1
100
AcDbEntity
  8
V0-VYPLNE
  6
CONTINUOUS
 62
    41
100
AcDbPoint
 10
2921.098407
 20
-816.493589
 30
0.0
  0
POINT
  5
3B7A
330
3EE1
100
AcDbEntity
  8
V0-VYPLNE
  6
CONTINUOUS
 62
    41
100
AcDbPoint
 10
2751.111164
 20
-817.373958
 30
0.0
  0
LWPOLYLINE
  5
3EB7
330
3EE1
100
AcDbEntity
  8
V0-VYPLNE
  6
CONTINUOUS
 62
    41
100
AcDbPolyline
 90
        4
 70
     1
 43
0.0
 10
-3414.599142768183
 20
-361.8238515370227
 10
-3442.167634
 20
-348.979464
 10
-3420.255078792721
 20
-370.0706926102054
 10
-3420.255078792721
 20
-370.0706926102054
210
0.0
220
0.0
230
-1.0
1001
VDEXTRAPARAM
1071
       65
1071
        0
1071
        0
1040
1.0
1000

1000

1040
0.0
1040
0.0
  0
HATCH
  5
3F50
330
3EE1
100
AcDbEntity
  8
V0-VYPLNE
  6
CONTINUOUS
 62
    41
100
AcDbHatch
 10
0.0
 20
0.0
 30
0.0
210
0.0
220
0.0
230
-1.0
  2
SOLID
 70
     1
 71
     0
 91
        1
 92
        2
 72
     0
 73
     1
 93
        3
 10
-3414.599142768183
 20
-361.8238515370227
 10
-3442.167634
 20
-348.979464
 10
-3420.255078792721
 20
-370.0706926102054
 97
        0
 75
     0
 76
     1
 98
        1
 10
0.0
 20
0.0
1001
VDEXTRAPARAM
1071
       65
1071
        0
1071
        0
1040
1.0
1000

1000

1040
0.0
1040
0.0
1001
VD_TEMPHATCH
1000
VD_TEMPHATCH
  0
LWPOLYLINE
  5
3EB8
330
3EE1
100
AcDbEntity
  8
V0-VYPLNE
  6
CONTINUOUS
 62
    41
100
AcDbPolyline
 90
        3
 70
     0
 43
0.0
 10
3417.427110780452
 20
-365.947272073614
 10
3326.713685
 20
-428.161316
 10
3046.911913
 20
-428.161316
  0
TEXT
  5
3EBD
330
3EE1
100
AcDbEntity
  8
V0-VYPLNE
  6
CONTINUOUS
 62
    41
100
AcDbText
 10
2953.285113571429
 20
-426.158364
 30
0.0
 40
30.0
  1
8 OTVORU %%c12
  7
ED40
100
AcDbText
  0
VIEWPORT
  5
3F51
330
3EDD
100
AcDbEntity
 67
     1
  8
0
 60
     1
100
AcDbViewport
 10
261.517699
 20
148.5
 30
0.0
 40
297.0
 41
297.0
 68
     0
 69
     1
1001
VD_INVISIBLE_NOT_FOR_READ
1000
VD_INVISIBLE_NOT_FOR_READ
1001
ACAD
1000
MVIEW
1002
{
1070
    16
1010
0.0
1020
0.0
1030
0.0
1010
0.0
1020
0.0
1030
1.0
1040
6.2831853071796
1040
297.0
1040
261.517699
1040
148.5
1040
0.0
1040
0.0
1040
0.0
1070
     0
1070
   100
1070
     0
1070
     1
1070
     0
1070
     0
1070
     0
1070
     0
1040
0.0
1040
0.0
1040
0.0
1040
1.0
1040
1.0
1040
0.0
1040
0.0
1070
     0
1002
{
1002
}
1002
}
  0
VIEWPORT
  5
3F52
330
3EDD
100
AcDbEntity
 67
     1
  8
0
 60
     1
100
AcDbViewport
 10
261.517699
 20
148.5
 30
0.0
 40
297.0
 41
297.0
 68
     0
 69
     2
1001
VD_INVISIBLE_NOT_FOR_READ
1000
VD_INVISIBLE_NOT_FOR_READ
1001
ACAD
1000
MVIEW
1002
{
1070
    16
1010
0.0
1020
0.0
1030
0.0
1010
0.0
1020
0.0
1030
1.0
1040
6.2831853071796
1040
297.0
1040
261.517699
1040
148.5
1040
0.0
1040
0.0
1040
0.0
1070
     0
1070
   100
1070
     0
1070
     1
1070
     0
1070
     0
1070
     0
1070
     0
1040
0.0
1040
0.0
1040
0.0
1040
1.0
1040
1.0
1040
0.0
1040
0.0
1070
     0
1002
{
1002
}
1002
}
  0
ENDSEC
  0
SECTION
  2
OBJECTS
  0
DICTIONARY
  5
3ECE
330
0
100
AcDbDictionary
  3
ACAD_GROUP
350
3ECF
  3
ACAD_LAYOUT
350
3EDC
  3
ACAD_MLINESTYLE
350
3ED9
  3
ACAD_PLOTSETTINGS
350
3EDB
  3
ACDBHEADERROUNDTRIPXREC
350
3F53
  3
VECTORDRAW_OBJECTS
350
3EF1
  0
DICTIONARY
  5
3F73
330
3EEB
100
AcDbDictionary
280
     1
  3
ACAD_XREC_ROUNDTRIP
360
3F74
  0
DICTIONARY
  5
3ECF
102
{ACAD_REACTORS
330
3ECE
102
}
330
3ECE
100
AcDbDictionary
  0
DICTIONARY
  5
3EDC
102
{ACAD_REACTORS
330
3ECE
102
}
330
3ECE
100
AcDbDictionary
  0
DICTIONARY
  5
3ED9
102
{ACAD_REACTORS
330
3ECE
102
}
330
3ECE
100
AcDbDictionary
  3
STANDARD
350
3EDA
  0
DICTIONARY
  5
3EDB
102
{ACAD_REACTORS
330
3ECE
102
}
330
3ECE
100
AcDbDictionary
  0
DICTIONARY
  5
3F53
102
{ACAD_REACTORS
330
3ECE
102
}
330
3ECE
100
AcDbDictionary
  3
CEPSNTYPE
350
3F5C
  3
DIMSTYLEDATA
350
3F72
  3
FINGERPRINTGUID
350
3F5D
  3
HYPERLINKBASE
350
3F56
  3
INSUNITS
350
3F5B
  3
LAYOUTDICT
350
3F58
  3
LWETCUNION
350
3F5A
  3
PLOTSETDICT
350
3F59
  3
PSVPSCALE
350
3F5F
  3
PUCSBASE
350
3F62
  3
PUCSORGBACK
350
3F68
  3
PUCSORGBOTTOM
350
3F64
  3
PUCSORGFRONT
350
3F67
  3
PUCSORGLEFT
350
3F65
  3
PUCSORGRIGHT
350
3F66
  3
PUCSORGTOP
350
3F63
  3
PUCSORTHOREF
350
3F60
  3
PUCSORTHOVIEW
350
3F61
  3
STYLESHEET
350
3F57
  3
TSTACKALIGN
350
3F54
  3
TSTACKSIZE
350
3F55
  3
UCSBASE
350
3F6B
  3
UCSORGBACK
350
3F71
  3
UCSORGBOTTOM
350
3F6D
  3
UCSORGFRONT
350
3F70
  3
UCSORGLEFT
350
3F6E
  3
UCSORGRIGHT
350
3F6F
  3
UCSORGTOP
350
3F6C
  3
UCSORTHOREF
350
3F69
  3
UCSORTHOVIEW
350
3F6A
  3
VERSIONGUID
350
3F5E
  0
DICTIONARY
  5
3EF1
102
{ACAD_REACTORS
330
3ECE
102
}
330
3ECE
100
AcDbDictionary
  3
SERIALNO
350
3EF2
  0
XRECORD
  5
3F74
102
{ACAD_REACTORS
330
3F73
102
}
330
3F73
100
AcDbXrecord
102
UCS
 74
     0
 71
     1
 10
0.0
 20
0.0
 30
0.0
 10
1.0
 20
0.0
 30
0.0
 10
0.0
 20
1.0
 30
0.0
146
0.0
 79
     0
102
VIEW
281
     0
  0
MLINESTYLE
  5
3EDA
102
{ACAD_REACTORS
330
3ED9
102
}
330
3ED9
100
AcDbMlineStyle
  2
Standard
 70
     0
  3

 62
   256
 51
90.0
 52
90.0
 71
     2
 49
0.5
 62
   256
  6
BYLAYER
 49
-0.5
 62
   256
  6
BYLAYER
  0
XRECORD
  5
3F5C
102
{ACAD_REACTORS
330
3F53
102
}
330
3F53
100
AcDbXrecord
 90
        0
  0
XRECORD
  5
3F72
102
{ACAD_REACTORS
330
3F53
102
}
330
3F53
100
AcDbXrecord
1000
DSTYLE
1002
{
1070
    41
 40
40.0
1070
   342
340
90
1070
   177
 70
    41
1070
   178
 70
    41
1070
   271
 70
     0
1070
    44
 40
1.25
1070
    42
 40
1.0
1070
   147
 40
2.0
1070
    77
 70
     1
1070
    73
 70
     0
1070
   174
 70
     1
1070
   172
 70
     1
1070
    74
 70
     0
1070
   340
340
F39
1070
   140
 40
40.0
1070
   288
 70
     1
1002
}
  0
XRECORD
  5
3F5D
102
{ACAD_REACTORS
330
3F53
102
}
330
3F53
100
AcDbXrecord
  1
{FAEB1C30-E019-11D5-929B-00C0DF256EC4}
  0
XRECORD
  5
3F56
102
{ACAD_REACTORS
330
3F53
102
}
330
3F53
100
AcDbXrecord
  1

  0
XRECORD
  5
3F5B
102
{ACAD_REACTORS
330
3F53
102
}
330
3F53
100
AcDbXrecord
 90
        1
  0
XRECORD
  5
3F58
102
{ACAD_REACTORS
330
3F53
102
}
330
3F53
100
AcDbXrecord
340
3EDC
  0
XRECORD
  5
3F5A
102
{ACAD_REACTORS
330
3F53
102
}
330
3F53
100
AcDbXrecord
 90
     2560
  0
XRECORD
  5
3F59
102
{ACAD_REACTORS
330
3F53
102
}
330
3F53
100
AcDbXrecord
340
3EDB
  0
XRECORD
  5
3F5F
102
{ACAD_REACTORS
330
3F53
102
}
330
3F53
100
AcDbXrecord
 40
0.0
  0
XRECORD
  5
3F62
102
{ACAD_REACTORS
330
3F53
102
}
330
3F53
100
AcDbXrecord
340
0
  0
XRECORD
  5
3F68
102
{ACAD_REACTORS
330
3F53
102
}
330
3F53
100
AcDbXrecord
 10
0.0
 20
0.0
 30
0.0
  0
XRECORD
  5
3F64
102
{ACAD_REACTORS
330
3F53
102
}
330
3F53
100
AcDbXrecord
 10
0.0
 20
0.0
 30
0.0
  0
XRECORD
  5
3F67
102
{ACAD_REACTORS
330
3F53
102
}
330
3F53
100
AcDbXrecord
 10
0.0
 20
0.0
 30
0.0
  0
XRECORD
  5
3F65
102
{ACAD_REACTORS
330
3F53
102
}
330
3F53
100
AcDbXrecord
 10
0.0
 20
0.0
 30
0.0
  0
XRECORD
  5
3F66
102
{ACAD_REACTORS
330
3F53
102
}
330
3F53
100
AcDbXrecord
 10
0.0
 20
0.0
 30
0.0
  0
XRECORD
  5
3F63
102
{ACAD_REACTORS
330
3F53
102
}
330
3F53
100
AcDbXrecord
 10
0.0
 20
0.0
 30
0.0
  0
XRECORD
  5
3F60
102
{ACAD_REACTORS
330
3F53
102
}
330
3F53
100
AcDbXrecord
340
0
  0
XRECORD
  5
3F61
102
{ACAD_REACTORS
330
3F53
102
}
330
3F53
100
AcDbXrecord
 70
     0
  0
XRECORD
  5
3F57
102
{ACAD_REACTORS
330
3F53
102
}
330
3F53
100
AcDbXrecord
  1

  0
XRECORD
  5
3F54
102
{ACAD_REACTORS
330
3F53
102
}
330
3F53
100
AcDbXrecord
 90
        1
  0
XRECORD
  5
3F55
102
{ACAD_REACTORS
330
3F53
102
}
330
3F53
100
AcDbXrecord
 90
       70
  0
XRECORD
  5
3F6B
102
{ACAD_REACTORS
330
3F53
102
}
330
3F53
100
AcDbXrecord
340
0
  0
XRECORD
  5
3F71
102
{ACAD_REACTORS
330
3F53
102
}
330
3F53
100
AcDbXrecord
 10
0.0
 20
0.0
 30
0.0
  0
XRECORD
  5
3F6D
102
{ACAD_REACTORS
330
3F53
102
}
330
3F53
100
AcDbXrecord
 10
0.0
 20
0.0
 30
0.0
  0
XRECORD
  5
3F70
102
{ACAD_REACTORS
330
3F53
102
}
330
3F53
100
AcDbXrecord
 10
0.0
 20
0.0
 30
0.0
  0
XRECORD
  5
3F6E
102
{ACAD_REACTORS
330
3F53
102
}
330
3F53
100
AcDbXrecord
 10
0.0
 20
0.0
 30
0.0
  0
XRECORD
  5
3F6F
102
{ACAD_REACTORS
330
3F53
102
}
330
3F53
100
AcDbXrecord
 10
0.0
 20
0.0
 30
0.0
  0
XRECORD
  5
3F6C
102
{ACAD_REACTORS
330
3F53
102
}
330
3F53
100
AcDbXrecord
 10
0.0
 20
0.0
 30
0.0
  0
XRECORD
  5
3F69
102
{ACAD_REACTORS
330
3F53
102
}
330
3F53
100
AcDbXrecord
340
0
  0
XRECORD
  5
3F6A
102
{ACAD_REACTORS
330
3F53
102
}
330
3F53
100
AcDbXrecord
 70
     0
  0
XRECORD
  5
3F5E
102
{ACAD_REACTORS
330
3F53
102
}
330
3F53
100
AcDbXrecord
  1
{FAEB1C32-E019-11D5-929B-00C0DF256EC4}
  0
XRECORD
  5
3EF2
102
{ACAD_REACTORS
330
3EF1
102
}
330
3EF1
100
AcDbXrecord
1000
rInJVR9YY4Q8hfPWdUq5j5319
1070
     4
1070
     6
  0
ENDSEC
  0
EOF
