  0
SECTION
  2
HEADER
  9
$ACADVER
  1
AC1015
  9
$ACADMAINTVER
 70
     6
  9
$DWGCODEPAGE
  3
ANSI_1250
  9
$INSBASE
 10
0.0
 20
0.0
 30
0.0
  9
$EXTMIN
 10
221.2649875131182
 20
-35.23316837114544
 30
0.0
  9
$EXTMAX
 10
976.7716526448393
 20
410.4214377507097
 30
0.0
  9
$LIMMIN
 10
0.0
 20
0.0
  9
$LIMMAX
 10
12.0
 20
9.0
  9
$ORTHOMODE
 70
     0
  9
$REGENMODE
 70
     1
  9
$FILLMODE
 70
     1
  9
$QTEXTMODE
 70
     0
  9
$MIRRTEXT
 70
     1
  9
$LTSCALE
 40
1.0
  9
$ATTMODE
 70
     1
  9
$TEXTSIZE
 40
0.2
  9
$TRACEWID
 40
0.05
  9
$TEXTSTYLE
  7
Standard
  9
$CLAYER
  8
popis
  9
$CELTYPE
  6
ByLayer
  9
$CECOLOR
 62
   256
  9
$CELTSCALE
 40
1.0
  9
$DISPSILH
 70
     0
  9
$DIMSCALE
 40
10.0
  9
$DIMASZ
 40
2.0
  9
$DIMEXO
 40
0.625
  9
$DIMDLI
 40
0.38
  9
$DIMRND
 40
0.0
  9
$DIMDLE
 40
0.0
  9
$DIMEXE
 40
1.25
  9
$DIMTP
 40
0.0
  9
$DIMTM
 40
0.0
  9
$DIMTXT
 40
2.0
  9
$DIMCEN
 40
0.09
  9
$DIMTSZ
 40
0.0
  9
$DIMTOL
 70
     0
  9
$DIMLIM
 70
     0
  9
$DIMTIH
 70
     0
  9
$DIMTOH
 70
     0
  9
$DIMSE1
 70
     0
  9
$DIMSE2
 70
     0
  9
$DIMTAD
 70
     1
  9
$DIMZIN
 70
     0
  9
$DIMBLK
  1
VDDIM_DEFAULT
  9
$DIMASO
 70
     1
  9
$DIMSHO
 70
     1
  9
$DIMPOST
  1

  9
$DIMAPOST
  1

  9
$DIMALT
 70
     0
  9
$DIMALTD
 70
     2
  9
$DIMALTF
 40
25.4
  9
$DIMLFAC
 40
1.0
  9
$DIMTOFL
 70
     1
  9
$DIMTVP
 40
0.0
  9
$DIMTIX
 70
     1
  9
$DIMSOXD
 70
     0
  9
$DIMSAH
 70
     0
  9
$DIMBLK1
  1

  9
$DIMBLK2
  1

  9
$DIMSTYLE
  2
ISO-25
  9
$DIMCLRD
 70
     0
  9
$DIMCLRE
 70
     0
  9
$DIMCLRT
 70
     0
  9
$DIMTFAC
 40
1.0
  9
$DIMGAP
 40
0.625
  9
$DIMJUST
 70
     0
  9
$DIMSD1
 70
     0
  9
$DIMSD2
 70
     0
  9
$DIMTOLJ
 70
     1
  9
$DIMTZIN
 70
     0
  9
$DIMALTZ
 70
     0
  9
$DIMALTTZ
 70
     0
  9
$DIMUPT
 70
     1
  9
$DIMDEC
 70
     2
  9
$DIMTDEC
 70
     4
  9
$DIMALTU
 70
     2
  9
$DIMALTTD
 70
     2
  9
$DIMTXSTY
  7
Standard
  9
$DIMAUNIT
 70
     0
  9
$DIMADEC
 70
     0
  9
$DIMALTRND
 40
0.0
  9
$DIMAZIN
 70
     0
  9
$DIMDSEP
 70
    46
  9
$DIMATFIT
 70
     3
  9
$DIMFRAC
 70
     0
  9
$DIMLDRBLK
  1

  9
$DIMLUNIT
 70
     2
  9
$DIMLWD
 70
    -2
  9
$DIMLWE
 70
    -2
  9
$DIMTMOVE
 70
     0
  9
$LUNITS
 70
     2
  9
$LUPREC
 70
     4
  9
$SKETCHINC
 40
0.1
  9
$FILLETRAD
 40
0.5
  9
$AUNITS
 70
     0
  9
$AUPREC
 70
     0
  9
$MENU
  1
.
  9
$ELEVATION
 40
0.0
  9
$PELEVATION
 40
0.0
  9
$THICKNESS
 40
0.0
  9
$LIMCHECK
 70
     0
  9
$CHAMFERA
 40
0.5
  9
$CHAMFERB
 40
0.5
  9
$CHAMFERC
 40
1.0
  9
$CHAMFERD
 40
0.0
  9
$SKPOLY
 70
     0
  9
$TDCREATE
 40
2455595.679983171
  9
$TDUCREATE
 40
2455595.638316505
  9
$TDUPDATE
 40
2455595.679983183
  9
$TDUUPDATE
 40
2455595.638316516
  9
$TDINDWG
 40
0.0000000116
  9
$TDUSRTIMER
 40
0.0000000116
  9
$USRTIMER
 70
     1
  9
$ANGBASE
 50
0.0
  9
$ANGDIR
 70
     0
  9
$PDMODE
 70
     0
  9
$PDSIZE
 40
0.0
  9
$PLINEWID
 40
0.0
  9
$SPLFRAME
 70
     0
  9
$SPLINETYPE
 70
     6
  9
$SPLINESEGS
 70
     8
  9
$HANDSEED
  5
35E
  9
$SURFTAB1
 70
     6
  9
$SURFTAB2
 70
     6
  9
$SURFTYPE
 70
     6
  9
$SURFU
 70
     6
  9
$SURFV
 70
     6
  9
$UCSBASE
  2

  9
$UCSNAME
  2

  9
$UCSORG
 10
0.0
 20
0.0
 30
0.0
  9
$UCSXDIR
 10
1.0
 20
0.0
 30
0.0
  9
$UCSYDIR
 10
0.0
 20
1.0
 30
0.0
  9
$UCSORTHOREF
  2

  9
$UCSORTHOVIEW
 70
     0
  9
$UCSORGTOP
 10
0.0
 20
0.0
 30
0.0
  9
$UCSORGBOTTOM
 10
0.0
 20
0.0
 30
0.0
  9
$UCSORGLEFT
 10
0.0
 20
0.0
 30
0.0
  9
$UCSORGRIGHT
 10
0.0
 20
0.0
 30
0.0
  9
$UCSORGFRONT
 10
0.0
 20
0.0
 30
0.0
  9
$UCSORGBACK
 10
0.0
 20
0.0
 30
0.0
  9
$PUCSBASE
  2

  9
$PUCSNAME
  2

  9
$PUCSORG
 10
0.0
 20
0.0
 30
0.0
  9
$PUCSXDIR
 10
1.0
 20
0.0
 30
0.0
  9
$PUCSYDIR
 10
0.0
 20
1.0
 30
0.0
  9
$PUCSORTHOREF
  2

  9
$PUCSORTHOVIEW
 70
     0
  9
$PUCSORGTOP
 10
0.0
 20
0.0
 30
0.0
  9
$PUCSORGBOTTOM
 10
0.0
 20
0.0
 30
0.0
  9
$PUCSORGLEFT
 10
0.0
 20
0.0
 30
0.0
  9
$PUCSORGRIGHT
 10
0.0
 20
0.0
 30
0.0
  9
$PUCSORGFRONT
 10
0.0
 20
0.0
 30
0.0
  9
$PUCSORGBACK
 10
0.0
 20
0.0
 30
0.0
  9
$USERI1
 70
     0
  9
$USERI2
 70
     0
  9
$USERI3
 70
     0
  9
$USERI4
 70
     0
  9
$USERI5
 70
     0
  9
$USERR1
 40
0.0
  9
$USERR2
 40
0.0
  9
$USERR3
 40
0.0
  9
$USERR4
 40
0.0
  9
$USERR5
 40
0.0
  9
$WORLDVIEW
 70
     1
  9
$SHADEDGE
 70
     3
  9
$SHADEDIF
 70
    70
  9
$TILEMODE
 70
     1
  9
$MAXACTVP
 70
    64
  9
$PINSBASE
 10
0.0
 20
0.0
 30
0.0
  9
$PLIMCHECK
 70
     0
  9
$PEXTMIN
 10
1.000000000000000E+20
 20
1.000000000000000E+20
 30
1.000000000000000E+20
  9
$PEXTMAX
 10
-1.000000000000000E+20
 20
-1.000000000000000E+20
 30
-1.000000000000000E+20
  9
$PLIMMIN
 10
0.0
 20
0.0
  9
$PLIMMAX
 10
12.0
 20
9.0
  9
$UNITMODE
 70
     0
  9
$VISRETAIN
 70
     1
  9
$PLINEGEN
 70
     0
  9
$PSLTSCALE
 70
     1
  9
$TREEDEPTH
 70
  3020
  9
$CMLSTYLE
  2
Standard
  9
$CMLJUST
 70
     0
  9
$CMLSCALE
 40
1.0
  9
$PROXYGRAPHICS
 70
     1
  9
$MEASUREMENT
 70
     0
  9
$CELWEIGHT
370
    -1
  9
$ENDCAPS
280
     0
  9
$JOINSTYLE
280
     0
  9
$LWDISPLAY
290
     0
  9
$INSUNITS
 70
     1
  9
$HYPERLINKBASE
  1

  9
$STYLESHEET
  1

  9
$XEDIT
290
     1
  9
$CEPSNTYPE
380
     0
  9
$PSTYLEMODE
290
     0
  9
$FINGERPRINTGUID
  2
{FAEB1C30-E019-11D5-929B-00C0DF256EC4}
  9
$VERSIONGUID
  2
{FAEB1C32-E019-11D5-929B-00C0DF256EC4}
  9
$EXTNAMES
290
     1
  9
$PSVPSCALE
 40
0.0
  9
$OLESTARTUP
290
     0
  0
ENDSEC
  0
SECTION
  2
CLASSES
  0
CLASS
  1
ACDBDICTIONARYWDFLT
  2
AcDbDictionaryWithDefault
  3
ObjectDBX Classes
 90
        0
280
     0
281
     0
  0
CLASS
  1
ACDBPLACEHOLDER
  2
AcDbPlaceHolder
  3
ObjectDBX Classes
 90
        0
280
     0
281
     0
  0
CLASS
  1
LAYOUT
  2
AcDbLayout
  3
ObjectDBX Classes
 90
        0
280
     0
281
     0
  0
ENDSEC
  0
SECTION
  2
TABLES
  0
TABLE
  2
VPORT
  5
2F0
330
0
100
AcDbSymbolTable
 70
     2
  0
VPORT
  5
311
330
2F0
100
AcDbSymbolTableRecord
100
AcDbViewportTableRecord
  2
*Active
 70
     0
 10
0.0
 20
0.0
 11
1.0
 21
1.0
 12
602.1106277712858
 22
187.5941346897817
 13
0.0
 23
0.0
 14
10.0
 24
10.0
 15
10.0
 25
10.0
 16
0.0
 26
0.0
 36
1.0
 17
0.0
 27
0.0
 37
0.0
 40
450.0095371263039
 41
0.0394586231861775
 42
50.0
 43
0.0
 44
0.0
 50
0.0
 51
0.0000000000007958
 71
     0
 72
   100
 73
     1
 74
     3
 75
     0
 76
     0
 77
     0
 78
     0
281
     0
 65
     1
110
0.0
120
0.0
130
0.0
111
1.0
121
0.0
131
0.0
112
0.0
122
1.0
132
0.0
 79
     0
146
0.0
  0
ENDTAB
  0
TABLE
  2
LTYPE
  5
2ED
330
0
100
AcDbSymbolTable
 70
    25
  0
LTYPE
  5
2FC
330
2ED
100
AcDbSymbolTableRecord
100
AcDbLinetypeTableRecord
  2
ByBlock
 70
     0
  3

 72
    65
 73
     0
 40
0.0
  0
LTYPE
  5
2FD
330
2ED
100
AcDbSymbolTableRecord
100
AcDbLinetypeTableRecord
  2
ByLayer
 70
     0
  3

 72
    65
 73
     0
 40
0.0
  0
LTYPE
  5
2FE
330
2ED
100
AcDbSymbolTableRecord
100
AcDbLinetypeTableRecord
  2
Continuous
 70
     0
  3
Solid line
 72
    65
 73
     0
 40
0.0
  0
LTYPE
  5
319
330
2ED
100
AcDbSymbolTableRecord
100
AcDbLinetypeTableRecord
  2
CENTER
 70
     0
  3
Center ____ _ ____ _ ____ _ ____ _ ____ _ ____
 72
    65
 73
     4
 40
2.0
 49
1.25
 74
     0
 49
-0.25
 74
     0
 49
0.25
 74
     0
 49
-0.25
 74
     0
  0
LTYPE
  5
31A
330
2ED
100
AcDbSymbolTableRecord
100
AcDbLinetypeTableRecord
  2
DASHDOT
 70
     0
  3
Dashdot __ . __ . __ . __ . __ . __ . __ . __
 72
    65
 73
     4
 40
1.0
 49
0.5
 74
     0
 49
-0.25
 74
     0
 49
0.0
 74
     0
 49
-0.25
 74
     0
  0
LTYPE
  5
31B
330
2ED
100
AcDbSymbolTableRecord
100
AcDbLinetypeTableRecord
  2
DASHED
 70
     0
  3
Dashed __ __ __ __ __ __ __ __ __ __ __ __ __ _
 72
    65
 73
     2
 40
0.75
 49
0.5
 74
     0
 49
-0.25
 74
     0
  0
LTYPE
  5
31C
330
2ED
100
AcDbSymbolTableRecord
100
AcDbLinetypeTableRecord
  2
HIDDEN
 70
     0
  3
Hidden __ __ __ __ __ __ __ __ __ __ __ __ __ __
 72
    65
 73
     2
 40
0.375
 49
0.25
 74
     0
 49
-0.125
 74
     0
  0
LTYPE
  5
31D
330
2ED
100
AcDbSymbolTableRecord
100
AcDbLinetypeTableRecord
  2
HIDDEN2
 70
     0
  3
Hidden2 _ _ _ _ _ _ _ _ _ _ _ _ _ _ _ _ _ 
 72
    65
 73
     2
 40
0.1875
 49
0.125
 74
     0
 49
-0.0625
 74
     0
  0
LTYPE
  5
31E
330
2ED
100
AcDbSymbolTableRecord
100
AcDbLinetypeTableRecord
  2
BORDER
 70
     0
  3
Border __ __ . __ __ . __ __ . __ __ . __ __ .
 72
    65
 73
     6
 40
1.75
 49
0.5
 74
     0
 49
-0.25
 74
     0
 49
0.5
 74
     0
 49
-0.25
 74
     0
 49
0.0
 74
     0
 49
-0.25
 74
     0
  0
LTYPE
  5
31F
330
2ED
100
AcDbSymbolTableRecord
100
AcDbLinetypeTableRecord
  2
BORDER2
 70
     0
  3
Border2 __.__.__.__.__.__.__.__.__.__.__.
 72
    65
 73
     6
 40
0.875
 49
0.25
 74
     0
 49
-0.125
 74
     0
 49
0.25
 74
     0
 49
-0.125
 74
     0
 49
0.0
 74
     0
 49
-0.125
 74
     0
  0
LTYPE
  5
320
330
2ED
100
AcDbSymbolTableRecord
100
AcDbLinetypeTableRecord
  2
BORDERX2
 70
     0
  3
Borderx2  ____  ____  .  ____  ____  .  ___
 72
    65
 73
     6
 40
3.5
 49
1.0
 74
     0
 49
-0.5
 74
     0
 49
1.0
 74
     0
 49
-0.5
 74
     0
 49
0.0
 74
     0
 49
-0.5
 74
     0
  0
LTYPE
  5
321
330
2ED
100
AcDbSymbolTableRecord
100
AcDbLinetypeTableRecord
  2
CENTER2
 70
     0
  3
Center2  ___ _ ___ _ ___ _ ___ _ ___ _ ___
 72
    65
 73
     4
 40
1.125
 49
0.75
 74
     0
 49
-0.125
 74
     0
 49
0.125
 74
     0
 49
-0.125
 74
     0
  0
LTYPE
  5
322
330
2ED
100
AcDbSymbolTableRecord
100
AcDbLinetypeTableRecord
  2
CENTERX2
 70
     0
  3
Centerx2  ________  __  ________  __  _____
 72
    65
 73
     4
 40
4.0
 49
2.5
 74
     0
 49
-0.5
 74
     0
 49
0.5
 74
     0
 49
-0.5
 74
     0
  0
LTYPE
  5
323
330
2ED
100
AcDbSymbolTableRecord
100
AcDbLinetypeTableRecord
  2
DASHDOT2
 70
     0
  3
Dashdot2  _._._._._._._._._._._._._._._.
 72
    65
 73
     4
 40
0.5
 49
0.25
 74
     0
 49
-0.125
 74
     0
 49
0.0
 74
     0
 49
-0.125
 74
     0
  0
LTYPE
  5
324
330
2ED
100
AcDbSymbolTableRecord
100
AcDbLinetypeTableRecord
  2
DASHDOTX2
 70
     0
  3
Dashdotx2 ____  .  ____  .  ____  .  ___
 72
    65
 73
     4
 40
2.0
 49
1.0
 74
     0
 49
-0.5
 74
     0
 49
0.0
 74
     0
 49
-0.5
 74
     0
  0
LTYPE
  5
325
330
2ED
100
AcDbSymbolTableRecord
100
AcDbLinetypeTableRecord
  2
DASHED2
 70
     0
  3
Dashed2 _ _ _ _ _ _ _ _ _ _ _ _ _ _ _ _ _ 
 72
    65
 73
     2
 40
0.375
 49
0.25
 74
     0
 49
-0.125
 74
     0
  0
LTYPE
  5
326
330
2ED
100
AcDbSymbolTableRecord
100
AcDbLinetypeTableRecord
  2
DASHEDX2
 70
     0
  3
Dashedx2 ____  ____  ____  ____  ____  ___
 72
    65
 73
     2
 40
1.5
 49
1.0
 74
     0
 49
-0.5
 74
     0
  0
LTYPE
  5
327
330
2ED
100
AcDbSymbolTableRecord
100
AcDbLinetypeTableRecord
  2
DIVIDE
 70
     0
  3
Divide ____ . . ____ . . ____ . . ____ . . ____
 72
    65
 73
     6
 40
1.25
 49
0.5
 74
     0
 49
-0.25
 74
     0
 49
0.0
 74
     0
 49
-0.25
 74
     0
 49
0.0
 74
     0
 49
-0.25
 74
     0
  0
LTYPE
  5
328
330
2ED
100
AcDbSymbolTableRecord
100
AcDbLinetypeTableRecord
  2
DIVIDE2
 70
     0
  3
Divide2 __..__..__..__..__..__..__..__.._
 72
    65
 73
     6
 40
0.625
 49
0.25
 74
     0
 49
-0.125
 74
     0
 49
0.0
 74
     0
 49
-0.125
 74
     0
 49
0.0
 74
     0
 49
-0.125
 74
     0
  0
LTYPE
  5
329
330
2ED
100
AcDbSymbolTableRecord
100
AcDbLinetypeTableRecord
  2
DIVIDEX2
 70
     0
  3
Dividex2 ________  .  .  ________  .  .  _
 72
    65
 73
     6
 40
2.5
 49
1.0
 74
     0
 49
-0.5
 74
     0
 49
0.0
 74
     0
 49
-0.5
 74
     0
 49
0.0
 74
     0
 49
-0.5
 74
     0
  0
LTYPE
  5
32A
330
2ED
100
AcDbSymbolTableRecord
100
AcDbLinetypeTableRecord
  2
DOT
 70
     0
  3
Dot . . . . . . . . . . . . . . . . . . . . . . . .
 72
    65
 73
     2
 40
0.25
 49
0.0
 74
     0
 49
-0.25
 74
     0
  0
LTYPE
  5
32B
330
2ED
100
AcDbSymbolTableRecord
100
AcDbLinetypeTableRecord
  2
DOT2
 70
     0
  3
Dot2 ........................................
 72
    65
 73
     2
 40
0.125
 49
0.0
 74
     0
 49
-0.125
 74
     0
  0
LTYPE
  5
32C
330
2ED
100
AcDbSymbolTableRecord
100
AcDbLinetypeTableRecord
  2
DOTX2
 70
     0
  3
Dotx2 .  .  .  .  .  .  .  .  .  .  .  .  .  .
 72
    65
 73
     2
 40
0.5
 49
0.0
 74
     0
 49
-0.5
 74
     0
  0
LTYPE
  5
32D
330
2ED
100
AcDbSymbolTableRecord
100
AcDbLinetypeTableRecord
  2
HIDDENX2
 70
     0
  3
Hiddenx2 ____ ____ ____ ____ ____ ____ ____ 
 72
    65
 73
     2
 40
0.75
 49
0.5
 74
     0
 49
-0.25
 74
     0
  0
LTYPE
  5
32E
330
2ED
100
AcDbSymbolTableRecord
100
AcDbLinetypeTableRecord
  2
PHANTOM
 70
     0
  3
Phantom ______  __  __  ______  __  __  ______ 
 72
    65
 73
     6
 40
2.5
 49
1.25
 74
     0
 49
-0.25
 74
     0
 49
0.25
 74
     0
 49
-0.25
 74
     0
 49
0.25
 74
     0
 49
-0.25
 74
     0
  0
LTYPE
  5
32F
330
2ED
100
AcDbSymbolTableRecord
100
AcDbLinetypeTableRecord
  2
PHANTOM2
 70
     0
  3
Phantom2 ___ _ _ ___ _ _ ___ _ _ ___ _ _
 72
    65
 73
     6
 40
1.25
 49
0.625
 74
     0
 49
-0.125
 74
     0
 49
0.125
 74
     0
 49
-0.125
 74
     0
 49
0.125
 74
     0
 49
-0.125
 74
     0
  0
LTYPE
  5
330
330
2ED
100
AcDbSymbolTableRecord
100
AcDbLinetypeTableRecord
  2
PHANTOMX2
 70
     0
  3
Phantomx2 ____________    ____    ____   _
 72
    65
 73
     6
 40
5.0
 49
2.5
 74
     0
 49
-0.5
 74
     0
 49
0.5
 74
     0
 49
-0.5
 74
     0
 49
0.5
 74
     0
 49
-0.5
 74
     0
  0
ENDTAB
  0
TABLE
  2
LAYER
  5
2EA
330
0
100
AcDbSymbolTable
 70
     5
  0
LAYER
  5
2F8
330
2EA
100
AcDbSymbolTableRecord
100
AcDbLayerTableRecord
  2
0
 70
     0
 62
    90
  6
Continuous
370
     0
390
2F7
  0
LAYER
  5
2B
330
2EA
100
AcDbSymbolTableRecord
100
AcDbLayerTableRecord
  2
koty
 70
     0
 62
    41
  6
Continuous
370
     0
390
2F7
  0
LAYER
  5
2C
330
2EA
100
AcDbSymbolTableRecord
100
AcDbLayerTableRecord
  2
popis
 70
     0
 62
   210
  6
Continuous
370
     0
390
2F7
  0
LAYER
  5
4E
330
2EA
100
AcDbSymbolTableRecord
100
AcDbLayerTableRecord
  2
Defpoints
 70
     0
 62
    90
  6
Continuous
290
     0
370
     0
390
2F7
  0
LAYER
  5
C4
330
2EA
100
AcDbSymbolTableRecord
100
AcDbLayerTableRecord
  2
srafy
 70
     0
 62
    90
  6
Continuous
370
     0
390
2F7
  0
ENDTAB
  0
TABLE
  2
STYLE
  5
2EB
330
0
100
AcDbSymbolTable
 70
     2
  0
STYLE
  5
2F9
330
2EB
100
AcDbSymbolTableRecord
100
AcDbTextStyleTableRecord
  2
Standard
 70
     0
 40
0.0
 41
1.0
 50
0.0
 71
     0
 42
0.2
  3
txt.shx
  4

1001
ACAD
1000
txt.shx
1071
        0
  0
STYLE
  5
120
330
2EB
100
AcDbSymbolTableRecord
100
AcDbTextStyleTableRecord
  2
vd_recov_1_120_
 70
     0
 40
0.0
 41
1.0
 50
0.0
 71
     0
 42
0.2
  3
ltypeshp.shx
  4

1001
ACAD
1000
ltypeshp.shx
1071
        0
  0
ENDTAB
  0
TABLE
  2
VIEW
  5
2EE
330
0
100
AcDbSymbolTable
 70
     0
  0
ENDTAB
  0
TABLE
  2
UCS
  5
2EF
330
0
100
AcDbSymbolTable
 70
     0
  0
ENDTAB
  0
TABLE
  2
APPID
  5
2F1
330
0
100
AcDbSymbolTable
 70
     6
  0
APPID
  5
2FA
330
2F1
100
AcDbSymbolTableRecord
100
AcDbRegAppTableRecord
  2
ACAD
 70
     0
  0
APPID
  5
312
330
2F1
100
AcDbSymbolTableRecord
100
AcDbRegAppTableRecord
  2
VD_INVISIBLE_NOT_FOR_READ
 70
     0
  0
APPID
  5
313
330
2F1
100
AcDbSymbolTableRecord
100
AcDbRegAppTableRecord
  2
VD_TEMPHATCH
 70
     0
  0
APPID
  5
314
330
2F1
100
AcDbSymbolTableRecord
100
AcDbRegAppTableRecord
  2
VDEXTRAPARAM
 70
     0
  0
APPID
  5
315
330
2F1
100
AcDbSymbolTableRecord
100
AcDbRegAppTableRecord
  2
PE_URL
 70
     0
  0
APPID
  5
316
330
2F1
100
AcDbSymbolTableRecord
100
AcDbRegAppTableRecord
  2
VD_UNKNOWN
 70
     0
  0
ENDTAB
  0
TABLE
  2
DIMSTYLE
  5
2F2
330
0
100
AcDbSymbolTable
 70
     2
100
AcDbDimStyleTable
  0
DIMSTYLE
105
30F
330
2F2
100
AcDbSymbolTableRecord
100
AcDbDimStyleTableRecord
  2
STANDARD
 70
     0
 41
0.2
 42
0.05
 44
0.2
 73
     0
 74
     0
140
0.2
172
     1
174
     1
177
   256
178
   256
288
     1
340
2F9
342
2E5
  0
DIMSTYLE
105
27
102
{ACAD_REACTORS
330
290
330
2A8
330
2C0
102
}
330
2F2
100
AcDbSymbolTableRecord
100
AcDbDimStyleTableRecord
  2
ISO-25
 70
     0
 40
10.0
 41
2.0
 42
0.625
 44
1.25
 73
     0
 74
     0
 77
     1
140
2.0
147
0.625
172
     1
174
     1
271
     2
288
     1
340
2F9
342
2E5
  0
ENDTAB
  0
TABLE
  2
BLOCK_RECORD
  5
2E9
330
0
100
AcDbSymbolTable
 70
     6
  0
BLOCK_RECORD
  5
307
330
2E9
100
AcDbSymbolTableRecord
100
AcDbBlockTableRecord
  2
*Model_Space
340
30A
  0
BLOCK_RECORD
  5
303
330
2E9
100
AcDbSymbolTableRecord
100
AcDbBlockTableRecord
  2
*Paper_Space
340
306
  0
BLOCK_RECORD
  5
30B
330
2E9
100
AcDbSymbolTableRecord
100
AcDbBlockTableRecord
  2
*Paper_Space0
340
30E
  0
BLOCK_RECORD
  5
2E5
330
2E9
100
AcDbSymbolTableRecord
100
AcDbBlockTableRecord
  2
VDDIM_DEFAULT
340
0
102
{BLKREFS
331
33B
331
33A
331
347
331
346
331
353
331
352
102
}
  0
BLOCK_RECORD
  5
2E7
330
2E9
100
AcDbSymbolTableRecord
100
AcDbBlockTableRecord
  2
VDDIM_NONE
340
0
  0
BLOCK_RECORD
  5
336
330
2E9
100
AcDbSymbolTableRecord
100
AcDbBlockTableRecord
  2
*D3
340
0
  0
BLOCK_RECORD
  5
342
330
2E9
100
AcDbSymbolTableRecord
100
AcDbBlockTableRecord
  2
*D4
340
0
  0
BLOCK_RECORD
  5
34E
330
2E9
100
AcDbSymbolTableRecord
100
AcDbBlockTableRecord
  2
*D5
340
0
  0
ENDTAB
  0
ENDSEC
  0
SECTION
  2
BLOCKS
  0
BLOCK
  5
308
330
307
100
AcDbEntity
  8
0
100
AcDbBlockBegin
  2
*Model_Space
 70
     0
 71
     0
 10
0.0
 20
0.0
 30
0.0
  3
*Model_Space
  1

  0
ENDBLK
  5
309
330
307
100
AcDbEntity
  8
0
100
AcDbBlockEnd
  0
BLOCK
  5
304
330
303
100
AcDbEntity
 67
     1
  8
0
100
AcDbBlockBegin
  2
*Paper_Space
 70
     0
 71
     0
 10
0.0
 20
0.0
 30
0.0
  3
*Paper_Space
  1

  0
ENDBLK
  5
305
330
303
100
AcDbEntity
 67
     1
  8
0
100
AcDbBlockEnd
  0
BLOCK
  5
30C
330
30B
100
AcDbEntity
  8
0
100
AcDbBlockBegin
  2
*Paper_Space0
 70
     0
 71
     0
 10
0.0
 20
0.0
 30
0.0
  3
*Paper_Space0
  1

  0
VIEWPORT
  5
35C
330
30B
100
AcDbEntity
  8
0
 60
     1
100
AcDbViewport
 10
0.0
 20
0.0
 30
0.0
 40
10.0
 41
10.0
 69
     1
 12
0.0
 22
0.0
 13
0.0
 23
0.0
 14
1.0
 24
1.0
 15
0.0
 25
0.0
 16
0.0
 26
0.0
 36
1.0
 17
0.0
 27
0.0
 37
0.0
 42
0.0
 43
0.0
 44
0.0
 45
10.0
 50
0.0
 51
0.0000000000007958
 72
   100
 90
   163872
  1

281
     0
 71
     0
 74
     0
110
0.0
120
0.0
130
0.0
111
1.0
121
0.0
131
0.0
112
0.0
122
1.0
132
0.0
 79
     0
146
0.0
1001
VD_INVISIBLE_NOT_FOR_READ
1000
VD_INVISIBLE_NOT_FOR_READ
  0
VIEWPORT
  5
35D
330
30B
100
AcDbEntity
  8
0
 60
     1
100
AcDbViewport
 10
0.0
 20
0.0
 30
0.0
 40
10.0
 41
10.0
 69
     2
 12
0.0
 22
0.0
 13
0.0
 23
0.0
 14
1.0
 24
1.0
 15
0.0
 25
0.0
 16
0.0
 26
0.0
 36
1.0
 17
0.0
 27
0.0
 37
0.0
 42
0.0
 43
0.0
 44
0.0
 45
10.0
 50
0.0
 51
0.0000000000007958
 72
   100
 90
   163872
  1

281
     0
 71
     0
 74
     0
110
0.0
120
0.0
130
0.0
111
1.0
121
0.0
131
0.0
112
0.0
122
1.0
132
0.0
 79
     0
146
0.0
1001
VD_INVISIBLE_NOT_FOR_READ
1000
VD_INVISIBLE_NOT_FOR_READ
  0
ENDBLK
  5
30D
330
30B
100
AcDbEntity
  8
0
100
AcDbBlockEnd
  0
BLOCK
  5
331
330
2E5
100
AcDbEntity
  8
0
100
AcDbBlockBegin
  2
VDDIM_DEFAULT
 70
     0
 71
     0
 10
0.0
 20
0.0
 30
0.0
  3
VDDIM_DEFAULT
  1

  0
LWPOLYLINE
  5
2E6
330
2E5
100
AcDbEntity
  8
0
  6
Continuous
 62
     0
100
AcDbPolyline
 90
        4
 70
     0
 43
0.0
 10
0.0
 20
0.0
 10
-1.0
 20
-0.1665
 10
-1.0
 20
0.1665
 10
0.0
 20
0.0
1001
VDEXTRAPARAM
1071
        1
1071
        0
1071
        0
1040
1.0
1000

1000

1040
0.0
1040
0.0
  0
HATCH
  5
335
330
2E5
100
AcDbEntity
  8
0
  6
Continuous
 62
     0
100
AcDbHatch
 10
0.0
 20
0.0
 30
0.0
210
0.0
220
0.0
230
1.0
  2
SOLID
 70
     1
 71
     0
 91
        1
 92
        2
 72
     0
 73
     1
 93
        3
 10
0.0
 20
0.0
 10
-1.0
 20
-0.1665
 10
-1.0
 20
0.1665
 97
        0
 75
     0
 76
     1
 98
        1
 10
0.0
 20
0.0
1001
VDEXTRAPARAM
1071
        1
1071
        0
1071
        0
1040
1.0
1000

1000

1040
0.0
1040
0.0
1001
VD_TEMPHATCH
1000
VD_TEMPHATCH
  0
ENDBLK
  5
332
330
2E5
100
AcDbEntity
  8
0
100
AcDbBlockEnd
  0
BLOCK
  5
333
330
2E7
100
AcDbEntity
  8
0
100
AcDbBlockBegin
  2
VDDIM_NONE
 70
     0
 71
     0
 10
0.0
 20
0.0
 30
0.0
  3
VDDIM_NONE
  1

  0
ENDBLK
  5
334
330
2E7
100
AcDbEntity
  8
0
100
AcDbBlockEnd
  0
BLOCK
  5
340
330
336
100
AcDbEntity
  8
0
100
AcDbBlockBegin
  2
*D3
 70
     1
 71
     0
 10
0.0
 20
0.0
 30
0.0
  3
*D3
  1

  0
LINE
  5
337
330
336
100
AcDbEntity
  8
koty
 62
     0
370
    -2
100
AcDbLine
 10
374.6505482397206
 20
85.63045315601812
 30
0.0
 11
374.6505482397206
 21
23.63503238259727
 31
0.0
  0
LINE
  5
338
330
336
100
AcDbEntity
  8
koty
 62
     0
370
    -2
100
AcDbLine
 10
548.6505482397205
 20
85.63045315601812
 30
0.0
 11
548.6505482397205
 21
23.63503238259727
 31
0.0
  0
LINE
  5
339
330
336
100
AcDbEntity
  8
koty
 62
     0
370
    -2
100
AcDbLine
 10
394.6505482397206
 20
36.13503238259727
 30
0.0
 11
528.6505482397205
 21
36.13503238259727
 31
0.0
  0
INSERT
  5
33A
330
336
100
AcDbEntity
  8
koty
 62
     0
370
    -2
100
AcDbBlockReference
  2
VDDIM_DEFAULT
 10
374.6505482397206
 20
36.13503238259727
 30
0.0
 41
20.0
 42
20.0
 43
20.0
 50
180.0
  0
INSERT
  5
33B
330
336
100
AcDbEntity
  8
koty
 62
     0
370
    -2
100
AcDbBlockReference
  2
VDDIM_DEFAULT
 10
548.6505482397205
 20
36.13503238259727
 30
0.0
 41
20.0
 42
20.0
 43
20.0
 50
360.0
  0
MTEXT
  5
33C
330
336
100
AcDbEntity
  8
koty
 62
     0
100
AcDbMText
 10
461.6505482397205
 20
52.38503238259727
 30
0.0
 40
20.0
 41
0.0
 71
     5
 72
     1
  1
\A1;174.00
 73
     1
 44
1.0
  0
POINT
  5
33D
330
336
100
AcDbEntity
  8
Defpoints
 62
     0
100
AcDbPoint
 10
374.6505482397206
 20
91.88045315601812
 30
0.0
  0
POINT
  5
33E
330
336
100
AcDbEntity
  8
Defpoints
 62
     0
100
AcDbPoint
 10
548.6505482397205
 20
91.88045315601812
 30
0.0
  0
POINT
  5
33F
330
336
100
AcDbEntity
  8
Defpoints
 62
     0
100
AcDbPoint
 10
548.6505482397205
 20
36.13503238259727
 30
0.0
  0
ENDBLK
  5
341
330
336
100
AcDbEntity
  8
0
100
AcDbBlockEnd
  0
BLOCK
  5
34C
330
342
100
AcDbEntity
  8
0
100
AcDbBlockBegin
  2
*D4
 70
     1
 71
     0
 10
0.0
 20
0.0
 30
0.0
  3
*D4
  1

  0
LINE
  5
343
330
342
100
AcDbEntity
  8
koty
 62
     0
370
    -2
100
AcDbLine
 10
336.6505482397205
 20
90.63045315601812
 30
0.0
 11
336.6505482397205
 21
-35.23316837114543
 31
0.0
  0
LINE
  5
344
330
342
100
AcDbEntity
  8
koty
 62
     0
370
    -2
100
AcDbLine
 10
586.6505482397205
 20
90.63045315601812
 30
0.0
 11
586.6505482397205
 21
-35.23316837114544
 31
0.0
  0
LINE
  5
345
330
342
100
AcDbEntity
  8
koty
 62
     0
370
    -2
100
AcDbLine
 10
356.6505482397205
 20
-22.73316837114543
 30
0.0
 11
566.6505482397205
 21
-22.73316837114544
 31
0.0
  0
INSERT
  5
346
330
342
100
AcDbEntity
  8
koty
 62
     0
370
    -2
100
AcDbBlockReference
  2
VDDIM_DEFAULT
 10
336.6505482397205
 20
-22.73316837114543
 30
0.0
 41
20.0
 42
20.0
 43
20.0
 50
180.0
  0
INSERT
  5
347
330
342
100
AcDbEntity
  8
koty
 62
     0
370
    -2
100
AcDbBlockReference
  2
VDDIM_DEFAULT
 10
586.6505482397205
 20
-22.73316837114544
 30
0.0
 41
20.0
 42
20.0
 43
20.0
 50
360.0
  0
MTEXT
  5
348
330
342
100
AcDbEntity
  8
koty
 62
     0
100
AcDbMText
 10
461.6505482397205
 20
-6.483168371145439
 30
0.0
 40
20.0
 41
0.0
 71
     5
 72
     1
  1
\A1;250.00
 73
     1
 44
1.0
  0
POINT
  5
349
330
342
100
AcDbEntity
  8
Defpoints
 62
     0
100
AcDbPoint
 10
336.6505482397205
 20
96.88045315601812
 30
0.0
  0
POINT
  5
34A
330
342
100
AcDbEntity
  8
Defpoints
 62
     0
100
AcDbPoint
 10
586.6505482397205
 20
96.88045315601812
 30
0.0
  0
POINT
  5
34B
330
342
100
AcDbEntity
  8
Defpoints
 62
     0
100
AcDbPoint
 10
586.6505482397205
 20
-22.73316837114544
 30
0.0
  0
ENDBLK
  5
34D
330
342
100
AcDbEntity
  8
0
100
AcDbBlockEnd
  0
BLOCK
  5
358
330
34E
100
AcDbEntity
  8
0
100
AcDbBlockBegin
  2
*D5
 70
     1
 71
     0
 10
0.0
 20
0.0
 30
0.0
  3
*D5
  1

  0
LINE
  5
34F
330
34E
100
AcDbEntity
  8
koty
 62
     0
370
    -2
100
AcDbLine
 10
330.4005482397205
 20
357.8804531560181
 30
0.0
 11
241.1996028977337
 21
357.8804531560181
 31
0.0
  0
LINE
  5
350
330
34E
100
AcDbEntity
  8
koty
 62
     0
370
    -2
100
AcDbLine
 10
330.4005482397205
 20
96.88045315601812
 30
0.0
 11
241.1996028977337
 21
96.88045315601812
 31
0.0
  0
LINE
  5
351
330
34E
100
AcDbEntity
  8
koty
 62
     0
370
    -2
100
AcDbLine
 10
253.6996028977337
 20
337.8804531560181
 30
0.0
 11
253.6996028977337
 21
116.8804531560181
 31
0.0
  0
INSERT
  5
352
330
34E
100
AcDbEntity
  8
koty
 62
     0
370
    -2
100
AcDbBlockReference
  2
VDDIM_DEFAULT
 10
253.6996028977337
 20
357.8804531560181
 30
0.0
 41
20.0
 42
20.0
 43
20.0
 50
90.0
  0
INSERT
  5
353
330
34E
100
AcDbEntity
  8
koty
 62
     0
370
    -2
100
AcDbBlockReference
  2
VDDIM_DEFAULT
 10
253.6996028977337
 20
96.88045315601812
 30
0.0
 41
20.0
 42
20.0
 43
20.0
 50
270.0
  0
MTEXT
  5
354
330
34E
100
AcDbEntity
  8
koty
 62
     0
100
AcDbMText
 10
237.4496028977337
 20
227.3804531560181
 30
0.0
 40
20.0
 41
0.0
 71
     5
 72
     1
  1
\A1;261.00
 11
1.088954384306667E-16
 21
1.0
 31
0.0
 73
     1
 44
1.0
  0
POINT
  5
355
330
34E
100
AcDbEntity
  8
Defpoints
 62
     0
100
AcDbPoint
 10
336.6505482397205
 20
357.8804531560181
 30
0.0
  0
POINT
  5
356
330
34E
100
AcDbEntity
  8
Defpoints
 62
     0
100
AcDbPoint
 10
336.6505482397205
 20
96.88045315601812
 30
0.0
  0
POINT
  5
357
330
34E
100
AcDbEntity
  8
Defpoints
 62
     0
100
AcDbPoint
 10
253.6996028977337
 20
96.88045315601812
 30
0.0
  0
ENDBLK
  5
359
330
34E
100
AcDbEntity
  8
0
100
AcDbBlockEnd
  0
ENDSEC
  0
SECTION
  2
ENTITIES
  0
LWPOLYLINE
  5
16C
330
307
100
AcDbEntity
  8
0
100
AcDbPolyline
 90
        4
 70
     1
 43
0.0
 10
336.6505482397205
 20
96.88045315601812
 10
586.6505482397205
 20
96.88045315601812
 10
586.6505482397205
 20
357.8804531560181
 10
336.6505482397205
 20
357.8804531560181
  0
LINE
  5
16F
330
307
100
AcDbEntity
  8
0
100
AcDbLine
 10
461.6505482397205
 20
227.3804531560181
 30
0.0
 11
461.6505482397205
 21
268.297826891218
 31
0.0
  0
LINE
  5
170
330
307
100
AcDbEntity
  8
0
100
AcDbLine
 10
461.6505482397205
 20
357.8804531560181
 30
0.0
 11
374.6505482397206
 21
357.8804531560181
 31
0.0
  0
LINE
  5
172
330
307
100
AcDbEntity
  8
0
100
AcDbLine
 10
379.6505482397205
 20
357.8804531560181
 30
0.0
 11
379.6505482397205
 21
96.88045315601812
 31
0.0
  0
LINE
  5
173
330
307
100
AcDbEntity
  8
0
100
AcDbLine
 10
369.6505482397205
 20
357.8804531560181
 30
0.0
 11
369.6505482397205
 21
96.88045315601812
 31
0.0
  0
LINE
  5
174
330
307
100
AcDbEntity
  8
0
100
AcDbLine
 10
543.6505482397206
 20
357.8804531560181
 30
0.0
 11
543.6505482397206
 21
96.88045315601812
 31
0.0
  0
LINE
  5
175
330
307
100
AcDbEntity
  8
0
100
AcDbLine
 10
553.6505482397205
 20
357.8804531560181
 30
0.0
 11
553.6505482397205
 21
96.88045315601812
 31
0.0
  0
ARC
  5
17C
330
307
100
AcDbEntity
  8
0
100
AcDbCircle
 10
374.6505482397206
 20
357.8804531560181
 30
0.0
 40
5.0
100
AcDbArc
 50
0.0
 51
180.0
  0
ARC
  5
17D
330
307
100
AcDbEntity
  8
0
100
AcDbCircle
 10
374.6505482397206
 20
96.88045315601812
 30
0.0
 40
5.0
100
AcDbArc
 50
180.0
 51
0.0
  0
ARC
  5
17E
330
307
100
AcDbEntity
  8
0
100
AcDbCircle
 10
548.6505482397205
 20
357.8804531560181
 30
0.0
 40
5.0
100
AcDbArc
 50
0.000000000000007
 51
180.0
  0
ARC
  5
17F
330
307
100
AcDbEntity
  8
0
100
AcDbCircle
 10
548.6505482397205
 20
96.88045315601812
 30
0.0
 40
5.0
100
AcDbArc
 50
180.0
 51
0.000000000000007
  0
CIRCLE
  5
181
330
307
100
AcDbEntity
  8
0
100
AcDbCircle
 10
846.2716526448394
 20
227.3804531560181
 30
0.0
 40
130.4999999999999
  0
CIRCLE
  5
182
330
307
100
AcDbEntity
  8
0
100
AcDbCircle
 10
846.2716526448394
 20
227.3804531560181
 30
0.0
 40
23.22986719798536
  0
CIRCLE
  5
183
330
307
100
AcDbEntity
  8
0
100
AcDbCircle
 10
846.2716526448394
 20
227.3804531560181
 30
0.0
 40
28.39230329052496
  0
CIRCLE
  5
184
330
307
100
AcDbEntity
  8
0
100
AcDbCircle
 10
846.2716526448394
 20
227.3804531560181
 30
0.0
 40
40.91737373519995
  0
CIRCLE
  5
185
330
307
100
AcDbEntity
  8
0
100
AcDbCircle
 10
846.2716526448394
 20
227.3804531560181
 30
0.0
 40
126.5971602475127
  0
CIRCLE
  5
186
330
307
100
AcDbEntity
  8
0
100
AcDbCircle
 10
846.2716526448394
 20
227.3804531560181
 30
0.0
 40
64.95435767610817
  0
CIRCLE
  5
187
330
307
100
AcDbEntity
  8
0
100
AcDbCircle
 10
846.2716526448394
 20
227.3804531560181
 30
0.0
 40
88.49083919595955
  0
CIRCLE
  5
188
330
307
100
AcDbEntity
  8
0
100
AcDbCircle
 10
846.2716526448394
 20
227.3804531560181
 30
0.0
 40
107.5881365998804
  0
LINE
  5
189
330
307
100
AcDbEntity
  8
0
100
AcDbLine
 10
845.5731147579154
 20
255.7641620567535
 30
0.0
 11
845.5731147579154
 21
260.1728759349036
 31
0.0
  0
LINE
  5
18A
330
307
100
AcDbEntity
  8
0
100
AcDbLine
 10
845.5731147579154
 20
260.1728759349036
 30
0.0
 11
846.9701905317633
 21
260.1728759349036
 31
0.0
  0
LINE
  5
18B
330
307
100
AcDbEntity
  8
0
100
AcDbLine
 10
846.9701905317633
 20
255.7641620567535
 30
0.0
 11
846.9701905317633
 21
260.1728759349036
 31
0.0
  0
LINE
  5
18C
330
307
100
AcDbEntity
  8
0
100
AcDbLine
 10
841.6296640961492
 20
255.390716069011
 30
0.0
 11
841.0160897144814
 21
259.7565246467608
 31
0.0
  0
LINE
  5
18D
330
307
100
AcDbEntity
  8
0
100
AcDbLine
 10
841.0160897144814
 20
259.7565246467608
 30
0.0
 11
842.3995692429354
 21
259.9509600144835
 31
0.0
  0
LINE
  5
18E
330
307
100
AcDbEntity
  8
0
100
AcDbLine
 10
843.0131436246033
 20
255.5851514367336
 30
0.0
 11
842.3995692429354
 21
259.9509600144835
 31
0.0
  0
LINE
  5
18F
330
307
100
AcDbEntity
  8
0
100
AcDbLine
 10
837.7765644612994
 20
254.4720821748688
 30
0.0
 11
836.5613582253725
 21
258.7100099542862
 31
0.0
  0
LINE
  5
190
330
307
100
AcDbEntity
  8
0
100
AcDbLine
 10
836.5613582253725
 20
258.7100099542862
 30
0.0
 11
837.904313653096
 21
259.0950962264656
 31
0.0
  0
LINE
  5
191
330
307
100
AcDbEntity
  8
0
100
AcDbLine
 10
839.119519889023
 20
254.8571684470483
 30
0.0
 11
837.904313653096
 21
259.0950962264656
 31
0.0
  0
LINE
  5
192
330
307
100
AcDbEntity
  8
0
100
AcDbLine
 10
834.0888120549228
 20
253.026140538146
 30
0.0
 11
832.2956265718424
 21
257.0537010755759
 31
0.0
  0
LINE
  5
193
330
307
100
AcDbEntity
  8
0
100
AcDbLine
 10
832.2956265718424
 20
257.0537010755759
 30
0.0
 11
833.5719187990237
 21
257.6219429859534
 31
0.0
  0
LINE
  5
194
330
307
100
AcDbEntity
  8
0
100
AcDbLine
 10
835.3651042821041
 20
253.5943824485235
 30
0.0
 11
833.5719187990237
 21
257.6219429859534
 31
0.0
  0
LINE
  5
195
330
307
100
AcDbEntity
  8
0
100
AcDbLine
 10
830.6381847828531
 20
251.0810347680672
 30
0.0
 11
828.3019223683291
 21
254.8198361789308
 31
0.0
  0
LINE
  5
196
330
307
100
AcDbEntity
  8
0
100
AcDbLine
 10
828.3019223683291
 20
254.8198361789308
 30
0.0
 11
829.4867098185273
 21
255.5601735450864
 31
0.0
  0
LINE
  5
197
330
307
100
AcDbEntity
  8
0
100
AcDbLine
 10
831.8229722330513
 20
251.8213721342228
 30
0.0
 11
829.4867098185273
 21
255.5601735450864
 31
0.0
  0
LINE
  5
198
330
307
100
AcDbEntity
  8
0
100
AcDbLine
 10
825.8539952417571
 20
250.6265376838462
 30
0.0
 11
824.6579785243827
 21
252.0518949035802
 31
0.0
  0
LINE
  5
199
330
307
100
AcDbEntity
  8
0
100
AcDbLine
 10
824.6579785243827
 20
252.0518949035802
 30
0.0
 11
825.7282006575553
 21
252.9499179008029
 31
0.0
  0
LINE
  5
19A
330
307
100
AcDbEntity
  8
0
100
AcDbLine
 10
828.5620673130832
 20
249.5726471331445
 30
0.0
 11
825.7282006575553
 21
252.9499179008029
 31
0.0
  0
LINE
  5
19B
330
307
100
AcDbEntity
  8
0
100
AcDbLine
 10
824.7110331675589
 20
245.8537466874129
 30
0.0
 11
821.4347202620015
 21
248.8037520779622
 31
0.0
  0
LINE
  5
19C
330
307
100
AcDbEntity
  8
0
100
AcDbLine
 10
821.4347202620015
 20
248.8037520779622
 30
0.0
 11
821.7119887478252
 21
249.111689928286
 31
0.0
  0
LINE
  5
19E
330
307
100
AcDbEntity
  8
0
100
AcDbLine
 10
822.3498740884913
 20
242.6733075933755
 30
0.0
 11
818.6948846368601
 21
245.1386291074701
 31
0.0
  0
LINE
  5
19F
330
307
100
AcDbEntity
  8
0
100
AcDbLine
 10
818.6948846368601
 20
245.1386291074701
 30
0.0
 11
819.4761194952066
 21
246.2968574156965
 31
0.0
  0
LINE
  5
1A0
330
307
100
AcDbEntity
  8
0
100
AcDbLine
 10
823.131108946838
 20
243.8315359016019
 30
0.0
 11
819.4761194952066
 21
246.2968574156965
 31
0.0
  0
LINE
  5
1A1
330
307
100
AcDbEntity
  8
0
100
AcDbLine
 10
820.4543252184033
 20
239.1952104830791
 30
0.0
 11
816.4917994328854
 21
241.1278634417087
 31
0.0
  0
LINE
  5
1A2
330
307
100
AcDbEntity
  8
0
100
AcDbLine
 10
816.4917994328854
 20
241.1278634417087
 30
0.0
 11
817.1042371420183
 21
242.383546829472
 31
0.0
  0
LINE
  5
1A3
330
307
100
AcDbEntity
  8
0
100
AcDbLine
 10
821.0667629275363
 20
240.4508938708423
 30
0.0
 11
817.1042371420183
 21
242.383546829472
 31
0.0
  0
LINE
  5
1A4
330
307
100
AcDbEntity
  8
0
100
AcDbLine
 10
819.0612812598959
 20
235.4871525604987
 30
0.0
 11
814.8683451976003
 21
236.8495200721838
 31
0.0
  0
LINE
  5
1A5
330
307
100
AcDbEntity
  8
0
100
AcDbLine
 10
814.8683451976003
 20
236.8495200721838
 30
0.0
 11
815.300065354149
 21
238.17821809066
 31
0.0
  0
LINE
  5
1A6
330
307
100
AcDbEntity
  8
0
100
AcDbLine
 10
819.4930014164444
 20
236.8158505789749
 30
0.0
 11
815.300065354149
 21
238.17821809066
 31
0.0
  0
LINE
  5
1A7
330
307
100
AcDbEntity
  8
0
100
AcDbLine
 10
818.1978562290577
 20
231.6213069552438
 30
0.0
 11
813.8561206210432
 21
232.3868720860394
 31
0.0
  0
LINE
  5
1A8
330
307
100
AcDbEntity
  8
0
100
AcDbLine
 10
813.8561206210432
 20
232.3868720860394
 30
0.0
 11
814.0987202832343
 21
233.7627231396704
 31
0.0
  0
LINE
  5
1A9
330
307
100
AcDbEntity
  8
0
100
AcDbLine
 10
818.4404558912491
 20
232.9971580088748
 30
0.0
 11
814.0987202832343
 21
233.7627231396704
 31
0.0
  0
LINE
  5
1AA
330
307
100
AcDbEntity
  8
0
100
AcDbLine
 10
817.8808557119827
 20
227.6729179546868
 30
0.0
 11
813.4748275032077
 21
227.8267798501397
 31
0.0
  0
LINE
  5
1AB
330
307
100
AcDbEntity
  8
0
100
AcDbLine
 10
813.4748275032077
 20
227.8267798501397
 30
0.0
 11
813.5235847445701
 21
229.2230045631739
 31
0.0
  0
LINE
  5
1AC
330
307
100
AcDbEntity
  8
0
100
AcDbLine
 10
817.9296129533451
 20
229.0691426677211
 30
0.0
 11
813.5235847445701
 21
229.2230045631739
 31
0.0
  0
LINE
  5
1AD
330
307
100
AcDbEntity
  8
0
100
AcDbLine
 10
818.1164497631529
 20
223.7188364594975
 30
0.0
 11
813.7318872809187
 21
223.2580003728277
 31
0.0
  0
LINE
  5
1AE
330
307
100
AcDbEntity
  8
0
100
AcDbLine
 10
813.7318872809187
 20
223.2580003728277
 30
0.0
 11
813.58585309721
 21
224.6474228194081
 31
0.0
  0
LINE
  5
1AF
330
307
100
AcDbEntity
  8
0
100
AcDbLine
 10
817.9704155794443
 20
225.1082589060779
 30
0.0
 11
813.58585309721
 21
224.6474228194081
 31
0.0
  0
LINE
  5
1B0
330
307
100
AcDbEntity
  8
0
100
AcDbLine
 10
818.9000528123465
 20
219.8360241682787
 30
0.0
 11
814.6222965780037
 21
218.7694597497202
 31
0.0
  0
LINE
  5
1B1
330
307
100
AcDbEntity
  8
0
100
AcDbLine
 10
814.6222965780037
 20
218.7694597497202
 30
0.0
 11
814.2843133584983
 21
220.1250364023685
 31
0.0
  0
LINE
  5
1B2
330
307
100
AcDbEntity
  8
0
100
AcDbLine
 10
818.5620695928408
 20
221.1916008209271
 30
0.0
 11
814.2843133584983
 21
220.1250364023685
 31
0.0
  0
LINE
  5
1B3
330
307
100
AcDbEntity
  8
0
100
AcDbLine
 10
820.2164129175463
 20
216.1000556056456
 30
0.0
 11
816.128724590321
 21
214.4485223184063
 31
0.0
  0
LINE
  5
1B4
330
307
100
AcDbEntity
  8
0
100
AcDbLine
 10
816.128724590321
 20
214.4485223184063
 30
0.0
 11
815.6053707939358
 21
215.7438684195245
 31
0.0
  0
LINE
  5
1B5
330
307
100
AcDbEntity
  8
0
100
AcDbLine
 10
819.6930591211614
 20
217.3954017067638
 30
0.0
 11
815.6053707939358
 21
215.7438684195245
 31
0.0
  0
LINE
  5
1B6
330
307
100
AcDbEntity
  8
0
100
AcDbLine
 10
822.0399086266418
 20
212.5836471500683
 30
0.0
 11
818.2218504101468
 21
210.3792902109932
 31
0.0
  0
LINE
  5
1B7
330
307
100
AcDbEntity
  8
0
100
AcDbLine
 10
818.2218504101468
 20
210.3792902109932
 30
0.0
 11
817.5233125232228
 21
211.5891933221574
 31
0.0
  0
LINE
  5
1B8
330
307
100
AcDbEntity
  8
0
100
AcDbLine
 10
821.3413707397178
 20
213.7935502612323
 30
0.0
 11
817.5233125232228
 21
211.5891933221574
 31
0.0
  0
LINE
  5
1B9
330
307
100
AcDbEntity
  8
0
100
AcDbLine
 10
824.3350476698514
 20
209.3552416922794
 30
0.0
 11
820.860933724294
 21
206.6409664017688
 31
0.0
  0
LINE
  5
1BA
330
307
100
AcDbEntity
  8
0
100
AcDbLine
 10
820.860933724294
 20
206.6409664017688
 30
0.0
 11
820.000807992225
 21
207.7418771351644
 31
0.0
  0
LINE
  5
1BB
330
307
100
AcDbEntity
  8
0
100
AcDbLine
 10
823.4749219377825
 20
210.456152425675
 30
0.0
 11
820.000807992225
 21
207.7418771351644
 31
0.0
  0
LINE
  5
1BF
330
307
100
AcDbEntity
  8
0
100
AcDbLine
 10
830.1532561693605
 20
204.0069600238301
 30
0.0
 11
827.5618791702068
 21
200.4402355730699
 31
0.0
  0
LINE
  5
1C0
330
307
100
AcDbEntity
  8
0
100
AcDbLine
 10
827.5618791702068
 20
200.4402355730699
 30
0.0
 11
826.4316211267342
 21
201.2614161092729
 31
0.0
  0
LINE
  5
1C1
330
307
100
AcDbEntity
  8
0
100
AcDbLine
 10
829.022998125888
 20
204.828140560033
 30
0.0
 11
826.4316211267342
 21
201.2614161092729
 31
0.0
  0
LINE
  5
1C2
330
307
100
AcDbEntity
  8
0
100
AcDbLine
 10
833.5630808153316
 20
201.9911820322657
 30
0.0
 11
831.4933150210807
 21
198.0985187259493
 31
0.0
  0
LINE
  5
1C3
330
307
100
AcDbEntity
  8
0
100
AcDbLine
 10
831.4933150210807
 20
198.0985187259493
 30
0.0
 11
830.2597703295201
 21
198.7544060728281
 31
0.0
  0
LINE
  5
1C4
330
307
100
AcDbEntity
  8
0
100
AcDbLine
 10
832.3295361237709
 20
202.6470693791444
 30
0.0
 11
830.2597703295201
 21
198.7544060728281
 31
0.0
  0
LINE
  5
1C5
330
307
100
AcDbEntity
  8
0
100
AcDbLine
 10
837.2202633561776
 20
200.4695773232574
 30
0.0
 11
835.7123944036908
 21
196.3267414248033
 31
0.0
  0
LINE
  5
1C6
330
307
100
AcDbEntity
  8
0
100
AcDbLine
 10
835.7123944036908
 20
196.3267414248033
 30
0.0
 11
834.3995726083271
 21
196.8045694812117
 31
0.0
  0
LINE
  5
1C7
330
307
100
AcDbEntity
  8
0
100
AcDbLine
 10
835.9074415608139
 20
200.9474053796657
 30
0.0
 11
834.3995726083271
 21
196.8045694812117
 31
0.0
  0
LINE
  5
1C8
330
307
100
AcDbEntity
  8
0
100
AcDbLine
 10
841.0536208937247
 20
199.4717622016662
 30
0.0
 11
840.1369977369867
 21
195.1593892994319
 31
0.0
  0
LINE
  5
1C9
330
307
100
AcDbEntity
  8
0
100
AcDbLine
 10
840.1369977369867
 20
195.1593892994319
 30
0.0
 11
838.7704514207539
 21
195.4498576857731
 31
0.0
  0
LINE
  5
1CA
330
307
100
AcDbEntity
  8
0
100
AcDbLine
 10
839.6870745774918
 20
199.7622305880075
 30
0.0
 11
838.7704514207539
 21
195.4498576857731
 31
0.0
  0
LINE
  5
1CB
330
307
100
AcDbEntity
  8
0
100
AcDbLine
 10
844.988541483884
 20
199.0171580038361
 30
0.0
 11
844.6810051499977
 21
194.619183531112
 31
0.0
  0
LINE
  5
1CC
330
307
100
AcDbEntity
  8
0
100
AcDbLine
 10
844.6810051499977
 20
194.619183531112
 30
0.0
 11
843.2873325825181
 21
194.7166386106489
 31
0.0
  0
LINE
  5
1CD
330
307
100
AcDbEntity
  8
0
100
AcDbLine
 10
843.5948689164044
 20
199.114613083373
 30
0.0
 11
843.2873325825181
 21
194.7166386106489
 31
0.0
  0
LINE
  5
1CE
330
307
100
AcDbEntity
  8
0
100
AcDbLine
 10
848.9484363732742
 20
199.114613083373
 30
0.0
 11
849.2559727071608
 21
194.7166386106489
 31
0.0
  0
LINE
  5
1CF
330
307
100
AcDbEntity
  8
0
100
AcDbLine
 10
849.2559727071608
 20
194.7166386106489
 30
0.0
 11
847.8623001396812
 21
194.6191835311119
 31
0.0
  0
LINE
  5
1D0
330
307
100
AcDbEntity
  8
0
100
AcDbLine
 10
847.5547638057946
 20
199.017158003836
 30
0.0
 11
847.8623001396812
 21
194.6191835311119
 31
0.0
  0
LINE
  5
1D1
330
307
100
AcDbEntity
  8
0
100
AcDbLine
 10
852.8562307121867
 20
199.7622305880074
 30
0.0
 11
853.7728538689249
 21
195.4498576857731
 31
0.0
  0
LINE
  5
1D2
330
307
100
AcDbEntity
  8
0
100
AcDbLine
 10
853.7728538689249
 20
195.4498576857731
 30
0.0
 11
852.4063075526921
 21
195.1593892994318
 31
0.0
  0
LINE
  5
1D3
330
307
100
AcDbEntity
  8
0
100
AcDbLine
 10
851.489684395954
 20
199.4717622016662
 30
0.0
 11
852.4063075526921
 21
195.1593892994318
 31
0.0
  0
LINE
  5
1D4
330
307
100
AcDbEntity
  8
0
100
AcDbLine
 10
856.6358637288647
 20
200.9474053796657
 30
0.0
 11
858.1437326813514
 21
196.8045694812116
 31
0.0
  0
LINE
  5
1D5
330
307
100
AcDbEntity
  8
0
100
AcDbLine
 10
858.1437326813514
 20
196.8045694812116
 30
0.0
 11
856.8309108859878
 21
196.3267414248033
 31
0.0
  0
LINE
  5
1D6
330
307
100
AcDbEntity
  8
0
100
AcDbLine
 10
855.323041933501
 20
200.4695773232574
 30
0.0
 11
856.8309108859878
 21
196.3267414248033
 31
0.0
  0
LINE
  5
1D7
330
307
100
AcDbEntity
  8
0
100
AcDbLine
 10
860.2137691659079
 20
202.6470693791445
 30
0.0
 11
862.2835349601588
 21
198.7544060728281
 31
0.0
  0
LINE
  5
1D8
330
307
100
AcDbEntity
  8
0
100
AcDbLine
 10
862.2835349601588
 20
198.7544060728281
 30
0.0
 11
861.0499902685983
 21
198.0985187259493
 31
0.0
  0
LINE
  5
1D9
330
307
100
AcDbEntity
  8
0
100
AcDbLine
 10
858.9802244743474
 20
201.9911820322657
 30
0.0
 11
861.0499902685983
 21
198.0985187259493
 31
0.0
  0
LINE
  5
1DA
330
307
100
AcDbEntity
  8
0
100
AcDbLine
 10
863.5203071637908
 20
204.828140560033
 30
0.0
 11
866.1116841629446
 21
201.2614161092729
 31
0.0
  0
LINE
  5
1DB
330
307
100
AcDbEntity
  8
0
100
AcDbLine
 10
866.1116841629446
 20
201.2614161092729
 30
0.0
 11
864.981426119472
 21
200.44023557307
 31
0.0
  0
LINE
  5
1DC
330
307
100
AcDbEntity
  8
0
100
AcDbLine
 10
862.3900491203183
 20
204.00696002383
 30
0.0
 11
864.981426119472
 21
200.44023557307
 31
0.0
  0
LINE
  5
1E0
330
307
100
AcDbEntity
  8
0
100
AcDbLine
 10
869.0683833518964
 20
210.4561524256753
 30
0.0
 11
872.5424972974538
 21
207.7418771351647
 31
0.0
  0
LINE
  5
1E1
330
307
100
AcDbEntity
  8
0
100
AcDbLine
 10
872.5424972974538
 20
207.7418771351647
 30
0.0
 11
871.6823715653848
 21
206.6409664017689
 31
0.0
  0
LINE
  5
1E2
330
307
100
AcDbEntity
  8
0
100
AcDbLine
 10
868.2082576198274
 20
209.3552416922796
 30
0.0
 11
871.6823715653848
 21
206.6409664017689
 31
0.0
  0
LINE
  5
1E3
330
307
100
AcDbEntity
  8
0
100
AcDbLine
 10
871.2019345499609
 20
213.7935502612324
 30
0.0
 11
875.019992766456
 21
211.5891933221573
 31
0.0
  0
LINE
  5
1E4
330
307
100
AcDbEntity
  8
0
100
AcDbLine
 10
875.019992766456
 20
211.5891933221573
 30
0.0
 11
874.321454879532
 21
210.3792902109932
 31
0.0
  0
LINE
  5
1E5
330
307
100
AcDbEntity
  8
0
100
AcDbLine
 10
870.5033966630368
 20
212.5836471500683
 30
0.0
 11
874.321454879532
 21
210.3792902109932
 31
0.0
  0
LINE
  5
1E6
330
307
100
AcDbEntity
  8
0
100
AcDbLine
 10
872.8502461685176
 20
217.3954017067639
 30
0.0
 11
876.9379344957428
 21
215.7438684195247
 31
0.0
  0
LINE
  5
1E7
330
307
100
AcDbEntity
  8
0
100
AcDbLine
 10
876.9379344957428
 20
215.7438684195247
 30
0.0
 11
876.4145806993578
 21
214.4485223184064
 31
0.0
  0
LINE
  5
1E8
330
307
100
AcDbEntity
  8
0
100
AcDbLine
 10
872.3268923721324
 20
216.1000556056456
 30
0.0
 11
876.4145806993578
 21
214.4485223184064
 31
0.0
  0
LINE
  5
1E9
330
307
100
AcDbEntity
  8
0
100
AcDbLine
 10
873.9812356968378
 20
221.1916008209271
 30
0.0
 11
878.2589919311806
 21
220.1250364023685
 31
0.0
  0
LINE
  5
1EA
330
307
100
AcDbEntity
  8
0
100
AcDbLine
 10
878.2589919311806
 20
220.1250364023685
 30
0.0
 11
877.9210087116747
 21
218.7694597497201
 31
0.0
  0
LINE
  5
1EB
330
307
100
AcDbEntity
  8
0
100
AcDbLine
 10
873.6432524773322
 20
219.8360241682787
 30
0.0
 11
877.9210087116747
 21
218.7694597497201
 31
0.0
  0
LINE
  5
1EC
330
307
100
AcDbEntity
  8
0
100
AcDbLine
 10
874.5728897102345
 20
225.1082589060781
 30
0.0
 11
878.9574521924689
 21
224.6474228194083
 31
0.0
  0
LINE
  5
1ED
330
307
100
AcDbEntity
  8
0
100
AcDbLine
 10
878.9574521924689
 20
224.6474228194083
 30
0.0
 11
878.81141800876
 21
223.2580003728279
 31
0.0
  0
LINE
  5
1EE
330
307
100
AcDbEntity
  8
0
100
AcDbLine
 10
874.4268555265257
 20
223.7188364594977
 30
0.0
 11
878.81141800876
 21
223.2580003728279
 31
0.0
  0
LINE
  5
1EF
330
307
100
AcDbEntity
  8
0
100
AcDbLine
 10
874.6136923363334
 20
229.0691426677211
 30
0.0
 11
879.0197205451084
 21
229.2230045631739
 31
0.0
  0
LINE
  5
1F0
330
307
100
AcDbEntity
  8
0
100
AcDbLine
 10
879.0197205451084
 20
229.2230045631739
 30
0.0
 11
879.068477786471
 21
227.8267798501397
 31
0.0
  0
LINE
  5
1F1
330
307
100
AcDbEntity
  8
0
100
AcDbLine
 10
874.662449577696
 20
227.6729179546868
 30
0.0
 11
879.068477786471
 21
227.8267798501397
 31
0.0
  0
LINE
  5
1F2
330
307
100
AcDbEntity
  8
0
100
AcDbLine
 10
874.1028493984295
 20
232.9971580088749
 30
0.0
 11
878.4445850064443
 21
233.7627231396707
 31
0.0
  0
LINE
  5
1F3
330
307
100
AcDbEntity
  8
0
100
AcDbLine
 10
878.4445850064443
 20
233.7627231396707
 30
0.0
 11
878.6871846686356
 21
232.3868720860397
 31
0.0
  0
LINE
  5
1F4
330
307
100
AcDbEntity
  8
0
100
AcDbLine
 10
874.3454490606209
 20
231.621306955244
 30
0.0
 11
878.6871846686356
 21
232.3868720860397
 31
0.0
  0
LINE
  5
1F5
330
307
100
AcDbEntity
  8
0
100
AcDbLine
 10
873.0503038732342
 20
236.8158505789749
 30
0.0
 11
877.2432399355297
 21
238.17821809066
 31
0.0
  0
LINE
  5
1F6
330
307
100
AcDbEntity
  8
0
100
AcDbLine
 10
877.2432399355297
 20
238.17821809066
 30
0.0
 11
877.6749600920783
 21
236.8495200721838
 31
0.0
  0
LINE
  5
1F7
330
307
100
AcDbEntity
  8
0
100
AcDbLine
 10
873.4820240297828
 20
235.4871525604987
 30
0.0
 11
877.6749600920783
 21
236.8495200721838
 31
0.0
  0
LINE
  5
1F8
330
307
100
AcDbEntity
  8
0
100
AcDbLine
 10
871.4765423621425
 20
240.4508938708425
 30
0.0
 11
875.4390681476605
 21
242.3835468294721
 31
0.0
  0
LINE
  5
1F9
330
307
100
AcDbEntity
  8
0
100
AcDbLine
 10
875.4390681476605
 20
242.3835468294721
 30
0.0
 11
876.0515058567934
 21
241.1278634417087
 31
0.0
  0
LINE
  5
1FA
330
307
100
AcDbEntity
  8
0
100
AcDbLine
 10
872.0889800712756
 20
239.1952104830791
 30
0.0
 11
876.0515058567934
 21
241.1278634417087
 31
0.0
  0
LINE
  5
1FB
330
307
100
AcDbEntity
  8
0
100
AcDbLine
 10
869.4121963428406
 20
243.8315359016021
 30
0.0
 11
873.0671857944718
 21
246.2968574156966
 31
0.0
  0
LINE
  5
1FC
330
307
100
AcDbEntity
  8
0
100
AcDbLine
 10
873.0671857944718
 20
246.2968574156966
 30
0.0
 11
873.8484206528186
 21
245.1386291074702
 31
0.0
  0
LINE
  5
1FD
330
307
100
AcDbEntity
  8
0
100
AcDbLine
 10
870.1934312011873
 20
242.6733075933757
 30
0.0
 11
873.8484206528186
 21
245.1386291074702
 31
0.0
  0
LINE
  5
1FF
330
307
100
AcDbEntity
  8
0
100
AcDbLine
 10
870.8313165418537
 20
249.1116899282858
 30
0.0
 11
871.1085850276772
 21
248.8037520779624
 31
0.0
  0
LINE
  5
200
330
307
100
AcDbEntity
  8
0
100
AcDbLine
 10
867.8322721221196
 20
245.8537466874131
 30
0.0
 11
871.1085850276772
 21
248.8037520779624
 31
0.0
  0
LINE
  5
201
330
307
100
AcDbEntity
  8
0
100
AcDbLine
 10
863.9812379765953
 20
249.5726471331445
 30
0.0
 11
866.8151046321233
 21
252.949917900803
 31
0.0
  0
LINE
  5
202
330
307
100
AcDbEntity
  8
0
100
AcDbLine
 10
866.8151046321233
 20
252.949917900803
 30
0.0
 11
867.8853267652956
 21
252.0518949035803
 31
0.0
  0
LINE
  5
203
330
307
100
AcDbEntity
  8
0
100
AcDbLine
 10
866.6893100479198
 20
250.6265376838447
 30
0.0
 11
867.8853267652956
 21
252.0518949035803
 31
0.0
  0
LINE
  5
204
330
307
100
AcDbEntity
  8
0
100
AcDbLine
 10
860.7203330566274
 20
251.8213721342227
 30
0.0
 11
863.0565954711514
 21
255.5601735450863
 31
0.0
  0
LINE
  5
205
330
307
100
AcDbEntity
  8
0
100
AcDbLine
 10
863.0565954711514
 20
255.5601735450863
 30
0.0
 11
864.2413829213493
 21
254.8198361789308
 31
0.0
  0
LINE
  5
206
330
307
100
AcDbEntity
  8
0
100
AcDbLine
 10
861.9051205068254
 20
251.0810347680672
 30
0.0
 11
864.2413829213493
 21
254.8198361789308
 31
0.0
  0
LINE
  5
207
330
307
100
AcDbEntity
  8
0
100
AcDbLine
 10
857.1782010075744
 20
253.5943824485236
 30
0.0
 11
858.9713864906547
 21
257.6219429859535
 31
0.0
  0
LINE
  5
208
330
307
100
AcDbEntity
  8
0
100
AcDbLine
 10
858.9713864906547
 20
257.6219429859535
 30
0.0
 11
860.247678717836
 21
257.053701075576
 31
0.0
  0
LINE
  5
209
330
307
100
AcDbEntity
  8
0
100
AcDbLine
 10
858.4544932347558
 20
253.0261405381461
 30
0.0
 11
860.247678717836
 21
257.053701075576
 31
0.0
  0
LINE
  5
20A
330
307
100
AcDbEntity
  8
0
100
AcDbLine
 10
853.4237854006558
 20
254.8571684470483
 30
0.0
 11
854.6389916365827
 21
259.0950962264657
 31
0.0
  0
LINE
  5
20B
330
307
100
AcDbEntity
  8
0
100
AcDbLine
 10
854.6389916365827
 20
259.0950962264657
 30
0.0
 11
855.9819470643063
 21
258.7100099542863
 31
0.0
  0
LINE
  5
20C
330
307
100
AcDbEntity
  8
0
100
AcDbLine
 10
854.7667408283793
 20
254.4720821748689
 30
0.0
 11
855.9819470643063
 21
258.7100099542863
 31
0.0
  0
LINE
  5
20D
330
307
100
AcDbEntity
  8
0
100
AcDbLine
 10
849.5301616650754
 20
255.5851514367335
 30
0.0
 11
850.1437360467432
 21
259.9509600144834
 31
0.0
  0
LINE
  5
20E
330
307
100
AcDbEntity
  8
0
100
AcDbLine
 10
850.1437360467432
 20
259.9509600144834
 30
0.0
 11
851.5272155751974
 21
259.7565246467608
 31
0.0
  0
LINE
  5
20F
330
307
100
AcDbEntity
  8
0
100
AcDbLine
 10
850.9136411935297
 20
255.3907160690109
 30
0.0
 11
851.5272155751974
 21
259.7565246467608
 31
0.0
  0
LINE
  5
218
330
307
100
AcDbEntity
  8
0
100
AcDbLine
 10
827.6593477112139
 20
248.8211852143899
 30
0.0
 11
758.1793273881563
 21
318.3012055374475
 31
0.0
  0
LINE
  5
219
330
307
100
AcDbEntity
  8
0
100
AcDbLine
 10
824.8309205864678
 20
245.9927580896437
 30
0.0
 11
755.3509002634102
 21
315.4727784127012
 31
0.0
  0
LINE
  5
21A
330
307
100
AcDbEntity
  8
0
100
AcDbLine
 10
822.4197904554241
 20
249.8181017830602
 30
0.0
 11
756.0496281606955
 21
316.1882640777888
 31
0.0
  0
LINE
  5
21B
330
307
100
AcDbEntity
  8
0
100
AcDbLine
 10
823.8353938706218
 20
251.2309254926087
 30
0.0
 11
757.4638417230686
 21
317.6024776401619
 31
0.0
  0
LINE
  5
21C
330
307
100
AcDbEntity
  8
0
100
AcDbLine
 10
821.7119887478252
 20
249.111689928286
 30
0.0
 11
824.5431955782207
 21
251.9373373473829
 31
0.0
  0
CIRCLE
  5
21F
330
307
100
AcDbEntity
  8
0
100
AcDbCircle
 10
824.6869939460122
 20
248.9663728153858
 30
0.0
 40
0.4699394634892215
  0
LINE
  5
220
330
307
100
AcDbEntity
  8
0
100
AcDbLine
 10
827.6593477112139
 20
205.9397210976462
 30
0.0
 11
758.1793273881563
 21
136.4597007745887
 31
0.0
  0
LINE
  5
221
330
307
100
AcDbEntity
  8
0
100
AcDbLine
 10
823.8340040177972
 20
203.5285909666027
 30
0.0
 11
757.4638417230686
 21
137.1584286718741
 31
0.0
  0
LINE
  5
222
330
307
100
AcDbEntity
  8
0
100
AcDbLine
 10
822.4211803082488
 20
204.9441943818004
 30
0.0
 11
756.0496281606955
 21
138.5726422342472
 31
0.0
  0
LINE
  5
223
330
307
100
AcDbEntity
  8
0
100
AcDbLine
 10
824.8309205864675
 20
208.7681482223924
 30
0.0
 11
755.35090026341
 21
139.288127899335
 31
0.0
  0
LINE
  5
224
330
307
100
AcDbEntity
  8
0
100
AcDbLine
 10
824.5404158725714
 20
202.8207892590039
 30
0.0
 11
821.7147684534745
 21
205.6519960893993
 31
0.0
  0
CIRCLE
  5
225
330
307
100
AcDbEntity
  8
0
100
AcDbCircle
 10
824.6857329854718
 20
205.7957944571908
 30
0.0
 40
0.4699394634892215
  0
LINE
  5
226
330
307
100
AcDbEntity
  8
0
100
AcDbLine
 10
867.712384703211
 20
208.7681482223924
 30
0.0
 11
937.1924050262684
 21
139.2881278993348
 31
0.0
  0
LINE
  5
227
330
307
100
AcDbEntity
  8
0
100
AcDbLine
 10
870.1235148342545
 20
204.9428045289758
 30
0.0
 11
936.493677128983
 21
138.5726422342472
 31
0.0
  0
LINE
  5
228
330
307
100
AcDbEntity
  8
0
100
AcDbLine
 10
868.7079114190568
 20
203.5299808194273
 30
0.0
 11
935.0794635666099
 21
137.1584286718741
 31
0.0
  0
LINE
  5
229
330
307
100
AcDbEntity
  8
0
100
AcDbLine
 10
864.8839575784647
 20
205.9397210976462
 30
0.0
 11
934.3639779015221
 21
136.4597007745886
 31
0.0
  0
LINE
  5
22A
330
307
100
AcDbEntity
  8
0
100
AcDbLine
 10
870.8313165418532
 20
205.6492163837501
 30
0.0
 11
868.000109711458
 21
202.8235689646531
 31
0.0
  0
CIRCLE
  5
22B
330
307
100
AcDbEntity
  8
0
100
AcDbCircle
 10
867.8563113436665
 20
205.7945334966502
 30
0.0
 40
0.4699394634892215
  0
LINE
  5
22C
330
307
100
AcDbEntity
  8
0
100
AcDbLine
 10
864.883957578465
 20
248.8211852143898
 30
0.0
 11
934.3639779015227
 21
318.3012055374472
 31
0.0
  0
LINE
  5
22D
330
307
100
AcDbEntity
  8
0
100
AcDbLine
 10
868.7093012718815
 20
251.2323153454333
 30
0.0
 11
935.0794635666103
 21
317.6024776401618
 31
0.0
  0
LINE
  5
22E
330
307
100
AcDbEntity
  8
0
100
AcDbLine
 10
870.1221249814302
 20
249.8167119302356
 30
0.0
 11
936.4936771289833
 21
316.1882640777887
 31
0.0
  0
LINE
  5
22F
330
307
100
AcDbEntity
  8
0
100
AcDbLine
 10
867.7123847032111
 20
245.9927580896436
 30
0.0
 11
937.1924050262689
 21
315.472778412701
 31
0.0
  0
LINE
  5
230
330
307
100
AcDbEntity
  8
0
100
AcDbLine
 10
868.0028894171073
 20
251.9401170530321
 30
0.0
 11
870.8285368362041
 21
249.1089102226368
 31
0.0
  0
CIRCLE
  5
231
330
307
100
AcDbEntity
  8
0
100
AcDbCircle
 10
867.8575723042071
 20
248.9651118548452
 30
0.0
 40
0.4699394634892215
  0
LINE
  5
232
330
307
100
AcDbEntity
  8
0
100
AcDbLine
 10
833.9919826295831
 20
266.4117377582759
 30
0.0
 11
819.4804681449282
 21
322.0001765613705
 31
0.0
  0
LINE
  5
233
330
307
100
AcDbEntity
  8
0
100
AcDbLine
 10
819.1618413458812
 20
324.8616718455132
 30
0.0
 11
820.0104774641619
 21
350.1332854359842
 31
0.0
  0
LINE
  5
234
330
307
100
AcDbEntity
  8
0
100
AcDbLine
 10
863.172860330534
 20
351.7679779862387
 30
0.0
 11
857.236170227504
 21
338.6944522886635
 31
0.0
  0
LINE
  5
235
330
307
100
AcDbEntity
  8
0
100
AcDbLine
 10
856.3500431917011
 20
334.976380579476
 30
0.0
 11
853.5426667072734
 21
267.6466154748922
 31
0.0
  0
ARC
  5
236
330
307
100
AcDbEntity
  8
0
100
AcDbCircle
 10
846.2716526448394
 20
227.3804531560181
 30
0.0
 40
125.5305028852499
100
AcDbArc
 50
82.26229762400313
 51
102.0755648709531
  0
ARC
  5
237
330
307
100
AcDbEntity
  8
0
100
AcDbCircle
 10
829.1562078241911
 20
324.5260549549468
 30
0.0
 40
10.0
100
AcDbArc
 50
178.0766956842724
 51
194.6307001888444
  0
ARC
  5
238
330
307
100
AcDbEntity
  8
0
100
AcDbCircle
 10
866.3413617612558
 20
334.5597833619301
 30
0.0
 40
10.0
100
AcDbArc
 50
155.5771935437055
 51
177.6123827966862
  0
LINE
  5
239
330
307
100
AcDbEntity
  8
0
100
AcDbLine
 10
808.0995165169218
 20
242.1154284467255
 30
0.0
 11
755.5909437087072
 21
265.4286942593094
 31
0.0
  0
LINE
  5
23A
330
307
100
AcDbEntity
  8
0
100
AcDbLine
 10
753.155076048826
 20
266.9636949243862
 30
0.0
 11
733.9260488962659
 21
283.3837787089909
 31
0.0
  0
ARC
  5
23B
330
307
100
AcDbEntity
  8
0
100
AcDbCircle
 10
846.2716526448394
 20
227.3804531560181
 30
0.0
 40
125.5305028852499
100
AcDbArc
 50
133.6908690525745
 51
153.5041362995245
  0
LINE
  5
23C
330
307
100
AcDbEntity
  8
0
100
AcDbLine
 10
759.559300337426
 20
318.1487026265173
 30
0.0
 11
766.0791285786103
 21
305.356001455536
 31
0.0
  0
ARC
  5
23D
330
307
100
AcDbEntity
  8
0
100
AcDbCircle
 10
774.9887369803776
 20
309.896802940644
 30
0.0
 40
10.0
100
AcDbArc
 50
207.005764972277
 51
229.0409542252576
  0
LINE
  5
23E
330
307
100
AcDbEntity
  8
0
100
AcDbLine
 10
768.4335429249522
 20
302.345019648221
 30
0.0
 11
819.3237023828748
 21
258.1707024253031
 31
0.0
  0
LINE
  5
23F
330
307
100
AcDbEntity
  8
0
100
AcDbLine
 10
810.9514474782558
 20
206.7233822025533
 30
0.0
 11
759.9858426507537
 21
180.2061103637944
 31
0.0
  0
LINE
  5
240
330
307
100
AcDbEntity
  8
0
100
AcDbLine
 10
757.2669921605738
 20
179.2587296006954
 30
0.0
 11
732.4401513837209
 21
174.4626255809582
 31
0.0
  0
ARC
  5
241
330
307
100
AcDbEntity
  8
0
100
AcDbCircle
 10
846.2716526448394
 20
227.3804531560181
 30
0.0
 40
125.5305028852499
100
AcDbArc
 50
185.1194404811459
 51
204.9327077280958
  0
LINE
  5
242
330
307
100
AcDbEntity
  8
0
100
AcDbLine
 10
721.2419102414372
 20
216.1790840806488
 30
0.0
 11
735.3086931809651
 21
213.3003723415577
 31
0.0
  0
ARC
  5
243
330
307
100
AcDbEntity
  8
0
100
AcDbCircle
 10
737.3136016013269
 20
223.0973281047508
 30
0.0
 40
10.0
100
AcDbArc
 50
258.4343364008483
 51
280.469525653829
  0
LINE
  5
244
330
307
100
AcDbEntity
  8
0
100
AcDbLine
 10
739.1307268853564
 20
213.263811149859
 30
0.0
 11
805.3970942437427
 21
225.509103669319
 31
0.0
  0
LINE
  5
245
330
307
100
AcDbEntity
  8
0
100
AcDbLine
 10
840.4002133309109
 20
186.8865317137954
 30
0.0
 11
829.3557164281057
 21
130.5067687720477
 31
0.0
  0
LINE
  5
246
330
307
100
AcDbEntity
  8
0
100
AcDbLine
 10
828.4012329811756
 20
127.7904036184321
 30
0.0
 11
816.6716960602593
 21
105.3896759439078
 31
0.0
  0
ARC
  5
247
330
307
100
AcDbEntity
  8
0
100
AcDbCircle
 10
846.2716526448396
 20
227.3804531560179
 30
0.0
 40
125.5305028852499
100
AcDbArc
 50
236.5480119097174
 51
256.3612791566673
  0
LINE
  5
248
330
307
100
AcDbEntity
  8
0
100
AcDbLine
 10
777.074466317161
 20
122.6443249148216
 30
0.0
 11
788.0956294914888
 21
131.8473312621743
 31
0.0
  0
ARC
  5
249
330
307
100
AcDbEntity
  8
0
100
AcDbCircle
 10
781.6861009972344
 20
139.5231337922904
 30
0.0
 40
10.0
100
AcDbArc
 50
309.8629078294198
 51
331.8980970824005
  0
LINE
  5
24A
330
307
100
AcDbEntity
  8
0
100
AcDbLine
 10
790.5072132192436
 20
134.8127220091535
 30
0.0
 11
822.2498622696782
 21
194.2566692453921
 31
0.0
  0
LINE
  5
24B
330
307
100
AcDbEntity
  8
0
100
AcDbLine
 10
874.2702927424891
 20
197.5424299964938
 30
0.0
 11
911.4636351988725
 21
153.7552873844674
 31
0.0
  0
LINE
  5
24C
330
307
100
AcDbEntity
  8
0
100
AcDbLine
 10
912.9922642986443
 20
151.315416204759
 30
0.0
 11
923.1926117740634
 21
128.1782697059348
 31
0.0
  0
ARC
  5
24D
330
307
100
AcDbEntity
  8
0
100
AcDbCircle
 10
846.2716526448394
 20
227.3804531560181
 30
0.0
 40
125.5305028852499
100
AcDbArc
 50
287.9765833382888
 51
307.7898505852387
  0
LINE
  5
24E
330
307
100
AcDbEntity
  8
0
100
AcDbLine
 10
885.0139150629892
 20
107.9780065422785
 30
0.0
 11
884.6902978110904
 21
122.3326794894007
 31
0.0
  0
ARC
  5
24F
330
307
100
AcDbEntity
  8
0
100
AcDbCircle
 10
874.6928380889473
 20
122.1072929234254
 30
0.0
 40
10.0
100
AcDbArc
 50
1.291479257991269
 51
23.32666851097189
  0
LINE
  5
250
330
307
100
AcDbEntity
  8
0
100
AcDbLine
 10
883.8754598278663
 20
126.0670224596349
 30
0.0
 11
857.191528403333
 21
187.9471197082218
 31
0.0
  0
LINE
  5
251
330
307
100
AcDbEntity
  8
0
100
AcDbLine
 10
887.0568250923634
 20
230.6669683030644
 30
0.0
 11
944.4806614323574
 21
232.4450575025471
 31
0.0
  0
LINE
  5
252
330
307
100
AcDbEntity
  8
0
100
AcDbLine
 10
947.3413141883522
 20
232.1189530593683
 30
0.0
 11
971.7904763619472
 21
225.668130961636
 31
0.0
  0
ARC
  5
253
330
307
100
AcDbEntity
  8
0
100
AcDbCircle
 10
846.2716526448394
 20
227.380453156018
 30
0.0
 40
125.5305028852499
100
AcDbArc
 50
339.4051547668602
 51
359.2184220138102
  0
LINE
  5
254
330
307
100
AcDbEntity
  8
0
100
AcDbLine
 10
963.7796500098206
 20
183.2241658359173
 30
0.0
 11
952.3549427229639
 21
191.9211438716611
 31
0.0
  0
ARC
  5
255
330
307
100
AcDbEntity
  8
0
100
AcDbCircle
 10
946.297842854719
 20
183.9642888908216
 30
0.0
 40
10.0
100
AcDbArc
 50
52.72005068656266
 51
74.75523993954327
  0
LINE
  5
256
330
307
100
AcDbEntity
  8
0
100
AcDbLine
 10
948.9272726497942
 20
193.6124026418494
 30
0.0
 11
883.9103053659715
 21
211.3316745506521
 31
0.0
  0
LINE
  5
257
330
307
100
AcDbEntity
  8
0
100
AcDbLine
 10
869.1312907233514
 20
261.3166936712176
 30
0.0
 11
903.5443009501507
 21
307.3210772485893
 31
0.0
  0
LINE
  5
258
330
307
100
AcDbEntity
  8
0
100
AcDbLine
 10
905.5828474904226
 20
309.3543028389722
 30
0.0
 11
925.870106573457
 21
324.447405754714
 31
0.0
  0
ARC
  5
259
330
307
100
AcDbEntity
  8
0
100
AcDbCircle
 10
846.2716526448394
 20
227.3804531560179
 30
0.0
 40
125.5305028852499
100
AcDbArc
 50
30.83372619543164
 51
50.6469934423816
  0
LINE
  5
25A
330
307
100
AcDbEntity
  8
0
100
AcDbLine
 10
954.0594662145068
 20
291.7209101057038
 30
0.0
 11
940.136706501253
 21
288.2111913831328
 31
0.0
  0
ARC
  5
25B
330
307
100
AcDbEntity
  8
0
100
AcDbCircle
 10
942.5810862300151
 20
278.5145420782637
 30
0.0
 40
10.0
100
AcDbArc
 50
104.148622115134
 51
126.1838113681147
  0
LINE
  5
25C
330
307
100
AcDbEntity
  8
0
100
AcDbLine
 10
936.677309814962
 20
286.5858136039319
 30
0.0
 11
882.2864091410021
 21
246.8012870183457
 31
0.0
  0
LINE
  5
25F
330
307
100
AcDbEntity
  8
0
100
AcDbLine
 10
522.754311042861
 20
268.297826891218
 30
0.0
 11
436.7866153374562
 21
268.297826891218
 31
0.0
  0
LINE
  5
260
330
307
100
AcDbEntity
  8
0
100
AcDbLine
 10
522.754311042861
 20
268.297826891218
 30
0.0
 11
522.754311042861
 21
227.3804531560181
 31
0.0
  0
LINE
  5
261
330
307
100
AcDbEntity
  8
0
100
AcDbLine
 10
436.7866153374562
 20
268.2978268912179
 30
0.0
 11
436.7866153374562
 21
227.380453156018
 31
0.0
  0
LINE
  5
262
330
307
100
AcDbEntity
  8
0
100
AcDbLine
 10
419.1110148116148
 20
264.8082748735157
 30
0.0
 11
419.1110148116149
 21
227.3804531560181
 31
0.0
  0
LINE
  5
264
330
307
100
AcDbEntity
  8
0
100
AcDbLine
 10
384.5632490280641
 20
250.6103203540035
 30
0.0
 11
384.5632490280641
 21
227.380453156018
 31
0.0
  0
LINE
  5
265
330
307
100
AcDbEntity
  8
0
100
AcDbLine
 10
390.473130858289
 20
227.380453156018
 30
0.0
 11
390.473130858289
 21
255.7727564465432
 31
0.0
  0
LINE
  5
266
330
307
100
AcDbEntity
  8
0
100
AcDbLine
 10
384.5632490280641
 20
250.6103203540035
 30
0.0
 11
390.4731308582891
 21
255.772756446543
 31
0.0
  0
CIRCLE
  5
269
330
307
100
AcDbEntity
  8
0
100
AcDbCircle
 10
404.792072834952
 20
241.5766048012806
 30
0.0
 40
4.696866868984271
  0
LINE
  5
26A
330
307
100
AcDbEntity
  8
0
100
AcDbLine
 10
419.1110148116148
 20
264.8082748735157
 30
0.0
 11
436.7866153374562
 21
264.8082748735157
 31
0.0
  0
LINE
  5
26B
330
307
100
AcDbEntity
  8
0
100
AcDbLine
 10
419.1110148116148
 20
255.7727564465432
 30
0.0
 11
390.4731308582892
 21
255.7727564465431
 31
0.0
  0
HATCH
  5
26D
330
307
100
AcDbEntity
  8
srafy
100
AcDbHatch
 10
0.0
 20
0.0
 30
0.0
210
0.0
220
0.0
230
1.0
  2
LINE
 70
     0
 71
     0
 91
        1
 92
        3
 72
     0
 73
     1
 93
        4
 10
436.7866153374562
 20
227.3804531560181
 10
436.7866153374562
 20
268.2978268912179
 10
461.6505482397205
 20
268.2978268912179
 10
461.6505482397205
 20
227.3804531560181
 97
        0
 75
     0
 76
     2
 52
0.0
 41
1.0
 77
     0
 78
     1
 53
0.0
 43
0.0
 44
0.0
 45
0.0
 46
3.174999999999999
 79
     0
 98
        1
 10
0.0
 20
0.0
1001
VDEXTRAPARAM
1071
       76
1071
        0
1071
        0
1040
1.0
1000
LINE
1000

1040
0.0
1040
0.0
  0
LINE
  5
26E
330
307
100
AcDbEntity
  8
0
100
AcDbLine
 10
463.7620602769024
 20
268.297826891218
 30
0.0
 11
463.7620602769024
 21
334.7284344425428
 31
0.0
  0
LINE
  5
26F
330
307
100
AcDbEntity
  8
0
100
AcDbLine
 10
521.6317351081115
 20
268.297826891218
 30
0.0
 11
521.6317351081115
 21
312.8911188364071
 31
0.0
  0
LINE
  5
270
330
307
100
AcDbEntity
  8
0
100
AcDbLine
 10
483.7620602769024
 20
354.7284344425428
 30
0.0
 11
521.6317351081115
 21
354.7284344425428
 31
0.0
  0
LINE
  5
271
330
307
100
AcDbEntity
  8
0
100
AcDbLine
 10
521.4428213824691
 20
314.8256953061062
 30
0.0
 11
518.4183933440434
 21
330.1638971711345
 31
0.0
  0
LINE
  5
272
330
307
100
AcDbEntity
  8
0
100
AcDbLine
 10
518.3484789043775
 20
333.6365974620761
 30
0.0
 11
521.6317351081115
 21
354.7284344425428
 31
0.0
  0
ARC
  5
274
330
307
100
AcDbEntity
  8
0
100
AcDbCircle
 10
483.7620602769024
 20
334.7284344425428
 30
0.0
 40
20.0
100
AcDbArc
 50
90.00000000000006
 51
180.0
  0
ARC
  5
275
330
307
100
AcDbEntity
  8
0
100
AcDbCircle
 10
511.6317351081115
 20
312.8911188364071
 30
0.0
 40
10.0
100
AcDbArc
 50
0.0
 51
11.1546376896368
  0
ARC
  5
276
330
307
100
AcDbEntity
  8
0
100
AcDbCircle
 10
528.2294796184008
 20
332.0984736408338
 30
0.0
 40
10.0
100
AcDbArc
 50
171.1520751873124
 51
191.1546376896371
  0
ARC
  5
277
330
307
100
AcDbEntity
  8
0
100
AcDbCircle
 10
483.7620602769024
 20
120.0324718694934
 30
0.0
 40
20.0
100
AcDbArc
 50
179.9999999999999
 51
269.9999999999999
  0
LINE
  5
278
330
307
100
AcDbEntity
  8
0
100
AcDbLine
 10
483.7620602769024
 20
100.0324718694934
 30
0.0
 11
521.6317351081115
 21
100.0324718694934
 31
0.0
  0
LINE
  5
279
330
307
100
AcDbEntity
  8
0
100
AcDbLine
 10
518.3484789043775
 20
121.1243088499601
 30
0.0
 11
521.6317351081115
 21
100.0324718694934
 31
0.0
  0
LINE
  5
27A
330
307
100
AcDbEntity
  8
0
100
AcDbLine
 10
521.4428213824691
 20
139.93521100593
 30
0.0
 11
518.4183933440434
 21
124.5970091409016
 31
0.0
  0
LINE
  5
27B
330
307
100
AcDbEntity
  8
0
100
AcDbLine
 10
521.6317351081115
 20
186.4630794208181
 30
0.0
 11
521.6317351081115
 21
141.8697874756291
 31
0.0
  0
LINE
  5
27C
330
307
100
AcDbEntity
  8
0
100
AcDbLine
 10
463.7620602769024
 20
186.4630794208181
 30
0.0
 11
463.7620602769024
 21
120.0324718694934
 31
0.0
  0
LINE
  5
27D
330
307
100
AcDbEntity
  8
0
100
AcDbLine
 10
522.754311042861
 20
186.4630794208181
 30
0.0
 11
436.7866153374562
 21
186.4630794208181
 31
0.0
  0
LINE
  5
27E
330
307
100
AcDbEntity
  8
0
100
AcDbLine
 10
522.754311042861
 20
186.4630794208181
 30
0.0
 11
522.754311042861
 21
227.3804531560181
 31
0.0
  0
HATCH
  5
27F
330
307
100
AcDbEntity
  8
srafy
100
AcDbHatch
 10
0.0
 20
0.0
 30
0.0
210
0.0
220
0.0
230
1.0
  2
LINE
 70
     0
 71
     0
 91
        1
 92
        3
 72
     0
 73
     1
 93
        4
 10
436.7866153374562
 20
227.3804531560181
 10
436.7866153374562
 20
186.4630794208182
 10
461.6505482397205
 20
186.4630794208182
 10
461.6505482397205
 20
227.3804531560181
 97
        0
 75
     0
 76
     2
 52
0.0
 41
1.0
 77
     0
 78
     1
 53
0.0
 43
0.0
 44
0.0
 45
0.0
 46
3.174999999999999
 79
     0
 98
        1
 10
0.0
 20
0.0
1001
VDEXTRAPARAM
1071
       76
1071
        0
1071
        0
1040
1.0
1000
LINE
1000

1040
0.0
1040
0.0
  0
LINE
  5
281
330
307
100
AcDbEntity
  8
0
100
AcDbLine
 10
419.1110148116148
 20
189.9526314385205
 30
0.0
 11
436.7866153374562
 21
189.9526314385205
 31
0.0
  0
LINE
  5
282
330
307
100
AcDbEntity
  8
0
100
AcDbLine
 10
419.1110148116148
 20
189.9526314385205
 30
0.0
 11
419.1110148116149
 21
227.3804531560181
 31
0.0
  0
LINE
  5
283
330
307
100
AcDbEntity
  8
0
100
AcDbLine
 10
419.1110148116148
 20
198.988149865493
 30
0.0
 11
390.4731308582892
 21
198.988149865493
 31
0.0
  0
LINE
  5
284
330
307
100
AcDbEntity
  8
0
100
AcDbLine
 10
390.473130858289
 20
227.3804531560181
 30
0.0
 11
390.473130858289
 21
198.988149865493
 31
0.0
  0
LINE
  5
285
330
307
100
AcDbEntity
  8
0
100
AcDbLine
 10
384.5632490280641
 20
204.1505859580327
 30
0.0
 11
390.4731308582891
 21
198.9881498654931
 31
0.0
  0
LINE
  5
286
330
307
100
AcDbEntity
  8
0
100
AcDbLine
 10
384.5632490280641
 20
204.1505859580327
 30
0.0
 11
384.5632490280641
 21
227.3804531560181
 31
0.0
  0
LINE
  5
287
330
307
100
AcDbEntity
  8
0
100
AcDbLine
 10
436.7866153374562
 20
227.380453156018
 30
0.0
 11
436.7866153374562
 21
186.4630794208181
 31
0.0
  0
LINE
  5
288
330
307
100
AcDbEntity
  8
0
100
AcDbLine
 10
461.6505482397205
 20
227.3804531560181
 30
0.0
 11
461.6505482397205
 21
186.4630794208181
 31
0.0
  0
LINE
  5
289
330
307
100
AcDbEntity
  8
0
100
AcDbLine
 10
436.7866153374562
 20
268.297826891218
 30
0.0
 11
436.7866153374568
 21
357.8804531560181
 31
0.0
  0
LINE
  5
28A
330
307
100
AcDbEntity
  8
0
100
AcDbLine
 10
436.7866153374562
 20
268.297826891218
 30
0.0
 11
426.0025750696763
 21
278.9858502749495
 31
0.0
  0
LINE
  5
28B
330
307
100
AcDbEntity
  8
0
100
AcDbLine
 10
426.0025750696764
 20
357.8804531560181
 30
0.0
 11
426.0025750696763
 21
278.9858502749495
 31
0.0
  0
LINE
  5
28D
330
307
100
AcDbEntity
  8
0
100
AcDbLine
 10
436.7866153374561
 20
186.4630794208181
 30
0.0
 11
426.0025750696762
 21
175.7750560370866
 31
0.0
  0
LINE
  5
28E
330
307
100
AcDbEntity
  8
0
100
AcDbLine
 10
436.7866153374561
 20
186.4630794208181
 30
0.0
 11
436.7866153374565
 21
96.88045315601806
 31
0.0
  0
LINE
  5
28F
330
307
100
AcDbEntity
  8
0
100
AcDbLine
 10
426.0025750696761
 20
96.88045315601806
 30
0.0
 11
426.0025750696762
 21
175.7750560370866
 31
0.0
  0
DIMENSION
  5
290
330
307
100
AcDbEntity
  8
koty
100
AcDbDimension
  2
*D3
 10
548.6505482397205
 20
36.13503238259727
 30
0.0
 11
461.6505482397205
 21
52.38503238259727
 31
0.0
 70
    32
 71
     0
 42
173.9999999999999
  3
ISO-25
100
AcDbAlignedDimension
 13
374.6505482397206
 23
91.88045315601812
 33
0.0
 14
548.6505482397205
 24
91.88045315601812
 34
0.0
100
AcDbRotatedDimension
  0
DIMENSION
  5
2A8
330
307
100
AcDbEntity
  8
koty
100
AcDbDimension
  2
*D4
 10
586.6505482397205
 20
-22.73316837114544
 30
0.0
 11
461.6505482397205
 21
-6.483168371145439
 31
0.0
 70
    32
 71
     0
 42
250.0
  3
ISO-25
100
AcDbAlignedDimension
 13
336.6505482397205
 23
96.88045315601812
 33
0.0
 14
586.6505482397205
 24
96.88045315601812
 34
0.0
100
AcDbRotatedDimension
  0
DIMENSION
  5
2C0
330
307
100
AcDbEntity
  8
koty
100
AcDbDimension
  2
*D5
 10
253.6996028977337
 20
96.88045315601812
 30
0.0
 11
237.4496028977337
 21
227.3804531560181
 31
0.0
 70
    32
 71
     0
 42
261.0
  3
ISO-25
100
AcDbAlignedDimension
 13
336.6505482397205
 23
357.8804531560181
 33
0.0
 14
336.6505482397205
 24
96.88045315601812
 34
0.0
 50
90.0
100
AcDbRotatedDimension
  0
TEXT
  5
2D8
330
307
100
AcDbEntity
  8
popis
100
AcDbText
 10
356.6563847915006
 20
395.4214377507097
 30
0.0
 40
15.0
  1
TREB 250 malý axiální ventilátor
100
AcDbText
  0
VIEWPORT
  5
35A
330
303
100
AcDbEntity
 67
     1
  8
0
 60
     1
100
AcDbViewport
 10
0.0
 20
0.0
 30
0.0
 40
10.0
 41
10.0
 69
     1
 12
0.0
 22
0.0
 13
0.0
 23
0.0
 14
1.0
 24
1.0
 15
0.0
 25
0.0
 16
0.0
 26
0.0
 36
1.0
 17
0.0
 27
0.0
 37
0.0
 42
0.0
 43
0.0
 44
0.0
 45
10.0
 50
0.0
 51
0.0000000000007958
 72
   100
 90
   163872
  1

281
     0
 71
     0
 74
     0
110
0.0
120
0.0
130
0.0
111
1.0
121
0.0
131
0.0
112
0.0
122
1.0
132
0.0
 79
     0
146
0.0
1001
VD_INVISIBLE_NOT_FOR_READ
1000
VD_INVISIBLE_NOT_FOR_READ
  0
VIEWPORT
  5
35B
330
303
100
AcDbEntity
 67
     1
  8
0
 60
     1
100
AcDbViewport
 10
0.0
 20
0.0
 30
0.0
 40
10.0
 41
10.0
 69
     2
 12
0.0
 22
0.0
 13
0.0
 23
0.0
 14
1.0
 24
1.0
 15
0.0
 25
0.0
 16
0.0
 26
0.0
 36
1.0
 17
0.0
 27
0.0
 37
0.0
 42
0.0
 43
0.0
 44
0.0
 45
10.0
 50
0.0
 51
0.0000000000007958
 72
   100
 90
   163872
  1

281
     0
 71
     0
 74
     0
110
0.0
120
0.0
130
0.0
111
1.0
121
0.0
131
0.0
112
0.0
122
1.0
132
0.0
 79
     0
146
0.0
1001
VD_INVISIBLE_NOT_FOR_READ
1000
VD_INVISIBLE_NOT_FOR_READ
  0
ENDSEC
  0
SECTION
  2
OBJECTS
  0
DICTIONARY
  5
2F4
330
0
100
AcDbDictionary
281
     1
  3
ACAD_GROUP
350
2F5
  3
ACAD_LAYOUT
350
302
  3
ACAD_MLINESTYLE
350
2FF
  3
ACAD_PLOTSETTINGS
350
301
  3
ACAD_PLOTSTYLENAME
350
2F6
  3
VECTORDRAW_OBJECTS
350
317
  0
DICTIONARY
  5
2F5
102
{ACAD_REACTORS
330
2F4
102
}
330
2F4
100
AcDbDictionary
281
     1
  0
DICTIONARY
  5
302
102
{ACAD_REACTORS
330
2F4
102
}
330
2F4
100
AcDbDictionary
281
     1
  3
Model
350
30A
  3
Rozvržení1
350
306
  3
Rozvržení2
350
30E
  0
DICTIONARY
  5
2FF
102
{ACAD_REACTORS
330
2F4
102
}
330
2F4
100
AcDbDictionary
281
     1
  3
Standard
350
300
  0
DICTIONARY
  5
301
102
{ACAD_REACTORS
330
2F4
102
}
330
2F4
100
AcDbDictionary
281
     1
  0
ACDBDICTIONARYWDFLT
  5
2F6
102
{ACAD_REACTORS
330
2F4
102
}
330
2F4
100
AcDbDictionary
281
     1
  3
Normal
350
2F7
100
AcDbDictionaryWithDefault
340
2F7
  0
DICTIONARY
  5
317
102
{ACAD_REACTORS
330
2F4
102
}
330
2F4
100
AcDbDictionary
281
     1
  3
SERIALNO
350
318
  0
LAYOUT
  5
30A
102
{ACAD_REACTORS
330
302
102
}
330
302
100
AcDbPlotSettings
  1
VectorDraw Printer Drawing
  2

  4

  6

 40
0.0
 41
0.0
 42
0.0
 43
0.0
 44
0.0
 45
0.0
 46
0.0
 47
0.0
 48
0.0
 49
0.0
140
0.0
141
0.0
142
1.0
143
1.0
 70
  1712
 72
     0
 73
     0
 74
     0
  7

 75
     0
147
1.0
148
0.0
149
0.0
100
AcDbLayout
  1
Model
 70
     1
 71
     0
 10
0.0
 20
0.0
 11
12.0
 21
9.0
 12
0.0
 22
0.0
 32
0.0
 14
221.2649875131182
 24
-35.23316837114544
 34
0.0
 15
976.7716526448393
 25
410.4214377507097
 35
0.0
146
0.0
 13
0.0
 23
0.0
 33
0.0
 16
1.0
 26
0.0
 36
0.0
 17
0.0
 27
1.0
 37
0.0
 76
     0
330
307
  0
LAYOUT
  5
306
102
{ACAD_REACTORS
330
302
102
}
330
302
100
AcDbPlotSettings
  1
VectorDraw Printer Drawing
  2

  4

  6

 40
0.0
 41
0.0
 42
0.0
 43
0.0
 44
0.0
 45
0.0
 46
0.0
 47
0.0
 48
0.0
 49
0.0
140
0.0
141
0.0
142
1.0
143
1.0
 70
   688
 72
     0
 73
     0
 74
     5
  7

 75
    16
147
1.0
148
0.0
149
0.0
100
AcDbLayout
  1
Rozvržení1
 70
     1
 71
     1
 10
0.0
 20
0.0
 11
12.0
 21
9.0
 12
0.0
 22
0.0
 32
0.0
 14
1.000000000000000E+20
 24
1.000000000000000E+20
 34
1.000000000000000E+20
 15
-1.000000000000000E+20
 25
-1.000000000000000E+20
 35
-1.000000000000000E+20
146
0.0
 13
0.0
 23
0.0
 33
0.0
 16
1.0
 26
0.0
 36
0.0
 17
0.0
 27
1.0
 37
0.0
 76
     0
330
303
331
35A
  0
LAYOUT
  5
30E
102
{ACAD_REACTORS
330
302
102
}
330
302
100
AcDbPlotSettings
  1
VectorDraw Printer Drawing
  2

  4

  6

 40
0.0
 41
0.0
 42
0.0
 43
0.0
 44
0.0
 45
0.0
 46
0.0
 47
0.0
 48
0.0
 49
0.0
140
0.0
141
0.0
142
1.0
143
1.0
 70
   688
 72
     0
 73
     0
 74
     5
  7

 75
    16
147
1.0
148
0.0
149
0.0
100
AcDbLayout
  1
Rozvržení2
 70
     1
 71
     2
 10
0.0
 20
0.0
 11
12.0
 21
9.0
 12
0.0
 22
0.0
 32
0.0
 14
0.0
 24
0.0
 34
0.0
 15
0.0
 25
0.0
 35
0.0
146
0.0
 13
0.0
 23
0.0
 33
0.0
 16
1.0
 26
0.0
 36
0.0
 17
0.0
 27
1.0
 37
0.0
 76
     0
330
30B
331
35C
  0
MLINESTYLE
  5
300
102
{ACAD_REACTORS
330
2FF
102
}
330
2FF
100
AcDbMlineStyle
  2
Standard
 70
     0
  3

 62
   256
 51
90.0
 52
90.0
 71
     2
 49
0.5
 62
   256
  6
BYLAYER
 49
-0.5
 62
   256
  6
BYLAYER
  0
ACDBPLACEHOLDER
  5
2F7
102
{ACAD_REACTORS
330
2F6
102
}
330
2F6
  0
XRECORD
  5
318
102
{ACAD_REACTORS
330
317
102
}
330
317
100
AcDbXrecord
280
     1
1000
rInJVR9YY4Q8hfPWdUq5j5319
1070
     4
1070
     6
  0
ENDSEC
  0
EOF
