  0
SECTION
  2
HEADER
  9
$ACADVER
  1
AC1015
  9
$ACADMAINTVER
 70
     6
  9
$DWGCODEPAGE
  3
ANSI_1252
  9
$INSBASE
 10
0.0
 20
0.0
 30
0.0
  9
$EXTMIN
 10
-358.7195846657479
 20
5.837487431843442
 30
0.0
  9
$EXTMAX
 10
446.1641772540257
 20
486.5906346769287
 30
0.0
  9
$LIMMIN
 10
0.0
 20
0.0
  9
$LIMMAX
 10
12.0
 20
9.0
  9
$ORTHOMODE
 70
     1
  9
$REGENMODE
 70
     1
  9
$FILLMODE
 70
     1
  9
$QTEXTMODE
 70
     0
  9
$MIRRTEXT
 70
     1
  9
$LTSCALE
 40
1.0
  9
$ATTMODE
 70
     1
  9
$TEXTSIZE
 40
0.2
  9
$TRACEWID
 40
0.05
  9
$TEXTSTYLE
  7
Standard
  9
$CLAYER
  8
koty
  9
$CELTYPE
  6
Continuous
  9
$CECOLOR
 62
    51
  9
$CELTSCALE
 40
1.0
  9
$DISPSILH
 70
     0
  9
$DIMSCALE
 40
10.0
  9
$DIMASZ
 40
2.0
  9
$DIMEXO
 40
0.625
  9
$DIMDLI
 40
0.38
  9
$DIMRND
 40
0.0
  9
$DIMDLE
 40
0.0
  9
$DIMEXE
 40
1.25
  9
$DIMTP
 40
0.0
  9
$DIMTM
 40
0.0
  9
$DIMTXT
 40
2.0
  9
$DIMCEN
 40
0.09
  9
$DIMTSZ
 40
0.0
  9
$DIMTOL
 70
     0
  9
$DIMLIM
 70
     0
  9
$DIMTIH
 70
     0
  9
$DIMTOH
 70
     0
  9
$DIMSE1
 70
     0
  9
$DIMSE2
 70
     0
  9
$DIMTAD
 70
     1
  9
$DIMZIN
 70
     0
  9
$DIMBLK
  1
VDDIM_DEFAULT
  9
$DIMASO
 70
     1
  9
$DIMSHO
 70
     1
  9
$DIMPOST
  1

  9
$DIMAPOST
  1

  9
$DIMALT
 70
     0
  9
$DIMALTD
 70
     2
  9
$DIMALTF
 40
25.4
  9
$DIMLFAC
 40
1.0
  9
$DIMTOFL
 70
     1
  9
$DIMTVP
 40
0.0
  9
$DIMTIX
 70
     1
  9
$DIMSOXD
 70
     0
  9
$DIMSAH
 70
     0
  9
$DIMBLK1
  1

  9
$DIMBLK2
  1

  9
$DIMSTYLE
  2
ISO-25
  9
$DIMCLRD
 70
     0
  9
$DIMCLRE
 70
     0
  9
$DIMCLRT
 70
   256
  9
$DIMTFAC
 40
1.0
  9
$DIMGAP
 40
0.625
  9
$DIMJUST
 70
     0
  9
$DIMSD1
 70
     0
  9
$DIMSD2
 70
     0
  9
$DIMTOLJ
 70
     1
  9
$DIMTZIN
 70
     0
  9
$DIMALTZ
 70
     0
  9
$DIMALTTZ
 70
     0
  9
$DIMUPT
 70
     1
  9
$DIMDEC
 70
     0
  9
$DIMTDEC
 70
     4
  9
$DIMALTU
 70
     2
  9
$DIMALTTD
 70
     2
  9
$DIMTXSTY
  7
Standard
  9
$DIMAUNIT
 70
     0
  9
$DIMADEC
 70
     0
  9
$DIMALTRND
 40
0.0
  9
$DIMAZIN
 70
     0
  9
$DIMDSEP
 70
    46
  9
$DIMATFIT
 70
     3
  9
$DIMFRAC
 70
     0
  9
$DIMLDRBLK
  1

  9
$DIMLUNIT
 70
     2
  9
$DIMLWD
 70
    -2
  9
$DIMLWE
 70
    -2
  9
$DIMTMOVE
 70
     0
  9
$LUNITS
 70
     2
  9
$LUPREC
 70
     4
  9
$SKETCHINC
 40
0.1
  9
$FILLETRAD
 40
0.5
  9
$AUNITS
 70
     0
  9
$AUPREC
 70
     0
  9
$MENU
  1
.
  9
$ELEVATION
 40
0.0
  9
$PELEVATION
 40
0.0
  9
$THICKNESS
 40
0.0
  9
$LIMCHECK
 70
     0
  9
$CHAMFERA
 40
0.5
  9
$CHAMFERB
 40
0.5
  9
$CHAMFERC
 40
1.0
  9
$CHAMFERD
 40
0.0
  9
$SKPOLY
 70
     0
  9
$TDCREATE
 40
2455643.633802766
  9
$TDUCREATE
 40
2455643.5921361
  9
$TDUPDATE
 40
2455643.633802778
  9
$TDUUPDATE
 40
2455643.592136111
  9
$TDINDWG
 40
0.0000000116
  9
$TDUSRTIMER
 40
0.0000000116
  9
$USRTIMER
 70
     1
  9
$ANGBASE
 50
0.0
  9
$ANGDIR
 70
     0
  9
$PDMODE
 70
     0
  9
$PDSIZE
 40
0.0
  9
$PLINEWID
 40
0.0
  9
$SPLFRAME
 70
     0
  9
$SPLINETYPE
 70
     6
  9
$SPLINESEGS
 70
     8
  9
$HANDSEED
  5
40F
  9
$SURFTAB1
 70
     6
  9
$SURFTAB2
 70
     6
  9
$SURFTYPE
 70
     6
  9
$SURFU
 70
     6
  9
$SURFV
 70
     6
  9
$UCSBASE
  2

  9
$UCSNAME
  2

  9
$UCSORG
 10
0.0
 20
0.0
 30
0.0
  9
$UCSXDIR
 10
1.0
 20
0.0
 30
0.0
  9
$UCSYDIR
 10
0.0
 20
1.0
 30
0.0
  9
$UCSORTHOREF
  2

  9
$UCSORTHOVIEW
 70
     0
  9
$UCSORGTOP
 10
0.0
 20
0.0
 30
0.0
  9
$UCSORGBOTTOM
 10
0.0
 20
0.0
 30
0.0
  9
$UCSORGLEFT
 10
0.0
 20
0.0
 30
0.0
  9
$UCSORGRIGHT
 10
0.0
 20
0.0
 30
0.0
  9
$UCSORGFRONT
 10
0.0
 20
0.0
 30
0.0
  9
$UCSORGBACK
 10
0.0
 20
0.0
 30
0.0
  9
$PUCSBASE
  2

  9
$PUCSNAME
  2

  9
$PUCSORG
 10
0.0
 20
0.0
 30
0.0
  9
$PUCSXDIR
 10
1.0
 20
0.0
 30
0.0
  9
$PUCSYDIR
 10
0.0
 20
1.0
 30
0.0
  9
$PUCSORTHOREF
  2

  9
$PUCSORTHOVIEW
 70
     0
  9
$PUCSORGTOP
 10
0.0
 20
0.0
 30
0.0
  9
$PUCSORGBOTTOM
 10
0.0
 20
0.0
 30
0.0
  9
$PUCSORGLEFT
 10
0.0
 20
0.0
 30
0.0
  9
$PUCSORGRIGHT
 10
0.0
 20
0.0
 30
0.0
  9
$PUCSORGFRONT
 10
0.0
 20
0.0
 30
0.0
  9
$PUCSORGBACK
 10
0.0
 20
0.0
 30
0.0
  9
$USERI1
 70
     0
  9
$USERI2
 70
     0
  9
$USERI3
 70
     0
  9
$USERI4
 70
     0
  9
$USERI5
 70
     0
  9
$USERR1
 40
0.0
  9
$USERR2
 40
0.0
  9
$USERR3
 40
0.0
  9
$USERR4
 40
0.0
  9
$USERR5
 40
0.0
  9
$WORLDVIEW
 70
     1
  9
$SHADEDGE
 70
     3
  9
$SHADEDIF
 70
    70
  9
$TILEMODE
 70
     1
  9
$MAXACTVP
 70
    64
  9
$PINSBASE
 10
0.0
 20
0.0
 30
0.0
  9
$PLIMCHECK
 70
     0
  9
$PEXTMIN
 10
1.000000000000000E+20
 20
1.000000000000000E+20
 30
1.000000000000000E+20
  9
$PEXTMAX
 10
-1.000000000000000E+20
 20
-1.000000000000000E+20
 30
-1.000000000000000E+20
  9
$PLIMMIN
 10
0.0
 20
0.0
  9
$PLIMMAX
 10
12.0
 20
9.0
  9
$UNITMODE
 70
     0
  9
$VISRETAIN
 70
     1
  9
$PLINEGEN
 70
     0
  9
$PSLTSCALE
 70
     1
  9
$TREEDEPTH
 70
  3020
  9
$CMLSTYLE
  2
Standard
  9
$CMLJUST
 70
     0
  9
$CMLSCALE
 40
1.0
  9
$PROXYGRAPHICS
 70
     1
  9
$MEASUREMENT
 70
     0
  9
$CELWEIGHT
370
     0
  9
$ENDCAPS
280
     0
  9
$JOINSTYLE
280
     0
  9
$LWDISPLAY
290
     0
  9
$INSUNITS
 70
     1
  9
$HYPERLINKBASE
  1

  9
$STYLESHEET
  1

  9
$XEDIT
290
     1
  9
$CEPSNTYPE
380
     0
  9
$PSTYLEMODE
290
     0
  9
$FINGERPRINTGUID
  2
{FAEB1C30-E019-11D5-929B-00C0DF256EC4}
  9
$VERSIONGUID
  2
{FAEB1C32-E019-11D5-929B-00C0DF256EC4}
  9
$EXTNAMES
290
     1
  9
$PSVPSCALE
 40
0.0
  9
$OLESTARTUP
290
     0
  0
ENDSEC
  0
SECTION
  2
CLASSES
  0
CLASS
  1
ACDBDICTIONARYWDFLT
  2
AcDbDictionaryWithDefault
  3
ObjectDBX Classes
 90
        0
280
     0
281
     0
  0
CLASS
  1
ACDBPLACEHOLDER
  2
AcDbPlaceHolder
  3
ObjectDBX Classes
 90
        0
280
     0
281
     0
  0
CLASS
  1
LAYOUT
  2
AcDbLayout
  3
ObjectDBX Classes
 90
        0
280
     0
281
     0
  0
ENDSEC
  0
SECTION
  2
TABLES
  0
TABLE
  2
VPORT
  5
389
330
0
100
AcDbSymbolTable
 70
     2
  0
VPORT
  5
3AA
330
389
100
AcDbSymbolTableRecord
100
AcDbViewportTableRecord
  2
*Active
 70
     0
 10
0.0
 20
0.0
 11
1.0
 21
1.0
 12
21.0
 22
189.0
 13
0.0
 23
0.0
 14
10.0
 24
10.0
 15
10.0
 25
10.0
 16
0.0
 26
0.0
 36
1.0
 17
0.0
 27
0.0
 37
0.0
 40
699.289097281148
 41
0.0253925834460907
 42
50.0
 43
0.0
 44
0.0
 50
0.0
 51
0.0000000000007958
 71
     0
 72
   100
 73
     1
 74
     3
 75
     0
 76
     0
 77
     0
 78
     0
281
     0
 65
     1
110
0.0
120
0.0
130
0.0
111
1.0
121
0.0
131
0.0
112
0.0
122
1.0
132
0.0
 79
     0
146
0.0
  0
ENDTAB
  0
TABLE
  2
LTYPE
  5
386
330
0
100
AcDbSymbolTable
 70
    25
  0
LTYPE
  5
395
330
386
100
AcDbSymbolTableRecord
100
AcDbLinetypeTableRecord
  2
ByBlock
 70
     0
  3

 72
    65
 73
     0
 40
0.0
  0
LTYPE
  5
396
330
386
100
AcDbSymbolTableRecord
100
AcDbLinetypeTableRecord
  2
ByLayer
 70
     0
  3

 72
    65
 73
     0
 40
0.0
  0
LTYPE
  5
397
330
386
100
AcDbSymbolTableRecord
100
AcDbLinetypeTableRecord
  2
Continuous
 70
     0
  3
Solid line
 72
    65
 73
     0
 40
0.0
  0
LTYPE
  5
3B2
330
386
100
AcDbSymbolTableRecord
100
AcDbLinetypeTableRecord
  2
CENTER
 70
     0
  3
Center ____ _ ____ _ ____ _ ____ _ ____ _ ____
 72
    65
 73
     4
 40
2.0
 49
1.25
 74
     0
 49
-0.25
 74
     0
 49
0.25
 74
     0
 49
-0.25
 74
     0
  0
LTYPE
  5
3B3
330
386
100
AcDbSymbolTableRecord
100
AcDbLinetypeTableRecord
  2
DASHDOT
 70
     0
  3
Dashdot __ . __ . __ . __ . __ . __ . __ . __
 72
    65
 73
     4
 40
1.0
 49
0.5
 74
     0
 49
-0.25
 74
     0
 49
0.0
 74
     0
 49
-0.25
 74
     0
  0
LTYPE
  5
3B4
330
386
100
AcDbSymbolTableRecord
100
AcDbLinetypeTableRecord
  2
DASHED
 70
     0
  3
Dashed __ __ __ __ __ __ __ __ __ __ __ __ __ _
 72
    65
 73
     2
 40
0.75
 49
0.5
 74
     0
 49
-0.25
 74
     0
  0
LTYPE
  5
3B5
330
386
100
AcDbSymbolTableRecord
100
AcDbLinetypeTableRecord
  2
HIDDEN
 70
     0
  3
Hidden __ __ __ __ __ __ __ __ __ __ __ __ __ __
 72
    65
 73
     2
 40
0.375
 49
0.25
 74
     0
 49
-0.125
 74
     0
  0
LTYPE
  5
3B6
330
386
100
AcDbSymbolTableRecord
100
AcDbLinetypeTableRecord
  2
HIDDEN2
 70
     0
  3
Hidden2 _ _ _ _ _ _ _ _ _ _ _ _ _ _ _ _ _ 
 72
    65
 73
     2
 40
0.1875
 49
0.125
 74
     0
 49
-0.0625
 74
     0
  0
LTYPE
  5
3B7
330
386
100
AcDbSymbolTableRecord
100
AcDbLinetypeTableRecord
  2
BORDER
 70
     0
  3
Border __ __ . __ __ . __ __ . __ __ . __ __ .
 72
    65
 73
     6
 40
1.75
 49
0.5
 74
     0
 49
-0.25
 74
     0
 49
0.5
 74
     0
 49
-0.25
 74
     0
 49
0.0
 74
     0
 49
-0.25
 74
     0
  0
LTYPE
  5
3B8
330
386
100
AcDbSymbolTableRecord
100
AcDbLinetypeTableRecord
  2
BORDER2
 70
     0
  3
Border2 __.__.__.__.__.__.__.__.__.__.__.
 72
    65
 73
     6
 40
0.875
 49
0.25
 74
     0
 49
-0.125
 74
     0
 49
0.25
 74
     0
 49
-0.125
 74
     0
 49
0.0
 74
     0
 49
-0.125
 74
     0
  0
LTYPE
  5
3B9
330
386
100
AcDbSymbolTableRecord
100
AcDbLinetypeTableRecord
  2
BORDERX2
 70
     0
  3
Borderx2  ____  ____  .  ____  ____  .  ___
 72
    65
 73
     6
 40
3.5
 49
1.0
 74
     0
 49
-0.5
 74
     0
 49
1.0
 74
     0
 49
-0.5
 74
     0
 49
0.0
 74
     0
 49
-0.5
 74
     0
  0
LTYPE
  5
3BA
330
386
100
AcDbSymbolTableRecord
100
AcDbLinetypeTableRecord
  2
CENTER2
 70
     0
  3
Center2  ___ _ ___ _ ___ _ ___ _ ___ _ ___
 72
    65
 73
     4
 40
1.125
 49
0.75
 74
     0
 49
-0.125
 74
     0
 49
0.125
 74
     0
 49
-0.125
 74
     0
  0
LTYPE
  5
3BB
330
386
100
AcDbSymbolTableRecord
100
AcDbLinetypeTableRecord
  2
CENTERX2
 70
     0
  3
Centerx2  ________  __  ________  __  _____
 72
    65
 73
     4
 40
4.0
 49
2.5
 74
     0
 49
-0.5
 74
     0
 49
0.5
 74
     0
 49
-0.5
 74
     0
  0
LTYPE
  5
3BC
330
386
100
AcDbSymbolTableRecord
100
AcDbLinetypeTableRecord
  2
DASHDOT2
 70
     0
  3
Dashdot2  _._._._._._._._._._._._._._._.
 72
    65
 73
     4
 40
0.5
 49
0.25
 74
     0
 49
-0.125
 74
     0
 49
0.0
 74
     0
 49
-0.125
 74
     0
  0
LTYPE
  5
3BD
330
386
100
AcDbSymbolTableRecord
100
AcDbLinetypeTableRecord
  2
DASHDOTX2
 70
     0
  3
Dashdotx2 ____  .  ____  .  ____  .  ___
 72
    65
 73
     4
 40
2.0
 49
1.0
 74
     0
 49
-0.5
 74
     0
 49
0.0
 74
     0
 49
-0.5
 74
     0
  0
LTYPE
  5
3BE
330
386
100
AcDbSymbolTableRecord
100
AcDbLinetypeTableRecord
  2
DASHED2
 70
     0
  3
Dashed2 _ _ _ _ _ _ _ _ _ _ _ _ _ _ _ _ _ 
 72
    65
 73
     2
 40
0.375
 49
0.25
 74
     0
 49
-0.125
 74
     0
  0
LTYPE
  5
3BF
330
386
100
AcDbSymbolTableRecord
100
AcDbLinetypeTableRecord
  2
DASHEDX2
 70
     0
  3
Dashedx2 ____  ____  ____  ____  ____  ___
 72
    65
 73
     2
 40
1.5
 49
1.0
 74
     0
 49
-0.5
 74
     0
  0
LTYPE
  5
3C0
330
386
100
AcDbSymbolTableRecord
100
AcDbLinetypeTableRecord
  2
DIVIDE
 70
     0
  3
Divide ____ . . ____ . . ____ . . ____ . . ____
 72
    65
 73
     6
 40
1.25
 49
0.5
 74
     0
 49
-0.25
 74
     0
 49
0.0
 74
     0
 49
-0.25
 74
     0
 49
0.0
 74
     0
 49
-0.25
 74
     0
  0
LTYPE
  5
3C1
330
386
100
AcDbSymbolTableRecord
100
AcDbLinetypeTableRecord
  2
DIVIDE2
 70
     0
  3
Divide2 __..__..__..__..__..__..__..__.._
 72
    65
 73
     6
 40
0.625
 49
0.25
 74
     0
 49
-0.125
 74
     0
 49
0.0
 74
     0
 49
-0.125
 74
     0
 49
0.0
 74
     0
 49
-0.125
 74
     0
  0
LTYPE
  5
3C2
330
386
100
AcDbSymbolTableRecord
100
AcDbLinetypeTableRecord
  2
DIVIDEX2
 70
     0
  3
Dividex2 ________  .  .  ________  .  .  _
 72
    65
 73
     6
 40
2.5
 49
1.0
 74
     0
 49
-0.5
 74
     0
 49
0.0
 74
     0
 49
-0.5
 74
     0
 49
0.0
 74
     0
 49
-0.5
 74
     0
  0
LTYPE
  5
3C3
330
386
100
AcDbSymbolTableRecord
100
AcDbLinetypeTableRecord
  2
DOT
 70
     0
  3
Dot . . . . . . . . . . . . . . . . . . . . . . . .
 72
    65
 73
     2
 40
0.25
 49
0.0
 74
     0
 49
-0.25
 74
     0
  0
LTYPE
  5
3C4
330
386
100
AcDbSymbolTableRecord
100
AcDbLinetypeTableRecord
  2
DOT2
 70
     0
  3
Dot2 ........................................
 72
    65
 73
     2
 40
0.125
 49
0.0
 74
     0
 49
-0.125
 74
     0
  0
LTYPE
  5
3C5
330
386
100
AcDbSymbolTableRecord
100
AcDbLinetypeTableRecord
  2
DOTX2
 70
     0
  3
Dotx2 .  .  .  .  .  .  .  .  .  .  .  .  .  .
 72
    65
 73
     2
 40
0.5
 49
0.0
 74
     0
 49
-0.5
 74
     0
  0
LTYPE
  5
3C6
330
386
100
AcDbSymbolTableRecord
100
AcDbLinetypeTableRecord
  2
HIDDENX2
 70
     0
  3
Hiddenx2 ____ ____ ____ ____ ____ ____ ____ 
 72
    65
 73
     2
 40
0.75
 49
0.5
 74
     0
 49
-0.25
 74
     0
  0
LTYPE
  5
3C7
330
386
100
AcDbSymbolTableRecord
100
AcDbLinetypeTableRecord
  2
PHANTOM
 70
     0
  3
Phantom ______  __  __  ______  __  __  ______ 
 72
    65
 73
     6
 40
2.5
 49
1.25
 74
     0
 49
-0.25
 74
     0
 49
0.25
 74
     0
 49
-0.25
 74
     0
 49
0.25
 74
     0
 49
-0.25
 74
     0
  0
LTYPE
  5
3C8
330
386
100
AcDbSymbolTableRecord
100
AcDbLinetypeTableRecord
  2
PHANTOM2
 70
     0
  3
Phantom2 ___ _ _ ___ _ _ ___ _ _ ___ _ _
 72
    65
 73
     6
 40
1.25
 49
0.625
 74
     0
 49
-0.125
 74
     0
 49
0.125
 74
     0
 49
-0.125
 74
     0
 49
0.125
 74
     0
 49
-0.125
 74
     0
  0
LTYPE
  5
3C9
330
386
100
AcDbSymbolTableRecord
100
AcDbLinetypeTableRecord
  2
PHANTOMX2
 70
     0
  3
Phantomx2 ____________    ____    ____   _
 72
    65
 73
     6
 40
5.0
 49
2.5
 74
     0
 49
-0.5
 74
     0
 49
0.5
 74
     0
 49
-0.5
 74
     0
 49
0.5
 74
     0
 49
-0.5
 74
     0
  0
ENDTAB
  0
TABLE
  2
LAYER
  5
383
330
0
100
AcDbSymbolTable
 70
     4
  0
LAYER
  5
391
330
383
100
AcDbSymbolTableRecord
100
AcDbLayerTableRecord
  2
0
 70
     0
 62
    90
  6
Continuous
370
     0
390
390
  0
LAYER
  5
2B
330
383
100
AcDbSymbolTableRecord
100
AcDbLayerTableRecord
  2
koty
 70
     0
 62
    41
  6
Continuous
370
     0
390
390
  0
LAYER
  5
2C
330
383
100
AcDbSymbolTableRecord
100
AcDbLayerTableRecord
  2
popis
 70
     0
 62
   210
  6
Continuous
370
     0
390
390
  0
LAYER
  5
171
330
383
100
AcDbSymbolTableRecord
100
AcDbLayerTableRecord
  2
Defpoints
 70
     0
 62
     7
  6
Continuous
290
     0
370
     0
390
390
  0
ENDTAB
  0
TABLE
  2
STYLE
  5
384
330
0
100
AcDbSymbolTable
 70
     2
  0
STYLE
  5
392
330
384
100
AcDbSymbolTableRecord
100
AcDbTextStyleTableRecord
  2
Standard
 70
     0
 40
0.0
 41
1.0
 50
0.0
 71
     0
 42
0.2
  3
txt.shx
  4

1001
ACAD
1000
txt.shx
1071
        0
  0
STYLE
  5
25E
330
384
100
AcDbSymbolTableRecord
100
AcDbTextStyleTableRecord
  2
Proxy_25D
 70
     0
 40
20.0
 41
1.0
 50
0.0
 71
     0
 42
0.2
  3
txt.shx
  4

1001
ACAD
1000
txt.shx
1071
        0
  0
ENDTAB
  0
TABLE
  2
VIEW
  5
387
330
0
100
AcDbSymbolTable
 70
     0
  0
ENDTAB
  0
TABLE
  2
UCS
  5
388
330
0
100
AcDbSymbolTable
 70
     0
  0
ENDTAB
  0
TABLE
  2
APPID
  5
38A
330
0
100
AcDbSymbolTable
 70
     6
  0
APPID
  5
393
330
38A
100
AcDbSymbolTableRecord
100
AcDbRegAppTableRecord
  2
ACAD
 70
     0
  0
APPID
  5
3AB
330
38A
100
AcDbSymbolTableRecord
100
AcDbRegAppTableRecord
  2
VD_INVISIBLE_NOT_FOR_READ
 70
     0
  0
APPID
  5
3AC
330
38A
100
AcDbSymbolTableRecord
100
AcDbRegAppTableRecord
  2
VD_TEMPHATCH
 70
     0
  0
APPID
  5
3AD
330
38A
100
AcDbSymbolTableRecord
100
AcDbRegAppTableRecord
  2
VDEXTRAPARAM
 70
     0
  0
APPID
  5
3AE
330
38A
100
AcDbSymbolTableRecord
100
AcDbRegAppTableRecord
  2
PE_URL
 70
     0
  0
APPID
  5
3AF
330
38A
100
AcDbSymbolTableRecord
100
AcDbRegAppTableRecord
  2
VD_UNKNOWN
 70
     0
  0
ENDTAB
  0
TABLE
  2
DIMSTYLE
  5
38B
330
0
100
AcDbSymbolTable
 70
     2
100
AcDbDimStyleTable
  0
DIMSTYLE
105
3A8
330
38B
100
AcDbSymbolTableRecord
100
AcDbDimStyleTableRecord
  2
STANDARD
 70
     0
 41
0.2
 42
0.05
 44
0.2
 73
     0
 74
     0
140
0.2
172
     1
174
     1
177
   256
178
   256
288
     1
340
392
342
261
  0
DIMSTYLE
105
27
102
{ACAD_REACTORS
330
19D
330
1B3
330
1FB
330
21B
330
233
102
}
330
38B
100
AcDbSymbolTableRecord
100
AcDbDimStyleTableRecord
  2
ISO-25
 70
     0
 40
10.0
 41
2.0
 42
0.625
 44
1.25
 73
     0
 74
     0
 77
     1
140
2.0
147
0.625
172
     1
174
     1
178
   256
271
     0
288
     1
340
392
342
261
  0
ENDTAB
  0
TABLE
  2
BLOCK_RECORD
  5
382
330
0
100
AcDbSymbolTable
 70
     8
  0
BLOCK_RECORD
  5
3A0
330
382
100
AcDbSymbolTableRecord
100
AcDbBlockTableRecord
  2
*Model_Space
340
3A3
  0
BLOCK_RECORD
  5
39C
330
382
100
AcDbSymbolTableRecord
100
AcDbBlockTableRecord
  2
*Paper_Space
340
39F
  0
BLOCK_RECORD
  5
3A4
330
382
100
AcDbSymbolTableRecord
100
AcDbBlockTableRecord
  2
*Paper_Space0
340
3A7
  0
BLOCK_RECORD
  5
261
330
382
100
AcDbSymbolTableRecord
100
AcDbBlockTableRecord
  2
VDDIM_DEFAULT
340
0
102
{BLKREFS
331
3D4
331
3D3
331
3DF
331
3DE
331
3EB
331
3EA
331
3F7
331
3F6
331
403
331
402
102
}
  0
BLOCK_RECORD
  5
263
330
382
100
AcDbSymbolTableRecord
100
AcDbBlockTableRecord
  2
VDDIM_NONE
340
0
  0
BLOCK_RECORD
  5
3CF
330
382
100
AcDbSymbolTableRecord
100
AcDbBlockTableRecord
  2
*D3
340
0
  0
BLOCK_RECORD
  5
3DA
330
382
100
AcDbSymbolTableRecord
100
AcDbBlockTableRecord
  2
*D4
340
0
  0
BLOCK_RECORD
  5
3E6
330
382
100
AcDbSymbolTableRecord
100
AcDbBlockTableRecord
  2
*D5
340
0
  0
BLOCK_RECORD
  5
3F2
330
382
100
AcDbSymbolTableRecord
100
AcDbBlockTableRecord
  2
*D6
340
0
  0
BLOCK_RECORD
  5
3FE
330
382
100
AcDbSymbolTableRecord
100
AcDbBlockTableRecord
  2
*D7
340
0
  0
ENDTAB
  0
ENDSEC
  0
SECTION
  2
BLOCKS
  0
BLOCK
  5
3A1
330
3A0
100
AcDbEntity
  8
0
100
AcDbBlockBegin
  2
*Model_Space
 70
     0
 71
     0
 10
0.0
 20
0.0
 30
0.0
  3
*Model_Space
  1

  0
ENDBLK
  5
3A2
330
3A0
100
AcDbEntity
  8
0
100
AcDbBlockEnd
  0
BLOCK
  5
39D
330
39C
100
AcDbEntity
 67
     1
  8
0
100
AcDbBlockBegin
  2
*Paper_Space
 70
     0
 71
     0
 10
0.0
 20
0.0
 30
0.0
  3
*Paper_Space
  1

  0
ENDBLK
  5
39E
330
39C
100
AcDbEntity
 67
     1
  8
0
100
AcDbBlockEnd
  0
BLOCK
  5
3A5
330
3A4
100
AcDbEntity
  8
0
100
AcDbBlockBegin
  2
*Paper_Space0
 70
     0
 71
     0
 10
0.0
 20
0.0
 30
0.0
  3
*Paper_Space0
  1

  0
VIEWPORT
  5
40D
330
3A4
100
AcDbEntity
  8
0
 60
     1
100
AcDbViewport
 10
0.0
 20
0.0
 30
0.0
 40
10.0
 41
10.0
 69
     1
 12
0.0
 22
0.0
 13
0.0
 23
0.0
 14
1.0
 24
1.0
 15
0.0
 25
0.0
 16
0.0
 26
0.0
 36
1.0
 17
0.0
 27
0.0
 37
0.0
 42
0.0
 43
0.0
 44
0.0
 45
10.0
 50
0.0
 51
0.0000000000007958
 72
   100
 90
   163872
  1

281
     0
 71
     0
 74
     0
110
0.0
120
0.0
130
0.0
111
1.0
121
0.0
131
0.0
112
0.0
122
1.0
132
0.0
 79
     0
146
0.0
1001
VD_INVISIBLE_NOT_FOR_READ
1000
VD_INVISIBLE_NOT_FOR_READ
  0
VIEWPORT
  5
40E
330
3A4
100
AcDbEntity
  8
0
 60
     1
100
AcDbViewport
 10
0.0
 20
0.0
 30
0.0
 40
10.0
 41
10.0
 69
     2
 12
0.0
 22
0.0
 13
0.0
 23
0.0
 14
1.0
 24
1.0
 15
0.0
 25
0.0
 16
0.0
 26
0.0
 36
1.0
 17
0.0
 27
0.0
 37
0.0
 42
0.0
 43
0.0
 44
0.0
 45
10.0
 50
0.0
 51
0.0000000000007958
 72
   100
 90
   163872
  1

281
     0
 71
     0
 74
     0
110
0.0
120
0.0
130
0.0
111
1.0
121
0.0
131
0.0
112
0.0
122
1.0
132
0.0
 79
     0
146
0.0
1001
VD_INVISIBLE_NOT_FOR_READ
1000
VD_INVISIBLE_NOT_FOR_READ
  0
ENDBLK
  5
3A6
330
3A4
100
AcDbEntity
  8
0
100
AcDbBlockEnd
  0
BLOCK
  5
3CA
330
261
100
AcDbEntity
  8
0
100
AcDbBlockBegin
  2
VDDIM_DEFAULT
 70
     0
 71
     0
 10
0.0
 20
0.0
 30
0.0
  3
VDDIM_DEFAULT
  1

  0
LWPOLYLINE
  5
262
330
261
100
AcDbEntity
  8
0
  6
Continuous
 62
     0
100
AcDbPolyline
 90
        4
 70
     0
 43
0.0
 10
0.0
 20
0.0
 10
-1.0
 20
-0.1665
 10
-1.0
 20
0.1665
 10
0.0
 20
0.0
1001
VDEXTRAPARAM
1071
        1
1071
        0
1071
        0
1040
1.0
1000

1000

1040
0.0
1040
0.0
  0
HATCH
  5
3CE
330
261
100
AcDbEntity
  8
0
  6
Continuous
 62
     0
100
AcDbHatch
 10
0.0
 20
0.0
 30
0.0
210
0.0
220
0.0
230
1.0
  2
SOLID
 70
     1
 71
     0
 91
        1
 92
        2
 72
     0
 73
     1
 93
        3
 10
0.0
 20
0.0
 10
-1.0
 20
-0.1665
 10
-1.0
 20
0.1665
 97
        0
 75
     0
 76
     1
 98
        1
 10
0.0
 20
0.0
1001
VDEXTRAPARAM
1071
        1
1071
        0
1071
        0
1040
1.0
1000

1000

1040
0.0
1040
0.0
1001
VD_TEMPHATCH
1000
VD_TEMPHATCH
  0
ENDBLK
  5
3CB
330
261
100
AcDbEntity
  8
0
100
AcDbBlockEnd
  0
BLOCK
  5
3CC
330
263
100
AcDbEntity
  8
0
100
AcDbBlockBegin
  2
VDDIM_NONE
 70
     0
 71
     0
 10
0.0
 20
0.0
 30
0.0
  3
VDDIM_NONE
  1

  0
ENDBLK
  5
3CD
330
263
100
AcDbEntity
  8
0
100
AcDbBlockEnd
  0
BLOCK
  5
3D8
330
3CF
100
AcDbEntity
  8
0
100
AcDbBlockBegin
  2
*D3
 70
     1
 71
     0
 10
0.0
 20
0.0
 30
0.0
  3
*D3
  1

  0
LINE
  5
3D0
330
3CF
100
AcDbEntity
  8
koty
 62
     0
370
    -2
100
AcDbLine
 10
314.1522724921268
 20
377.0280171503956
 30
0.0
 11
307.6641772540258
 21
377.0280171503956
 31
0.0
  0
LINE
  5
3D1
330
3CF
100
AcDbEntity
  8
koty
 62
     0
370
    -2
100
AcDbLine
 10
257.6641772540258
 20
377.0280171503956
 30
0.0
 11
237.6641772540258
 21
377.0280171503956
 31
0.0
  0
MTEXT
  5
3D2
330
3CF
100
AcDbEntity
  8
koty
100
AcDbMText
 10
282.6641772540315
 20
402.9491642872017
 30
0.0
 40
20.0
 41
0.0
 71
     5
 72
     1
  1
\A1;\U+220510
 73
     1
 44
1.0
  0
INSERT
  5
3D3
330
3CF
100
AcDbEntity
  8
koty
 62
     0
370
    -2
100
AcDbBlockReference
  2
VDDIM_DEFAULT
 10
287.6641772540258
 20
377.0280171503956
 30
0.0
 41
20.0
 42
20.0
 43
20.0
 50
180.0
  0
INSERT
  5
3D4
330
3CF
100
AcDbEntity
  8
koty
 62
     0
370
    -2
100
AcDbBlockReference
  2
VDDIM_DEFAULT
 10
277.6641772540258
 20
377.0280171503956
 30
0.0
 41
20.0
 42
20.0
 43
20.0
  0
LINE
  5
3D5
330
3CF
100
AcDbEntity
  8
koty
 62
     0
370
    -2
100
AcDbLine
 10
277.6641772540258
 20
377.0280171503956
 30
0.0
 11
287.6641772540258
 21
377.0280171503956
 31
0.0
  0
POINT
  5
3D6
330
3CF
100
AcDbEntity
  8
Defpoints
 62
     0
100
AcDbPoint
 10
287.6641772540258
 20
377.0280171503956
 30
0.0
  0
POINT
  5
3D7
330
3CF
100
AcDbEntity
  8
Defpoints
 62
     0
100
AcDbPoint
 10
277.6641772540258
 20
377.0280171503956
 30
0.0
  0
ENDBLK
  5
3D9
330
3CF
100
AcDbEntity
  8
0
100
AcDbBlockEnd
  0
BLOCK
  5
3E4
330
3DA
100
AcDbEntity
  8
0
100
AcDbBlockBegin
  2
*D4
 70
     1
 71
     0
 10
0.0
 20
0.0
 30
0.0
  3
*D4
  1

  0
LINE
  5
3DB
330
3DA
100
AcDbEntity
  8
koty
 62
     0
370
    -2
100
AcDbLine
 10
-154.5334311999479
 20
394.5280171503955
 30
0.0
 11
-338.7849692811323
 21
394.5280171503955
 31
0.0
  0
LINE
  5
3DC
330
3DA
100
AcDbEntity
  8
koty
 62
     0
370
    -2
100
AcDbLine
 10
-154.5334311999478
 20
67.52801715039573
 30
0.0
 11
-338.7849692811324
 21
67.52801715039574
 31
0.0
  0
LINE
  5
3DD
330
3DA
100
AcDbEntity
  8
koty
 62
     0
370
    -2
100
AcDbLine
 10
-326.2849692811324
 20
374.5280171503954
 30
0.0
 11
-326.2849692811324
 21
87.52801715039567
 31
0.0
  0
INSERT
  5
3DE
330
3DA
100
AcDbEntity
  8
koty
 62
     0
370
    -2
100
AcDbBlockReference
  2
VDDIM_DEFAULT
 10
-326.2849692811324
 20
394.5280171503954
 30
0.0
 41
20.0
 42
20.0
 43
20.0
 50
90.0
  0
INSERT
  5
3DF
330
3DA
100
AcDbEntity
  8
koty
 62
     0
370
    -2
100
AcDbBlockReference
  2
VDDIM_DEFAULT
 10
-326.2849692811324
 20
67.52801715039567
 30
0.0
 41
20.0
 42
20.0
 43
20.0
 50
270.0
  0
MTEXT
  5
3E0
330
3DA
100
AcDbEntity
  8
koty
100
AcDbMText
 10
-342.5349692811324
 20
231.0280171503956
 30
0.0
 40
20.0
 41
0.0
 71
     5
 72
     1
  1
\A1;327
 11
1.738330852012479E-16
 21
1.0
 31
0.0
 73
     1
 44
1.0
  0
POINT
  5
3E1
330
3DA
100
AcDbEntity
  8
Defpoints
 62
     0
100
AcDbPoint
 10
-148.2834311999479
 20
394.5280171503955
 30
0.0
  0
POINT
  5
3E2
330
3DA
100
AcDbEntity
  8
Defpoints
 62
     0
100
AcDbPoint
 10
-148.2834311999478
 20
67.52801715039573
 30
0.0
  0
POINT
  5
3E3
330
3DA
100
AcDbEntity
  8
Defpoints
 62
     0
100
AcDbPoint
 10
-326.2849692811324
 20
67.52801715039574
 30
0.0
  0
ENDBLK
  5
3E5
330
3DA
100
AcDbEntity
  8
0
100
AcDbBlockEnd
  0
BLOCK
  5
3F0
330
3E6
100
AcDbEntity
  8
0
100
AcDbBlockBegin
  2
*D5
 70
     1
 71
     0
 10
0.0
 20
0.0
 30
0.0
  3
*D5
  1

  0
LINE
  5
3E7
330
3E6
100
AcDbEntity
  8
koty
 62
     0
370
    -2
100
AcDbLine
 10
-154.5334311999479
 20
356.0280171503956
 30
0.0
 11
-215.7599414751967
 21
356.0280171503956
 31
0.0
  0
LINE
  5
3E8
330
3E6
100
AcDbEntity
  8
koty
 62
     0
370
    -2
100
AcDbLine
 10
-154.5334311999479
 20
106.0280171503956
 30
0.0
 11
-215.7599414751967
 21
106.0280171503956
 31
0.0
  0
LINE
  5
3E9
330
3E6
100
AcDbEntity
  8
koty
 62
     0
370
    -2
100
AcDbLine
 10
-203.2599414751967
 20
336.0280171503956
 30
0.0
 11
-203.2599414751967
 21
126.0280171503956
 31
0.0
  0
INSERT
  5
3EA
330
3E6
100
AcDbEntity
  8
koty
 62
     0
370
    -2
100
AcDbBlockReference
  2
VDDIM_DEFAULT
 10
-203.2599414751967
 20
356.0280171503956
 30
0.0
 41
20.0
 42
20.0
 43
20.0
 50
90.0
  0
INSERT
  5
3EB
330
3E6
100
AcDbEntity
  8
koty
 62
     0
370
    -2
100
AcDbBlockReference
  2
VDDIM_DEFAULT
 10
-203.2599414751967
 20
106.0280171503956
 30
0.0
 41
20.0
 42
20.0
 43
20.0
 50
270.0
  0
MTEXT
  5
3EC
330
3E6
100
AcDbEntity
  8
koty
100
AcDbMText
 10
-219.5099414751967
 20
231.0280171503956
 30
0.0
 40
20.0
 41
0.0
 71
     5
 72
     1
  1
\A1;250
 11
1.136868377216160E-16
 21
1.0
 31
0.0
 73
     1
 44
1.0
  0
POINT
  5
3ED
330
3E6
100
AcDbEntity
  8
Defpoints
 62
     0
100
AcDbPoint
 10
-148.2834311999479
 20
356.0280171503956
 30
0.0
  0
POINT
  5
3EE
330
3E6
100
AcDbEntity
  8
Defpoints
 62
     0
100
AcDbPoint
 10
-148.2834311999479
 20
106.0280171503956
 30
0.0
  0
POINT
  5
3EF
330
3E6
100
AcDbEntity
  8
Defpoints
 62
     0
100
AcDbPoint
 10
-203.2599414751967
 20
106.0280171503956
 30
0.0
  0
ENDBLK
  5
3F1
330
3E6
100
AcDbEntity
  8
0
100
AcDbBlockEnd
  0
BLOCK
  5
3FC
330
3F2
100
AcDbEntity
  8
0
100
AcDbBlockBegin
  2
*D6
 70
     1
 71
     0
 10
0.0
 20
0.0
 30
0.0
  3
*D6
  1

  0
LINE
  5
3F3
330
3F2
100
AcDbEntity
  8
koty
 62
     0
370
    -2
100
AcDbLine
 10
-154.5334311999479
 20
377.0280171503956
 30
0.0
 11
-277.2948134258913
 21
377.0280171503957
 31
0.0
  0
LINE
  5
3F4
330
3F2
100
AcDbEntity
  8
koty
 62
     0
370
    -2
100
AcDbLine
 10
-154.5334311999478
 20
85.02801715039561
 30
0.0
 11
-277.2948134258913
 21
85.02801715039563
 31
0.0
  0
LINE
  5
3F5
330
3F2
100
AcDbEntity
  8
koty
 62
     0
370
    -2
100
AcDbLine
 10
-264.7948134258913
 20
357.0280171503957
 30
0.0
 11
-264.7948134258913
 21
105.0280171503956
 31
0.0
  0
INSERT
  5
3F6
330
3F2
100
AcDbEntity
  8
koty
 62
     0
370
    -2
100
AcDbBlockReference
  2
VDDIM_DEFAULT
 10
-264.7948134258913
 20
377.0280171503957
 30
0.0
 41
20.0
 42
20.0
 43
20.0
 50
89.99999999999999
  0
INSERT
  5
3F7
330
3F2
100
AcDbEntity
  8
koty
 62
     0
370
    -2
100
AcDbBlockReference
  2
VDDIM_DEFAULT
 10
-264.7948134258913
 20
85.02801715039561
 30
0.0
 41
20.0
 42
20.0
 43
20.0
 50
270.0
  0
MTEXT
  5
3F8
330
3F2
100
AcDbEntity
  8
koty
100
AcDbMText
 10
-281.0448134258913
 20
231.0280171503957
 30
0.0
 40
20.0
 41
0.0
 71
     5
 72
     1
  1
\A1;292
 11
1.946692426740000E-16
 21
1.0
 31
0.0
 73
     1
 44
1.0
  0
POINT
  5
3F9
330
3F2
100
AcDbEntity
  8
Defpoints
 62
     0
100
AcDbPoint
 10
-148.2834311999479
 20
377.0280171503956
 30
0.0
  0
POINT
  5
3FA
330
3F2
100
AcDbEntity
  8
Defpoints
 62
     0
100
AcDbPoint
 10
-148.2834311999478
 20
85.02801715039561
 30
0.0
  0
POINT
  5
3FB
330
3F2
100
AcDbEntity
  8
Defpoints
 62
     0
100
AcDbPoint
 10
-264.7948134258913
 20
85.02801715039563
 30
0.0
  0
ENDBLK
  5
3FD
330
3F2
100
AcDbEntity
  8
0
100
AcDbBlockEnd
  0
BLOCK
  5
408
330
3FE
100
AcDbEntity
  8
0
100
AcDbBlockBegin
  2
*D7
 70
     1
 71
     0
 10
0.0
 20
0.0
 30
0.0
  3
*D7
  1

  0
LINE
  5
3FF
330
3FE
100
AcDbEntity
  8
koty
 62
     0
370
    -2
100
AcDbLine
 10
-148.2834311999478
 20
61.27801715039573
 30
0.0
 11
-148.2834311999478
 21
5.837487431843456
 31
0.0
  0
LINE
  5
400
330
3FE
100
AcDbEntity
  8
koty
 62
     0
370
    -2
100
AcDbLine
 10
21.7165688000521
 20
61.27801715039566
 30
0.0
 11
21.7165688000521
 21
5.837487431843442
 31
0.0
  0
LINE
  5
401
330
3FE
100
AcDbEntity
  8
koty
 62
     0
370
    -2
100
AcDbLine
 10
-128.2834311999478
 20
18.33748743184345
 30
0.0
 11
1.716568800052102
 21
18.33748743184344
 31
0.0
  0
INSERT
  5
402
330
3FE
100
AcDbEntity
  8
koty
 62
     0
370
    -2
100
AcDbBlockReference
  2
VDDIM_DEFAULT
 10
-148.2834311999478
 20
18.33748743184345
 30
0.0
 41
20.0
 42
20.0
 43
20.0
 50
180.0
  0
INSERT
  5
403
330
3FE
100
AcDbEntity
  8
koty
 62
     0
370
    -2
100
AcDbBlockReference
  2
VDDIM_DEFAULT
 10
21.7165688000521
 20
18.33748743184344
 30
0.0
 41
20.0
 42
20.0
 43
20.0
 50
360.0
  0
MTEXT
  5
404
330
3FE
100
AcDbEntity
  8
koty
100
AcDbMText
 10
-63.28343119994786
 20
34.58748743184344
 30
0.0
 40
20.0
 41
0.0
 71
     5
 72
     1
  1
\A1;170
 73
     1
 44
1.0
  0
POINT
  5
405
330
3FE
100
AcDbEntity
  8
Defpoints
 62
     0
100
AcDbPoint
 10
-148.2834311999478
 20
67.52801715039573
 30
0.0
  0
POINT
  5
406
330
3FE
100
AcDbEntity
  8
Defpoints
 62
     0
100
AcDbPoint
 10
21.7165688000521
 20
67.52801715039566
 30
0.0
  0
POINT
  5
407
330
3FE
100
AcDbEntity
  8
Defpoints
 62
     0
100
AcDbPoint
 10
21.7165688000521
 20
18.33748743184344
 30
0.0
  0
ENDBLK
  5
409
330
3FE
100
AcDbEntity
  8
0
100
AcDbBlockEnd
  0
ENDSEC
  0
SECTION
  2
ENTITIES
  0
CIRCLE
  5
34
330
3A0
100
AcDbEntity
  8
0
100
AcDbCircle
 10
282.6641772540258
 20
231.0280171503956
 30
0.0
 40
163.4999999999999
  0
CIRCLE
  5
35
330
3A0
100
AcDbEntity
  8
0
100
AcDbCircle
 10
282.6641772540258
 20
231.0280171503956
 30
0.0
 40
125.0
  0
CIRCLE
  5
38
330
3A0
100
AcDbEntity
  8
0
100
AcDbCircle
 10
282.6641772540258
 20
377.0280171503956
 30
0.0
 40
5.0
  0
CIRCLE
  5
39
330
3A0
100
AcDbEntity
  8
0
100
AcDbCircle
 10
209.6641772540258
 20
357.4677261029236
 30
0.0
 40
5.0
  0
CIRCLE
  5
3A
330
3A0
100
AcDbEntity
  8
0
100
AcDbCircle
 10
156.2244683014978
 20
304.0280171503956
 30
0.0
 40
5.0
  0
CIRCLE
  5
3B
330
3A0
100
AcDbEntity
  8
0
100
AcDbCircle
 10
136.6641772540258
 20
231.0280171503956
 30
0.0
 40
5.0
  0
CIRCLE
  5
3C
330
3A0
100
AcDbEntity
  8
0
100
AcDbCircle
 10
156.2244683014978
 20
158.0280171503957
 30
0.0
 40
5.0
  0
CIRCLE
  5
3D
330
3A0
100
AcDbEntity
  8
0
100
AcDbCircle
 10
209.6641772540258
 20
104.5883081978676
 30
0.0
 40
5.0
  0
CIRCLE
  5
3E
330
3A0
100
AcDbEntity
  8
0
100
AcDbCircle
 10
282.6641772540257
 20
85.02801715039561
 30
0.0
 40
5.0
  0
CIRCLE
  5
3F
330
3A0
100
AcDbEntity
  8
0
100
AcDbCircle
 10
355.6641772540257
 20
104.5883081978674
 30
0.0
 40
5.0
  0
CIRCLE
  5
40
330
3A0
100
AcDbEntity
  8
0
100
AcDbCircle
 10
409.1038862065537
 20
158.0280171503954
 30
0.0
 40
5.0
  0
CIRCLE
  5
41
330
3A0
100
AcDbEntity
  8
0
100
AcDbCircle
 10
428.6641772540258
 20
231.0280171503956
 30
0.0
 40
5.0
  0
CIRCLE
  5
42
330
3A0
100
AcDbEntity
  8
0
100
AcDbCircle
 10
409.1038862065539
 20
304.0280171503956
 30
0.0
 40
5.0
  0
CIRCLE
  5
43
330
3A0
100
AcDbEntity
  8
0
100
AcDbCircle
 10
355.6641772540257
 20
357.4677261029237
 30
0.0
 40
5.0
  0
CIRCLE
  5
47
330
3A0
100
AcDbEntity
  8
0
100
AcDbCircle
 10
282.6641772540258
 20
231.0280171503956
 30
0.0
 40
50.0
  0
CIRCLE
  5
4A
330
3A0
100
AcDbEntity
  8
0
100
AcDbCircle
 10
282.6641772540258
 20
231.0280171503956
 30
0.0
 40
33.0
  0
CIRCLE
  5
4D
330
3A0
100
AcDbEntity
  8
0
100
AcDbCircle
 10
282.6641772540258
 20
231.0280171503956
 30
0.0
 40
75.0
  0
CIRCLE
  5
4E
330
3A0
100
AcDbEntity
  8
0
100
AcDbCircle
 10
282.6641772540258
 20
231.0280171503956
 30
0.0
 40
100.0
  0
LINE
  5
4F
330
3A0
100
AcDbEntity
  8
0
100
AcDbLine
 10
281.6592353538289
 20
264.0127119614323
 30
0.0
 11
281.6592353538289
 21
273.3507777089657
 31
0.0
  0
LINE
  5
50
330
3A0
100
AcDbEntity
  8
0
100
AcDbLine
 10
281.6592353538289
 20
273.3507777089657
 30
0.0
 11
282.6641772540258
 21
273.3507777089657
 31
0.0
  0
LINE
  5
51
330
3A0
100
AcDbEntity
  8
0
100
AcDbLine
 10
283.6691191542227
 20
264.0127119614323
 30
0.0
 11
283.6691191542227
 21
273.3507777089657
 31
0.0
  0
LINE
  5
52
330
3A0
100
AcDbEntity
  8
0
100
AcDbLine
 10
283.6691191542227
 20
273.3507777089657
 30
0.0
 11
282.6641772540258
 21
273.3507777089657
 31
0.0
  0
LINE
  5
53
330
3A0
100
AcDbEntity
  8
0
100
AcDbLine
 10
275.2435502983634
 20
263.1828658607362
 30
0.0
 11
273.4217840446693
 21
272.3415032933546
 31
0.0
  0
LINE
  5
54
330
3A0
100
AcDbEntity
  8
0
100
AcDbLine
 10
277.2148147451105
 20
263.57497473857
 30
0.0
 11
275.3930484914164
 21
272.7336121711885
 31
0.0
  0
LINE
  5
55
330
3A0
100
AcDbEntity
  8
0
100
AcDbLine
 10
275.3930484914164
 20
272.7336121711885
 30
0.0
 11
274.4074162680429
 21
272.5375577322715
 31
0.0
  0
LINE
  5
56
330
3A0
100
AcDbEntity
  8
0
100
AcDbLine
 10
273.4217840446693
 20
272.3415032933546
 30
0.0
 11
274.4074162680429
 21
272.5375577322715
 31
0.0
  0
LINE
  5
57
330
3A0
100
AcDbEntity
  8
0
100
AcDbLine
 10
269.1130357752685
 20
261.1173269567487
 30
0.0
 11
265.5395127233514
 21
269.7445747741396
 31
0.0
  0
LINE
  5
58
330
3A0
100
AcDbEntity
  8
0
100
AcDbLine
 10
270.9699262811782
 20
261.8864761881384
 30
0.0
 11
267.3964032292612
 21
270.5137240055293
 31
0.0
  0
LINE
  5
59
330
3A0
100
AcDbEntity
  8
0
100
AcDbLine
 10
267.3964032292612
 20
270.5137240055293
 30
0.0
 11
266.4679579763063
 21
270.1291493898345
 31
0.0
  0
LINE
  5
5A
330
3A0
100
AcDbEntity
  8
0
100
AcDbLine
 10
265.5395127233514
 20
269.7445747741396
 30
0.0
 11
266.4679579763063
 21
270.1291493898345
 31
0.0
  0
LINE
  5
5B
330
3A0
100
AcDbEntity
  8
0
100
AcDbLine
 10
263.5032840196344
 20
257.8954727511825
 30
0.0
 11
258.3153326563249
 21
265.6597906579398
 31
0.0
  0
LINE
  5
5C
330
3A0
100
AcDbEntity
  8
0
100
AcDbLine
 10
265.1744413239209
 20
259.0121043625095
 30
0.0
 11
259.9864899606113
 21
266.7764222692669
 31
0.0
  0
LINE
  5
5D
330
3A0
100
AcDbEntity
  8
0
100
AcDbLine
 10
259.9864899606113
 20
266.7764222692669
 30
0.0
 11
259.1509113084681
 21
266.2181064636033
 31
0.0
  0
LINE
  5
5E
330
3A0
100
AcDbEntity
  8
0
100
AcDbLine
 10
258.3153326563249
 20
265.6597906579398
 30
0.0
 11
259.1509113084681
 21
266.2181064636033
 31
0.0
  0
LINE
  5
5F
330
3A0
100
AcDbEntity
  8
0
100
AcDbLine
 10
258.6298746454454
 20
253.6411172943206
 30
0.0
 11
252.0268650321986
 21
260.2441269075674
 31
0.0
  0
LINE
  5
60
330
3A0
100
AcDbEntity
  8
0
100
AcDbLine
 10
260.0510771101007
 20
255.062319758976
 30
0.0
 11
253.448067496854
 21
261.6653293722228
 31
0.0
  0
LINE
  5
61
330
3A0
100
AcDbEntity
  8
0
100
AcDbLine
 10
253.448067496854
 20
261.6653293722228
 30
0.0
 11
252.7374662645263
 21
260.9547281398951
 31
0.0
  0
LINE
  5
62
330
3A0
100
AcDbEntity
  8
0
100
AcDbLine
 10
252.0268650321986
 20
260.2441269075674
 30
0.0
 11
252.7374662645263
 21
260.9547281398951
 31
0.0
  0
LINE
  5
63
330
3A0
100
AcDbEntity
  8
0
100
AcDbLine
 10
254.6800900419118
 20
248.5177530805004
 30
0.0
 11
246.9157721351545
 21
253.7057044438099
 31
0.0
  0
LINE
  5
64
330
3A0
100
AcDbEntity
  8
0
100
AcDbLine
 10
255.7967216532389
 20
250.1889103847869
 30
0.0
 11
248.0324037464815
 21
255.3768617480965
 31
0.0
  0
LINE
  5
65
330
3A0
100
AcDbEntity
  8
0
100
AcDbLine
 10
248.0324037464815
 20
255.3768617480965
 30
0.0
 11
247.474087940818
 21
254.5412830959532
 31
0.0
  0
LINE
  5
66
330
3A0
100
AcDbEntity
  8
0
100
AcDbLine
 10
246.9157721351545
 20
253.7057044438099
 30
0.0
 11
247.474087940818
 21
254.5412830959532
 31
0.0
  0
LINE
  5
67
330
3A0
100
AcDbEntity
  8
0
100
AcDbLine
 10
251.8057182162829
 20
242.7222681232432
 30
0.0
 11
243.178470398892
 21
246.2957911751602
 31
0.0
  0
LINE
  5
68
330
3A0
100
AcDbEntity
  8
0
100
AcDbLine
 10
252.5748674476726
 20
244.5791586291529
 30
0.0
 11
243.9476196302817
 21
248.15268168107
 31
0.0
  0
LINE
  5
69
330
3A0
100
AcDbEntity
  8
0
100
AcDbLine
 10
243.9476196302817
 20
248.15268168107
 30
0.0
 11
243.5630450145868
 21
247.224236428115
 31
0.0
  0
LINE
  5
6A
330
3A0
100
AcDbEntity
  8
0
100
AcDbLine
 10
243.178470398892
 20
246.2957911751602
 30
0.0
 11
243.5630450145868
 21
247.224236428115
 31
0.0
  0
LINE
  5
6B
330
3A0
100
AcDbEntity
  8
0
100
AcDbLine
 10
250.1172196658513
 20
236.4773796593109
 30
0.0
 11
240.9585822332329
 21
238.299145913005
 31
0.0
  0
LINE
  5
6C
330
3A0
100
AcDbEntity
  8
0
100
AcDbLine
 10
250.5093285436851
 20
238.4486441060579
 30
0.0
 11
241.3506911110667
 21
240.270410359752
 31
0.0
  0
LINE
  5
6D
330
3A0
100
AcDbEntity
  8
0
100
AcDbLine
 10
241.3506911110667
 20
240.270410359752
 30
0.0
 11
241.1546366721498
 21
239.2847781363785
 31
0.0
  0
LINE
  5
6E
330
3A0
100
AcDbEntity
  8
0
100
AcDbLine
 10
240.9585822332329
 20
238.299145913005
 30
0.0
 11
241.1546366721498
 21
239.2847781363785
 31
0.0
  0
LINE
  5
6F
330
3A0
100
AcDbEntity
  8
0
100
AcDbLine
 10
249.6794824429891
 20
230.0230752501987
 30
0.0
 11
240.3414166954556
 21
230.0230752501987
 31
0.0
  0
LINE
  5
70
330
3A0
100
AcDbEntity
  8
0
100
AcDbLine
 10
249.6794824429891
 20
232.0329590505924
 30
0.0
 11
240.3414166954556
 21
232.0329590505924
 31
0.0
  0
LINE
  5
71
330
3A0
100
AcDbEntity
  8
0
100
AcDbLine
 10
240.3414166954556
 20
232.0329590505924
 30
0.0
 11
240.3414166954556
 21
231.0280171503956
 31
0.0
  0
LINE
  5
72
330
3A0
100
AcDbEntity
  8
0
100
AcDbLine
 10
240.3414166954556
 20
230.0230752501987
 30
0.0
 11
240.3414166954556
 21
231.0280171503956
 31
0.0
  0
LINE
  5
73
330
3A0
100
AcDbEntity
  8
0
100
AcDbLine
 10
250.5093285436851
 20
223.6073901947331
 30
0.0
 11
241.3506911110667
 21
221.785623941039
 31
0.0
  0
LINE
  5
74
330
3A0
100
AcDbEntity
  8
0
100
AcDbLine
 10
250.1172196658513
 20
225.5786546414802
 30
0.0
 11
240.9585822332329
 21
223.7568883877861
 31
0.0
  0
LINE
  5
75
330
3A0
100
AcDbEntity
  8
0
100
AcDbLine
 10
240.9585822332329
 20
223.7568883877861
 30
0.0
 11
241.1546366721498
 21
222.7712561644126
 31
0.0
  0
LINE
  5
76
330
3A0
100
AcDbEntity
  8
0
100
AcDbLine
 10
241.3506911110667
 20
221.785623941039
 30
0.0
 11
241.1546366721498
 21
222.7712561644126
 31
0.0
  0
LINE
  5
77
330
3A0
100
AcDbEntity
  8
0
100
AcDbLine
 10
252.5748674476725
 20
217.4768756716382
 30
0.0
 11
243.9476196302816
 21
213.9033526197212
 31
0.0
  0
LINE
  5
78
330
3A0
100
AcDbEntity
  8
0
100
AcDbLine
 10
251.8057182162829
 20
219.3337661775479
 30
0.0
 11
243.1784703988919
 21
215.760243125631
 31
0.0
  0
LINE
  5
79
330
3A0
100
AcDbEntity
  8
0
100
AcDbLine
 10
243.1784703988919
 20
215.760243125631
 30
0.0
 11
243.5630450145868
 21
214.8317978726761
 31
0.0
  0
LINE
  5
7A
330
3A0
100
AcDbEntity
  8
0
100
AcDbLine
 10
243.9476196302816
 20
213.9033526197212
 30
0.0
 11
243.5630450145868
 21
214.8317978726761
 31
0.0
  0
LINE
  5
7B
330
3A0
100
AcDbEntity
  8
0
100
AcDbLine
 10
255.7967216532389
 20
211.8671239160042
 30
0.0
 11
248.0324037464815
 21
206.6791725526946
 31
0.0
  0
LINE
  5
7C
330
3A0
100
AcDbEntity
  8
0
100
AcDbLine
 10
254.6800900419118
 20
213.5382812202907
 30
0.0
 11
246.9157721351545
 21
208.3503298569812
 31
0.0
  0
LINE
  5
7D
330
3A0
100
AcDbEntity
  8
0
100
AcDbLine
 10
246.9157721351545
 20
208.3503298569812
 30
0.0
 11
247.474087940818
 21
207.5147512048379
 31
0.0
  0
LINE
  5
7E
330
3A0
100
AcDbEntity
  8
0
100
AcDbLine
 10
248.0324037464815
 20
206.6791725526946
 30
0.0
 11
247.474087940818
 21
207.5147512048379
 31
0.0
  0
LINE
  5
7F
330
3A0
100
AcDbEntity
  8
0
100
AcDbLine
 10
260.0510771101007
 20
206.9937145418151
 30
0.0
 11
253.448067496854
 21
200.3907049285683
 31
0.0
  0
LINE
  5
80
330
3A0
100
AcDbEntity
  8
0
100
AcDbLine
 10
258.6298746454454
 20
208.4149170064705
 30
0.0
 11
252.0268650321986
 21
201.8119073932237
 31
0.0
  0
LINE
  5
81
330
3A0
100
AcDbEntity
  8
0
100
AcDbLine
 10
252.0268650321986
 20
201.8119073932237
 30
0.0
 11
252.7374662645263
 21
201.101306160896
 31
0.0
  0
LINE
  5
82
330
3A0
100
AcDbEntity
  8
0
100
AcDbLine
 10
253.448067496854
 20
200.3907049285683
 30
0.0
 11
252.7374662645263
 21
201.101306160896
 31
0.0
  0
LINE
  5
83
330
3A0
100
AcDbEntity
  8
0
100
AcDbLine
 10
265.1744413239209
 20
203.0439299382815
 30
0.0
 11
259.9864899606114
 21
195.2796120315242
 31
0.0
  0
LINE
  5
84
330
3A0
100
AcDbEntity
  8
0
100
AcDbLine
 10
263.5032840196344
 20
204.1605615496086
 30
0.0
 11
258.3153326563249
 21
196.3962436428512
 31
0.0
  0
LINE
  5
85
330
3A0
100
AcDbEntity
  8
0
100
AcDbLine
 10
258.3153326563249
 20
196.3962436428512
 30
0.0
 11
259.1509113084681
 21
195.8379278371877
 31
0.0
  0
LINE
  5
86
330
3A0
100
AcDbEntity
  8
0
100
AcDbLine
 10
259.9864899606114
 20
195.2796120315242
 30
0.0
 11
259.1509113084681
 21
195.8379278371877
 31
0.0
  0
LINE
  5
87
330
3A0
100
AcDbEntity
  8
0
100
AcDbLine
 10
270.9699262811782
 20
200.1695581126527
 30
0.0
 11
267.3964032292611
 21
191.5423102952618
 31
0.0
  0
LINE
  5
88
330
3A0
100
AcDbEntity
  8
0
100
AcDbLine
 10
269.1130357752685
 20
200.9387073440424
 30
0.0
 11
265.5395127233514
 21
192.3114595266515
 31
0.0
  0
LINE
  5
89
330
3A0
100
AcDbEntity
  8
0
100
AcDbLine
 10
265.5395127233514
 20
192.3114595266515
 30
0.0
 11
266.4679579763063
 21
191.9268849109566
 31
0.0
  0
LINE
  5
8A
330
3A0
100
AcDbEntity
  8
0
100
AcDbLine
 10
267.3964032292611
 20
191.5423102952618
 30
0.0
 11
266.4679579763063
 21
191.9268849109566
 31
0.0
  0
LINE
  5
8B
330
3A0
100
AcDbEntity
  8
0
100
AcDbLine
 10
277.2148147451104
 20
198.481059562221
 30
0.0
 11
275.3930484914163
 21
189.3224221296026
 31
0.0
  0
LINE
  5
8C
330
3A0
100
AcDbEntity
  8
0
100
AcDbLine
 10
275.2435502983634
 20
198.8731684400548
 30
0.0
 11
273.4217840446693
 21
189.7145310074364
 31
0.0
  0
LINE
  5
8D
330
3A0
100
AcDbEntity
  8
0
100
AcDbLine
 10
273.4217840446693
 20
189.7145310074364
 30
0.0
 11
274.4074162680428
 21
189.5184765685195
 31
0.0
  0
LINE
  5
8E
330
3A0
100
AcDbEntity
  8
0
100
AcDbLine
 10
275.3930484914163
 20
189.3224221296026
 30
0.0
 11
274.4074162680428
 21
189.5184765685195
 31
0.0
  0
LINE
  5
8F
330
3A0
100
AcDbEntity
  8
0
100
AcDbLine
 10
283.6691191542226
 20
198.0433223393589
 30
0.0
 11
283.6691191542226
 21
188.7052565918254
 31
0.0
  0
LINE
  5
90
330
3A0
100
AcDbEntity
  8
0
100
AcDbLine
 10
281.6592353538289
 20
198.0433223393589
 30
0.0
 11
281.6592353538289
 21
188.7052565918254
 31
0.0
  0
LINE
  5
91
330
3A0
100
AcDbEntity
  8
0
100
AcDbLine
 10
281.6592353538289
 20
188.7052565918254
 30
0.0
 11
282.6641772540257
 21
188.7052565918254
 31
0.0
  0
LINE
  5
92
330
3A0
100
AcDbEntity
  8
0
100
AcDbLine
 10
283.6691191542226
 20
188.7052565918254
 30
0.0
 11
282.6641772540257
 21
188.7052565918254
 31
0.0
  0
LINE
  5
93
330
3A0
100
AcDbEntity
  8
0
100
AcDbLine
 10
290.0848042096881
 20
198.8731684400549
 30
0.0
 11
291.9065704633822
 21
189.7145310074365
 31
0.0
  0
LINE
  5
94
330
3A0
100
AcDbEntity
  8
0
100
AcDbLine
 10
288.1135397629411
 20
198.481059562221
 30
0.0
 11
289.9353060166351
 21
189.3224221296026
 31
0.0
  0
LINE
  5
95
330
3A0
100
AcDbEntity
  8
0
100
AcDbLine
 10
289.9353060166351
 20
189.3224221296026
 30
0.0
 11
290.9209382400086
 21
189.5184765685195
 31
0.0
  0
LINE
  5
96
330
3A0
100
AcDbEntity
  8
0
100
AcDbLine
 10
291.9065704633822
 20
189.7145310074365
 30
0.0
 11
290.9209382400086
 21
189.5184765685195
 31
0.0
  0
LINE
  5
97
330
3A0
100
AcDbEntity
  8
0
100
AcDbLine
 10
296.2153187327831
 20
200.9387073440423
 30
0.0
 11
299.7888417847001
 21
192.3114595266513
 31
0.0
  0
LINE
  5
98
330
3A0
100
AcDbEntity
  8
0
100
AcDbLine
 10
294.3584282268734
 20
200.1695581126526
 30
0.0
 11
297.9319512787903
 21
191.5423102952617
 31
0.0
  0
LINE
  5
99
330
3A0
100
AcDbEntity
  8
0
100
AcDbLine
 10
297.9319512787903
 20
191.5423102952617
 30
0.0
 11
298.8603965317452
 21
191.9268849109565
 31
0.0
  0
LINE
  5
9A
330
3A0
100
AcDbEntity
  8
0
100
AcDbLine
 10
299.7888417847001
 20
192.3114595266513
 30
0.0
 11
298.8603965317452
 21
191.9268849109565
 31
0.0
  0
LINE
  5
9B
330
3A0
100
AcDbEntity
  8
0
100
AcDbLine
 10
301.8250704884171
 20
204.1605615496086
 30
0.0
 11
307.0130218517267
 21
196.3962436428512
 31
0.0
  0
LINE
  5
9C
330
3A0
100
AcDbEntity
  8
0
100
AcDbLine
 10
300.1539131841306
 20
203.0439299382816
 30
0.0
 11
305.3418645474402
 21
195.2796120315242
 31
0.0
  0
LINE
  5
9D
330
3A0
100
AcDbEntity
  8
0
100
AcDbLine
 10
305.3418645474402
 20
195.2796120315242
 30
0.0
 11
306.1774431995834
 21
195.8379278371877
 31
0.0
  0
LINE
  5
9E
330
3A0
100
AcDbEntity
  8
0
100
AcDbLine
 10
307.0130218517267
 20
196.3962436428512
 30
0.0
 11
306.1774431995834
 21
195.8379278371877
 31
0.0
  0
LINE
  5
9F
330
3A0
100
AcDbEntity
  8
0
100
AcDbLine
 10
306.6984798626062
 20
208.4149170064704
 30
0.0
 11
313.301489475853
 21
201.8119073932236
 31
0.0
  0
LINE
  5
A0
330
3A0
100
AcDbEntity
  8
0
100
AcDbLine
 10
305.2772773979508
 20
206.993714541815
 30
0.0
 11
311.8802870111976
 21
200.3907049285682
 31
0.0
  0
LINE
  5
A1
330
3A0
100
AcDbEntity
  8
0
100
AcDbLine
 10
311.8802870111976
 20
200.3907049285682
 30
0.0
 11
312.5908882435253
 21
201.1013061608959
 31
0.0
  0
LINE
  5
A2
330
3A0
100
AcDbEntity
  8
0
100
AcDbLine
 10
313.301489475853
 20
201.8119073932236
 30
0.0
 11
312.5908882435253
 21
201.1013061608959
 31
0.0
  0
LINE
  5
A3
330
3A0
100
AcDbEntity
  8
0
100
AcDbLine
 10
310.6482644661397
 20
213.5382812202906
 30
0.0
 11
318.412582372897
 21
208.350329856981
 31
0.0
  0
LINE
  5
A4
330
3A0
100
AcDbEntity
  8
0
100
AcDbLine
 10
309.5316328548126
 20
211.867123916004
 30
0.0
 11
317.29595076157
 21
206.6791725526945
 31
0.0
  0
LINE
  5
A5
330
3A0
100
AcDbEntity
  8
0
100
AcDbLine
 10
317.29595076157
 20
206.6791725526945
 30
0.0
 11
317.8542665672336
 21
207.5147512048378
 31
0.0
  0
LINE
  5
A6
330
3A0
100
AcDbEntity
  8
0
100
AcDbLine
 10
318.412582372897
 20
208.350329856981
 30
0.0
 11
317.8542665672336
 21
207.5147512048378
 31
0.0
  0
LINE
  5
A7
330
3A0
100
AcDbEntity
  8
0
100
AcDbLine
 10
313.5226362917686
 20
219.3337661775478
 30
0.0
 11
322.1498841091596
 21
215.7602431256309
 31
0.0
  0
LINE
  5
A8
330
3A0
100
AcDbEntity
  8
0
100
AcDbLine
 10
312.753487060379
 20
217.4768756716381
 30
0.0
 11
321.3807348777699
 21
213.9033526197211
 31
0.0
  0
LINE
  5
A9
330
3A0
100
AcDbEntity
  8
0
100
AcDbLine
 10
321.3807348777699
 20
213.9033526197211
 30
0.0
 11
321.7653094934647
 21
214.831797872676
 31
0.0
  0
LINE
  5
AA
330
3A0
100
AcDbEntity
  8
0
100
AcDbLine
 10
322.1498841091596
 20
215.7602431256309
 30
0.0
 11
321.7653094934647
 21
214.831797872676
 31
0.0
  0
LINE
  5
AB
330
3A0
100
AcDbEntity
  8
0
100
AcDbLine
 10
315.2111348422003
 20
225.5786546414801
 30
0.0
 11
324.3697722748188
 21
223.756888387786
 31
0.0
  0
LINE
  5
AC
330
3A0
100
AcDbEntity
  8
0
100
AcDbLine
 10
314.8190259643665
 20
223.6073901947331
 30
0.0
 11
323.9776633969849
 21
221.785623941039
 31
0.0
  0
LINE
  5
AD
330
3A0
100
AcDbEntity
  8
0
100
AcDbLine
 10
323.9776633969849
 20
221.785623941039
 30
0.0
 11
324.1737178359018
 21
222.7712561644125
 31
0.0
  0
LINE
  5
AE
330
3A0
100
AcDbEntity
  8
0
100
AcDbLine
 10
324.3697722748188
 20
223.756888387786
 30
0.0
 11
324.1737178359018
 21
222.7712561644125
 31
0.0
  0
LINE
  5
AF
330
3A0
100
AcDbEntity
  8
0
100
AcDbLine
 10
315.6488720650624
 20
232.0329590505924
 30
0.0
 11
324.986937812596
 21
232.0329590505924
 31
0.0
  0
LINE
  5
B0
330
3A0
100
AcDbEntity
  8
0
100
AcDbLine
 10
315.6488720650624
 20
230.0230752501986
 30
0.0
 11
324.986937812596
 21
230.0230752501986
 31
0.0
  0
LINE
  5
B1
330
3A0
100
AcDbEntity
  8
0
100
AcDbLine
 10
324.986937812596
 20
230.0230752501986
 30
0.0
 11
324.986937812596
 21
231.0280171503955
 31
0.0
  0
LINE
  5
B2
330
3A0
100
AcDbEntity
  8
0
100
AcDbLine
 10
324.986937812596
 20
232.0329590505924
 30
0.0
 11
324.986937812596
 21
231.0280171503955
 31
0.0
  0
LINE
  5
B3
330
3A0
100
AcDbEntity
  8
0
100
AcDbLine
 10
314.8190259643665
 20
238.4486441060579
 30
0.0
 11
323.9776633969849
 21
240.270410359752
 31
0.0
  0
LINE
  5
B4
330
3A0
100
AcDbEntity
  8
0
100
AcDbLine
 10
315.2111348422003
 20
236.4773796593108
 30
0.0
 11
324.3697722748188
 21
238.2991459130049
 31
0.0
  0
LINE
  5
B5
330
3A0
100
AcDbEntity
  8
0
100
AcDbLine
 10
324.3697722748188
 20
238.2991459130049
 30
0.0
 11
324.1737178359019
 21
239.2847781363784
 31
0.0
  0
LINE
  5
B6
330
3A0
100
AcDbEntity
  8
0
100
AcDbLine
 10
323.9776633969849
 20
240.270410359752
 30
0.0
 11
324.1737178359019
 21
239.2847781363784
 31
0.0
  0
LINE
  5
B7
330
3A0
100
AcDbEntity
  8
0
100
AcDbLine
 10
312.753487060379
 20
244.5791586291529
 30
0.0
 11
321.3807348777699
 21
248.1526816810699
 31
0.0
  0
LINE
  5
B8
330
3A0
100
AcDbEntity
  8
0
100
AcDbLine
 10
313.5226362917687
 20
242.7222681232431
 30
0.0
 11
322.1498841091595
 21
246.2957911751601
 31
0.0
  0
LINE
  5
B9
330
3A0
100
AcDbEntity
  8
0
100
AcDbLine
 10
322.1498841091595
 20
246.2957911751601
 30
0.0
 11
321.7653094934647
 21
247.224236428115
 31
0.0
  0
LINE
  5
BA
330
3A0
100
AcDbEntity
  8
0
100
AcDbLine
 10
321.3807348777699
 20
248.1526816810699
 30
0.0
 11
321.7653094934647
 21
247.224236428115
 31
0.0
  0
LINE
  5
BB
330
3A0
100
AcDbEntity
  8
0
100
AcDbLine
 10
309.5316328548128
 20
250.1889103847869
 30
0.0
 11
317.2959507615701
 21
255.3768617480965
 31
0.0
  0
LINE
  5
BC
330
3A0
100
AcDbEntity
  8
0
100
AcDbLine
 10
310.6482644661398
 20
248.5177530805004
 30
0.0
 11
318.4125823728972
 21
253.7057044438099
 31
0.0
  0
LINE
  5
BD
330
3A0
100
AcDbEntity
  8
0
100
AcDbLine
 10
318.4125823728972
 20
253.7057044438099
 30
0.0
 11
317.8542665672337
 21
254.5412830959532
 31
0.0
  0
LINE
  5
BE
330
3A0
100
AcDbEntity
  8
0
100
AcDbLine
 10
317.2959507615701
 20
255.3768617480965
 30
0.0
 11
317.8542665672337
 21
254.5412830959532
 31
0.0
  0
LINE
  5
BF
330
3A0
100
AcDbEntity
  8
0
100
AcDbLine
 10
305.2772773979508
 20
255.0623197589759
 30
0.0
 11
311.8802870111977
 21
261.6653293722228
 31
0.0
  0
LINE
  5
C0
330
3A0
100
AcDbEntity
  8
0
100
AcDbLine
 10
306.6984798626062
 20
253.6411172943206
 30
0.0
 11
313.3014894758531
 21
260.2441269075674
 31
0.0
  0
LINE
  5
C1
330
3A0
100
AcDbEntity
  8
0
100
AcDbLine
 10
313.3014894758531
 20
260.2441269075674
 30
0.0
 11
312.5908882435254
 21
260.9547281398951
 31
0.0
  0
LINE
  5
C2
330
3A0
100
AcDbEntity
  8
0
100
AcDbLine
 10
311.8802870111977
 20
261.6653293722228
 30
0.0
 11
312.5908882435254
 21
260.9547281398951
 31
0.0
  0
LINE
  5
C3
330
3A0
100
AcDbEntity
  8
0
100
AcDbLine
 10
300.1539131841307
 20
259.0121043625095
 30
0.0
 11
305.3418645474403
 21
266.7764222692669
 31
0.0
  0
LINE
  5
C4
330
3A0
100
AcDbEntity
  8
0
100
AcDbLine
 10
301.8250704884172
 20
257.8954727511825
 30
0.0
 11
307.0130218517268
 21
265.6597906579398
 31
0.0
  0
LINE
  5
C5
330
3A0
100
AcDbEntity
  8
0
100
AcDbLine
 10
307.0130218517268
 20
265.6597906579398
 30
0.0
 11
306.1774431995835
 21
266.2181064636033
 31
0.0
  0
LINE
  5
C6
330
3A0
100
AcDbEntity
  8
0
100
AcDbLine
 10
305.3418645474403
 20
266.7764222692669
 30
0.0
 11
306.1774431995835
 21
266.2181064636033
 31
0.0
  0
LINE
  5
C7
330
3A0
100
AcDbEntity
  8
0
100
AcDbLine
 10
294.3584282268734
 20
261.8864761881384
 30
0.0
 11
297.9319512787904
 21
270.5137240055293
 31
0.0
  0
LINE
  5
C8
330
3A0
100
AcDbEntity
  8
0
100
AcDbLine
 10
296.2153187327832
 20
261.1173269567487
 30
0.0
 11
299.7888417847001
 21
269.7445747741397
 31
0.0
  0
LINE
  5
C9
330
3A0
100
AcDbEntity
  8
0
100
AcDbLine
 10
299.7888417847001
 20
269.7445747741397
 30
0.0
 11
298.8603965317453
 21
270.1291493898345
 31
0.0
  0
LINE
  5
CA
330
3A0
100
AcDbEntity
  8
0
100
AcDbLine
 10
297.9319512787904
 20
270.5137240055293
 30
0.0
 11
298.8603965317453
 21
270.1291493898345
 31
0.0
  0
LINE
  5
CB
330
3A0
100
AcDbEntity
  8
0
100
AcDbLine
 10
288.1135397629411
 20
263.57497473857
 30
0.0
 11
289.9353060166352
 21
272.7336121711885
 31
0.0
  0
LINE
  5
CC
330
3A0
100
AcDbEntity
  8
0
100
AcDbLine
 10
290.0848042096882
 20
263.1828658607362
 30
0.0
 11
291.9065704633823
 21
272.3415032933547
 31
0.0
  0
LINE
  5
CD
330
3A0
100
AcDbEntity
  8
0
100
AcDbLine
 10
291.9065704633823
 20
272.3415032933547
 30
0.0
 11
290.9209382400088
 21
272.5375577322716
 31
0.0
  0
LINE
  5
CE
330
3A0
100
AcDbEntity
  8
0
100
AcDbLine
 10
289.9353060166352
 20
272.7336121711885
 30
0.0
 11
290.9209382400088
 21
272.5375577322716
 31
0.0
  0
ARC
  5
D1
330
3A0
100
AcDbEntity
  8
0
100
AcDbCircle
 10
282.6641772540258
 20
231.0280171503956
 30
0.0
 40
123.5485134337796
100
AcDbArc
 50
77.65081354792798
 51
101.9470383698641
  0
ARC
  5
D2
330
3A0
100
AcDbEntity
  8
0
100
AcDbCircle
 10
129.3443840660676
 20
265.6261723817171
 30
0.0
 40
142.4628829027855
100
AcDbArc
 50
5.65951677806998
 51
25.88226411191485
  0
ARC
  5
D3
330
3A0
100
AcDbEntity
  8
0
100
AcDbCircle
 10
301.4824503879942
 20
340.6434797687813
 30
0.0
 40
45.7987096954172
100
AcDbArc
 50
165.7714143334027
 51
196.2671109647534
  0
ARC
  5
D5
330
3A0
100
AcDbEntity
  8
0
100
AcDbCircle
 10
157.0569542405598
 20
325.3257858038777
 30
0.0
 40
142.4628829027855
100
AcDbArc
 50
341.4987217752127
 51
1.721469109057649
  0
ARC
  5
D6
330
3A0
100
AcDbEntity
  8
0
100
AcDbCircle
 10
342.8166558726995
 20
323.8719815401754
 30
0.0
 40
43.73853461209941
100
AcDbArc
 50
140.4578924173046
 51
172.4676588084305
  0
ARC
  5
D7
330
3A0
100
AcDbEntity
  8
0
100
AcDbCircle
 10
208.6963590012958
 20
314.0848586008051
 30
0.0
 40
45.7987096954172
100
AcDbArc
 50
217.1999857619742
 51
247.6956823933248
  0
ARC
  5
D8
330
3A0
100
AcDbEntity
  8
0
100
AcDbCircle
 10
282.6641772540258
 20
231.0280171503956
 30
0.0
 40
123.5485134337796
100
AcDbArc
 50
129.0793849764994
 51
153.3756097984355
  0
ARC
  5
D9
330
3A0
100
AcDbEntity
  8
0
100
AcDbCircle
 10
247.5802999122239
 20
335.9443836441228
 30
0.0
 40
43.73853461209941
100
AcDbArc
 50
191.886463845876
 51
223.8962302370019
  0
ARC
  5
DA
330
3A0
100
AcDbEntity
  8
0
100
AcDbCircle
 10
130.6243904055549
 20
191.6180328665653
 30
0.0
 40
142.4628829027855
100
AcDbArc
 50
32.92729320378417
 51
53.15004053762907
  0
ARC
  5
DB
330
3A0
100
AcDbEntity
  8
0
100
AcDbCircle
 10
160.0209227830806
 20
132.7293729004169
 30
0.0
 40
142.4628829027855
100
AcDbArc
 50
57.0880882066414
 51
77.31083554048628
  0
ARC
  5
DC
330
3A0
100
AcDbEntity
  8
0
100
AcDbCircle
 10
171.6095434274227
 20
224.982741769866
 30
0.0
 40
45.7987096954172
100
AcDbArc
 50
268.6285571905456
 51
299.1242538218962
  0
ARC
  5
DD
330
3A0
100
AcDbEntity
  8
0
100
AcDbCircle
 10
282.664177254026
 20
231.0280171503956
 30
0.0
 40
123.5485134337796
100
AcDbArc
 50
180.5079564050708
 51
204.8041812270069
  0
ARC
  5
DE
330
3A0
100
AcDbEntity
  8
0
100
AcDbCircle
 10
178.7628191707998
 20
269.0126218744404
 30
0.0
 40
43.73853461209941
100
AcDbArc
 50
243.3150352744474
 51
275.3248016655733
  0
ARC
  5
DF
330
3A0
100
AcDbEntity
  8
0
100
AcDbCircle
 10
218.6808871138975
 20
87.58680191215125
 30
0.0
 40
142.4628829027855
100
AcDbArc
 50
84.35586463235558
 51
104.5786119662004
  0
ARC
  5
E0
330
3A0
100
AcDbEntity
  8
0
100
AcDbCircle
 10
283.0503335831844
 20
73.85345746627141
 30
0.0
 40
142.4628829027855
100
AcDbArc
 50
108.5166596352128
 51
128.7394069690576
  0
ARC
  5
E1
330
3A0
100
AcDbEntity
  8
0
100
AcDbCircle
 10
218.1491322266697
 20
140.4328406016103
 30
0.0
 40
45.7987096954172
100
AcDbArc
 50
320.057128619117
 51
350.5528252504676
  0
ARC
  5
E2
330
3A0
100
AcDbEntity
  8
0
100
AcDbCircle
 10
282.6641772540258
 20
231.0280171503956
 30
0.0
 40
123.5485134337796
100
AcDbArc
 50
231.9365278336422
 51
256.2327526555784
  0
ARC
  5
E3
330
3A0
100
AcDbEntity
  8
0
100
AcDbCircle
 10
188.1851802674997
 20
173.4776780028223
 30
0.0
 40
43.73853461209941
100
AcDbArc
 50
294.7436067030188
 51
326.7533730941447
  0
ARC
  5
E4
330
3A0
100
AcDbEntity
  8
0
100
AcDbCircle
 10
354.9181063190196
 20
91.56973169968796
 30
0.0
 40
142.4628829027855
100
AcDbArc
 50
135.784436060927
 51
156.0071833947719
  0
ARC
  5
E5
330
3A0
100
AcDbEntity
  8
0
100
AcDbCircle
 10
405.7889607912779
 20
133.3331912509976
 30
0.0
 40
142.4628829027855
100
AcDbArc
 50
159.9452310637842
 51
180.1679783976291
  0
ARC
  5
E6
330
3A0
100
AcDbEntity
  8
0
100
AcDbCircle
 10
313.2698657986018
 20
124.1029551794069
 30
0.0
 40
45.7987096954172
100
AcDbArc
 50
11.48570004768846
 51
41.98139667903912
  0
ARC
  5
E7
330
3A0
100
AcDbEntity
  8
0
100
AcDbCircle
 10
282.6641772540257
 20
231.0280171503956
 30
0.0
 40
123.5485134337796
100
AcDbArc
 50
283.3650992622136
 51
307.6613240841498
  0
ARC
  5
E8
330
3A0
100
AcDbEntity
  8
0
100
AcDbCircle
 10
268.7521531153698
 20
121.279313322304
 30
0.0
 40
43.73853461209941
100
AcDbArc
 50
346.1721781315902
 51
18.18194452271621
  0
ARC
  5
E9
330
3A0
100
AcDbEntity
  8
0
100
AcDbCircle
 10
436.7466432266501
 20
200.567594862199
 30
0.0
 40
142.4628829027855
100
AcDbArc
 50
187.2130074894984
 51
207.4357548233433
  0
ARC
  5
EA
330
3A0
100
AcDbEntity
  8
0
100
AcDbCircle
 10
435.8121147079489
 20
266.3791215492415
 30
0.0
 40
142.4628829027855
100
AcDbArc
 50
211.3738024923556
 51
231.5965498262005
  0
ARC
  5
EB
330
3A0
100
AcDbEntity
  8
0
100
AcDbCircle
 10
385.3438916541977
 20
188.2898222951318
 30
0.0
 40
45.7987096954172
100
AcDbArc
 50
62.91427147625987
 51
93.40996810761051
  0
ARC
  5
EC
330
3A0
100
AcDbEntity
  8
0
100
AcDbCircle
 10
282.6641772540258
 20
231.0280171503957
 30
0.0
 40
123.5485134337796
100
AcDbArc
 50
334.793670690785
 51
359.0898955127212
  0
ARC
  5
ED
330
3A0
100
AcDbEntity
  8
0
100
AcDbCircle
 10
359.7951638932229
 20
151.7239610899096
 30
0.0
 40
43.73853461209941
100
AcDbArc
 50
37.60074956016171
 51
69.61051595128762
  0
ARC
  5
EE
330
3A0
100
AcDbEntity
  8
0
100
AcDbCircle
 10
402.5479405473855
 20
332.5027772871013
 30
0.0
 40
142.4628829027855
100
AcDbArc
 50
238.6415789180698
 51
258.8643262519147
  0
ARC
  5
EF
330
3A0
100
AcDbEntity
  8
0
100
AcDbCircle
 10
350.5117480732144
 20
372.8049492040414
 30
0.0
 40
142.4628829027855
100
AcDbArc
 50
262.802373920927
 51
283.0251212547719
  0
ARC
  5
F0
330
3A0
100
AcDbEntity
  8
0
100
AcDbCircle
 10
380.0979982819988
 20
284.6594218371674
 30
0.0
 40
45.7987096954172
100
AcDbArc
 50
114.3428429048312
 51
144.8385395361819
  0
ARC
  5
F1
330
3A0
100
AcDbEntity
  8
0
100
AcDbCircle
 10
282.6641772540258
 20
231.0280171503955
 30
0.0
 40
123.5485134337796
100
AcDbArc
 50
26.22224211935649
 51
50.51846694129264
  0
ARC
  5
F2
330
3A0
100
AcDbEntity
  8
0
100
AcDbCircle
 10
392.756968546365
 20
241.8861805789944
 30
0.0
 40
43.73853461209941
100
AcDbArc
 50
89.02932098873312
 51
121.039087379859
  0
ARC
  5
F3
330
3A0
100
AcDbEntity
  8
0
100
AcDbCircle
 10
278.0743189251136
 20
388.0253956211864
 30
0.0
 40
142.4628829027855
100
AcDbArc
 50
290.0701503466413
 51
310.2928976804861
  0
ARC
  5
F4
330
3A0
100
AcDbEntity
  8
0
100
AcDbCircle
 10
214.1207767734071
 20
372.469855300083
 30
0.0
 40
142.4628829027855
100
AcDbArc
 50
314.2309453494984
 51
334.4536926833433
  0
LINE
  5
F9
330
3A0
100
AcDbEntity
  8
0
100
AcDbLine
 10
302.1937685374347
 20
257.6286762456699
 30
0.0
 11
367.4462520113716
 21
322.8811597196068
 31
0.0
  0
LINE
  5
FA
330
3A0
100
AcDbEntity
  8
0
100
AcDbLine
 10
309.2648363493001
 20
250.5576084338044
 30
0.0
 11
374.517319823237
 21
315.8100919077412
 31
0.0
  0
LINE
  5
FD
330
3A0
100
AcDbEntity
  8
0
100
AcDbLine
 10
302.9982197730805
 20
257.0189139189427
 30
0.0
 11
368.1788313524292
 21
322.1995254982913
 31
0.0
  0
LINE
  5
FE
330
3A0
100
AcDbEntity
  8
0
100
AcDbLine
 10
308.6550740225729
 20
251.3620596694503
 30
0.0
 11
373.8356856019216
 21
316.5426712487989
 31
0.0
  0
LINE
  5
FF
330
3A0
100
AcDbEntity
  8
0
100
AcDbLine
 10
263.1345859706169
 20
257.6286762456699
 30
0.0
 11
197.8821024966801
 21
322.8811597196068
 31
0.0
  0
LINE
  5
100
330
3A0
100
AcDbEntity
  8
0
100
AcDbLine
 10
262.3301347349711
 20
257.0189139189427
 30
0.0
 11
197.1495231556224
 21
322.1995254982914
 31
0.0
  0
LINE
  5
101
330
3A0
100
AcDbEntity
  8
0
100
AcDbLine
 10
256.6732804854786
 20
251.3620596694503
 30
0.0
 11
191.4926689061301
 21
316.542671248799
 31
0.0
  0
LINE
  5
102
330
3A0
100
AcDbEntity
  8
0
100
AcDbLine
 10
256.0635181587515
 20
250.5576084338044
 30
0.0
 11
190.8110346848146
 21
315.8100919077413
 31
0.0
  0
LINE
  5
103
330
3A0
100
AcDbEntity
  8
0
100
AcDbLine
 10
256.0635181587514
 20
211.4984258669867
 30
0.0
 11
190.8110346848145
 21
146.2459423930499
 31
0.0
  0
LINE
  5
104
330
3A0
100
AcDbEntity
  8
0
100
AcDbLine
 10
256.6732804854786
 20
210.6939746313408
 30
0.0
 11
191.49266890613
 21
145.5133630519922
 31
0.0
  0
LINE
  5
105
330
3A0
100
AcDbEntity
  8
0
100
AcDbLine
 10
262.330134734971
 20
205.0371203818484
 30
0.0
 11
197.1495231556223
 21
139.8565088024998
 31
0.0
  0
LINE
  5
106
330
3A0
100
AcDbEntity
  8
0
100
AcDbLine
 10
263.1345859706168
 20
204.4273580551212
 30
0.0
 11
197.88210249668
 21
139.1748745811843
 31
0.0
  0
LINE
  5
107
330
3A0
100
AcDbEntity
  8
0
100
AcDbLine
 10
302.1937685374346
 20
204.4273580551211
 30
0.0
 11
367.4462520113714
 21
139.1748745811842
 31
0.0
  0
LINE
  5
108
330
3A0
100
AcDbEntity
  8
0
100
AcDbLine
 10
302.9982197730805
 20
205.0371203818484
 30
0.0
 11
368.1788313524291
 21
139.8565088024997
 31
0.0
  0
LINE
  5
109
330
3A0
100
AcDbEntity
  8
0
100
AcDbLine
 10
308.6550740225729
 20
210.6939746313408
 30
0.0
 11
373.8356856019215
 21
145.513363051992
 31
0.0
  0
LINE
  5
10A
330
3A0
100
AcDbEntity
  8
0
100
AcDbLine
 10
309.2648363493001
 20
211.4984258669866
 30
0.0
 11
374.517319823237
 21
146.2459423930497
 31
0.0
  0
LINE
  5
10E
330
3A0
100
AcDbEntity
  8
0
100
AcDbLine
 10
21.71656880005207
 20
356.0280171503956
 30
0.0
 11
-148.2834311999479
 21
356.0280171503956
 31
0.0
  0
LINE
  5
10F
330
3A0
100
AcDbEntity
  8
0
100
AcDbLine
 10
-95.29478905955327
 20
281.0280171503956
 30
0.0
 11
-127.3586430891352
 21
281.0280171503956
 31
0.0
  0
LINE
  5
111
330
3A0
100
AcDbEntity
  8
0
100
AcDbLine
 10
21.71656880005207
 20
394.5280171503956
 30
0.0
 11
21.71656880005207
 21
231.0280171503956
 31
0.0
  0
LINE
  5
113
330
3A0
100
AcDbEntity
  8
0
100
AcDbLine
 10
-148.2834311999479
 20
231.0280171503956
 30
0.0
 11
-148.2834311999479
 21
394.5280171503955
 31
0.0
  0
LINE
  5
115
330
3A0
100
AcDbEntity
  8
0
100
AcDbLine
 10
16.71656880005207
 20
394.5280171503956
 30
0.0
 11
16.71656880005207
 21
377.0280171503955
 31
0.0
  0
LINE
  5
116
330
3A0
100
AcDbEntity
  8
0
100
AcDbLine
 10
-143.2834311999479
 20
377.0280171503956
 30
0.0
 11
-143.2834311999479
 21
394.5280171503955
 31
0.0
  0
LINE
  5
117
330
3A0
100
AcDbEntity
  8
0
100
AcDbLine
 10
-148.2834311999479
 20
394.5280171503955
 30
0.0
 11
-143.2834311999479
 21
394.5280171503955
 31
0.0
  0
LINE
  5
118
330
3A0
100
AcDbEntity
  8
0
100
AcDbLine
 10
16.71656880005207
 20
394.5280171503956
 30
0.0
 11
21.71656880005207
 21
394.5280171503956
 31
0.0
  0
LWPOLYLINE
  5
11A
330
3A0
100
AcDbEntity
  8
0
100
AcDbPolyline
 90
        6
 70
     0
 43
0.0
 10
-28.06821980026461
 20
377.0280171503956
 10
-28.06821980026461
 20
392.5280171503955
 42
0.4142135623730951
 10
-30.06821980026461
 20
394.5280171503955
 10
-130.557073060127
 20
394.5280171503955
 42
0.4142135623730951
 10
-132.557073060127
 20
392.5280171503955
 10
-132.557073060127
 20
377.0280171503956
  0
CIRCLE
  5
121
330
3A0
100
AcDbEntity
  8
0
100
AcDbCircle
 10
-63.28343119994793
 20
377.0280171503956
 30
0.0
 40
5.0
  0
LINE
  5
122
330
3A0
100
AcDbEntity
  8
0
100
AcDbLine
 10
-132.557073060127
 20
377.0280171503956
 30
0.0
 11
-132.5570730601271
 21
356.0280171503956
 31
0.0
  0
LINE
  5
123
330
3A0
100
AcDbEntity
  8
0
100
AcDbLine
 10
-28.06821980026461
 20
377.0280171503956
 30
0.0
 11
-28.06821980026461
 21
356.0280171503956
 31
0.0
  0
LINE
  5
124
330
3A0
100
AcDbEntity
  8
0
100
AcDbLine
 10
-143.2834311999479
 20
377.0280171503956
 30
0.0
 11
-143.2834311999479
 21
356.0280171503956
 31
0.0
  0
LINE
  5
125
330
3A0
100
AcDbEntity
  8
0
100
AcDbLine
 10
16.71656880005207
 20
377.0280171503955
 30
0.0
 11
16.71656880005207
 21
356.0280171503956
 31
0.0
  0
LINE
  5
126
330
3A0
100
AcDbEntity
  8
0
100
AcDbLine
 10
-132.557073060127
 20
392.5280171503955
 30
0.0
 11
-28.06821980026462
 21
392.5280171503955
 31
0.0
  0
LINE
  5
12C
330
3A0
100
AcDbEntity
  8
0
100
AcDbLine
 10
-132.5570730601271
 20
356.0280171503956
 30
0.0
 11
-132.5570730601271
 21
292.2199335168952
 31
0.0
  0
LINE
  5
12D
330
3A0
100
AcDbEntity
  8
0
100
AcDbLine
 10
-127.3586430891352
 20
231.0280171503956
 30
0.0
 11
-127.3586430891352
 21
286.9886968367648
 31
0.0
  0
LINE
  5
12E
330
3A0
100
AcDbEntity
  8
0
100
AcDbLine
 10
6.564008585449756
 20
286.9886968367647
 30
0.0
 11
6.564008585449756
 21
231.0280171503956
 31
0.0
  0
LINE
  5
12F
330
3A0
100
AcDbEntity
  8
0
100
AcDbLine
 10
-95.29478905955327
 20
286.9886968367648
 30
0.0
 11
-95.29478905955327
 21
231.0280171503956
 31
0.0
  0
LINE
  5
130
330
3A0
100
AcDbEntity
  8
0
100
AcDbLine
 10
-127.3586430891352
 20
286.9886968367648
 30
0.0
 11
6.564008585449756
 21
286.9886968367647
 31
0.0
  0
ARC
  5
131
330
3A0
100
AcDbEntity
  8
0
100
AcDbCircle
 10
-17.69764002801904
 20
232.9090434519204
 30
0.0
 40
39.45906888777061
100
AcDbArc
 50
357.2676565346327
 51
52.05853608716157
  0
LWPOLYLINE
  5
132
330
3A0
100
AcDbEntity
  8
0
100
AcDbPolyline
 90
        4
 70
     1
 43
0.0
 10
-127.3586430891352
 20
281.0280171503956
 10
-95.33660428111671
 20
281.0280171503956
 10
-95.33660428111671
 20
273.5042561708454
 10
-127.3586430891352
 20
273.5042561708454
  0
LWPOLYLINE
  5
133
330
3A0
100
AcDbEntity
  8
0
100
AcDbPolyline
 90
        4
 70
     1
 43
0.0
 10
-127.3586430891352
 20
273.5042561708454
 10
-95.33660428111671
 20
273.5042561708454
 10
-95.33660428111671
 20
265.9804951912952
 10
-127.3586430891352
 20
265.9804951912952
  0
LWPOLYLINE
  5
134
330
3A0
100
AcDbEntity
  8
0
100
AcDbPolyline
 90
        4
 70
     1
 43
0.0
 10
-127.3586430891352
 20
265.9804951912952
 10
-95.33660428111669
 20
265.9804951912952
 10
-95.33660428111669
 20
258.4567342117451
 10
-127.3586430891352
 20
258.4567342117451
  0
LWPOLYLINE
  5
135
330
3A0
100
AcDbEntity
  8
0
100
AcDbPolyline
 90
        4
 70
     1
 43
0.0
 10
-127.3586430891352
 20
258.4567342117451
 10
-95.33660428111669
 20
258.4567342117451
 10
-95.33660428111669
 20
250.9329732321949
 10
-127.3586430891352
 20
250.9329732321949
  0
LWPOLYLINE
  5
136
330
3A0
100
AcDbEntity
  8
0
100
AcDbPolyline
 90
        4
 70
     1
 43
0.0
 10
-127.3586430891352
 20
250.9329732321949
 10
-95.33660428111669
 20
250.9329732321949
 10
-95.33660428111669
 20
243.4092122526448
 10
-127.3586430891352
 20
243.4092122526448
  0
LWPOLYLINE
  5
137
330
3A0
100
AcDbEntity
  8
0
100
AcDbPolyline
 90
        4
 70
     1
 43
0.0
 10
-127.3586430891352
 20
243.4092122526448
 10
-95.33660428111669
 20
243.4092122526448
 10
-95.33660428111669
 20
235.8854512730946
 10
-127.3586430891352
 20
235.8854512730946
  0
LWPOLYLINE
  5
138
330
3A0
100
AcDbEntity
  8
0
100
AcDbPolyline
 90
        4
 70
     1
 43
0.0
 10
-127.3586430891352
 20
281.0280171503956
 10
-95.33660428111671
 20
281.0280171503956
 10
-95.33660428111671
 20
273.5042561708454
 10
-127.3586430891352
 20
273.5042561708454
  0
LINE
  5
139
330
3A0
100
AcDbEntity
  8
0
100
AcDbLine
 10
-143.2834311999479
 20
279.0280171503956
 30
0.0
 11
-143.2834311999479
 21
231.0280171503956
 31
0.0
  0
ARC
  5
13A
330
3A0
100
AcDbEntity
  8
0
100
AcDbCircle
 10
-141.2834311999479
 20
279.0280171503956
 30
0.0
 40
2.0
100
AcDbArc
 50
90.00000000000003
 51
180.0
  0
LINE
  5
13B
330
3A0
100
AcDbEntity
  8
0
100
AcDbLine
 10
-132.5570730601271
 20
281.0280171503957
 30
0.0
 11
-141.2834311999479
 21
281.0280171503956
 31
0.0
  0
LINE
  5
13C
330
3A0
100
AcDbEntity
  8
0
100
AcDbLine
 10
-132.5570730601271
 20
281.0280171503957
 30
0.0
 11
-127.3586430891352
 21
281.0280171503956
 31
0.0
  0
LINE
  5
13D
330
3A0
100
AcDbEntity
  8
0
100
AcDbLine
 10
-127.3586430891352
 20
286.9886968367648
 30
0.0
 11
-127.3586430891352
 21
356.0280171503956
 31
0.0
  0
ARC
  5
13E
330
3A0
100
AcDbEntity
  8
0
100
AcDbCircle
 10
61.64422765034163
 20
314.3088150429313
 30
0.0
 40
145.3921058417791
100
AcDbArc
 50
170.0492445561877
 51
190.8728703175032
  0
ARC
  5
140
330
3A0
100
AcDbEntity
  8
0
100
AcDbCircle
 10
-38.43895844004892
 20
218.81256469196
 30
0.0
 40
136.1512546454774
100
AcDbArc
 50
73.62494738228457
 51
104.3857073688852
  0
ARC
  5
141
330
3A0
100
AcDbEntity
  8
0
100
AcDbCircle
 10
42.36459641399234
 20
317.825804997621
 30
0.0
 40
52.90483986019841
100
AcDbArc
 50
143.3026694928554
 51
173.0656262613815
  0
ARC
  5
142
330
3A0
100
AcDbEntity
  8
0
100
AcDbCircle
 10
-47.00328635444527
 20
320.377499384627
 30
0.0
 40
39.46288635633493
100
AcDbArc
 50
129.8030964453028
 51
151.1271950712951
  0
ARC
  5
143
330
3A0
100
AcDbEntity
  8
0
100
AcDbCircle
 10
219.4617128616235
 20
325.4501867840752
 30
0.0
 40
229.6182944068404
100
AcDbArc
 50
180.308678654809
 51
189.7212270868049
  0
LINE
  5
145
330
3A0
100
AcDbEntity
  8
0
100
AcDbLine
 10
-127.3586430891352
 20
286.9886968367648
 30
0.0
 11
-132.5570730601271
 21
292.2199335168952
 31
0.0
  0
ARC
  5
146
330
3A0
100
AcDbEntity
  8
0
100
AcDbCircle
 10
-38.43895844004892
 20
243.2434696088312
 30
0.0
 40
136.1512546454774
100
AcDbArc
 50
255.6142926311147
 51
286.3750526177154
  0
LINE
  5
147
330
3A0
100
AcDbEntity
  8
0
100
AcDbLine
 10
-127.3586430891352
 20
175.0673374640264
 30
0.0
 11
6.564008585449756
 21
175.0673374640265
 31
0.0
  0
LINE
  5
14A
330
3A0
100
AcDbEntity
  8
0
100
AcDbLine
 10
21.7165688000521
 20
106.0280171503956
 30
0.0
 11
-148.2834311999479
 21
106.0280171503956
 31
0.0
  0
LINE
  5
14D
330
3A0
100
AcDbEntity
  8
0
100
AcDbLine
 10
-132.557073060127
 20
106.0280171503956
 30
0.0
 11
-132.557073060127
 21
169.836100783896
 31
0.0
  0
ARC
  5
14E
330
3A0
100
AcDbEntity
  8
0
100
AcDbCircle
 10
61.64422765034164
 20
147.7472192578599
 30
0.0
 40
145.3921058417791
100
AcDbArc
 50
169.1271296824967
 51
189.9507554438122
  0
LINE
  5
14F
330
3A0
100
AcDbEntity
  8
0
100
AcDbLine
 10
-127.3586430891352
 20
175.0673374640264
 30
0.0
 11
-127.3586430891352
 21
106.0280171503956
 31
0.0
  0
LINE
  5
150
330
3A0
100
AcDbEntity
  8
0
100
AcDbLine
 10
-148.2834311999479
 20
231.0280171503956
 30
0.0
 11
-148.2834311999478
 21
67.52801715039573
 31
0.0
  0
LINE
  5
151
330
3A0
100
AcDbEntity
  8
0
100
AcDbLine
 10
-95.29478905955327
 20
175.0673374640264
 30
0.0
 11
-95.29478905955327
 21
231.0280171503956
 31
0.0
  0
LINE
  5
152
330
3A0
100
AcDbEntity
  8
0
100
AcDbLine
 10
-127.3586430891352
 20
231.0280171503956
 30
0.0
 11
-127.3586430891352
 21
175.0673374640264
 31
0.0
  0
LINE
  5
153
330
3A0
100
AcDbEntity
  8
0
100
AcDbLine
 10
-143.2834311999479
 20
183.0280171503956
 30
0.0
 11
-143.2834311999479
 21
231.0280171503956
 31
0.0
  0
LWPOLYLINE
  5
154
330
3A0
100
AcDbEntity
  8
0
100
AcDbPolyline
 90
        4
 70
     1
 43
0.0
 10
-127.3586430891352
 20
218.6468220481464
 10
-95.33660428111669
 20
218.6468220481464
 10
-95.33660428111669
 20
226.1705830276965
 10
-127.3586430891352
 20
226.1705830276965
  0
LINE
  5
155
330
3A0
100
AcDbEntity
  8
0
100
AcDbLine
 10
-95.29478905955327
 20
181.0280171503956
 30
0.0
 11
-127.3586430891352
 21
181.0280171503956
 31
0.0
  0
LWPOLYLINE
  5
156
330
3A0
100
AcDbEntity
  8
0
100
AcDbPolyline
 90
        4
 70
     1
 43
0.0
 10
-127.3586430891352
 20
181.0280171503956
 10
-95.33660428111669
 20
181.0280171503956
 10
-95.33660428111669
 20
188.5517781299458
 10
-127.3586430891352
 20
188.5517781299458
  0
LWPOLYLINE
  5
157
330
3A0
100
AcDbEntity
  8
0
100
AcDbPolyline
 90
        4
 70
     1
 43
0.0
 10
-127.3586430891352
 20
211.1230610685963
 10
-95.33660428111669
 20
211.1230610685963
 10
-95.33660428111669
 20
218.6468220481464
 10
-127.3586430891352
 20
218.6468220481464
  0
LWPOLYLINE
  5
158
330
3A0
100
AcDbEntity
  8
0
100
AcDbPolyline
 90
        4
 70
     1
 43
0.0
 10
-127.3586430891352
 20
203.5993000890461
 10
-95.33660428111669
 20
203.5993000890461
 10
-95.33660428111669
 20
211.1230610685963
 10
-127.3586430891352
 20
211.1230610685963
  0
LWPOLYLINE
  5
159
330
3A0
100
AcDbEntity
  8
0
100
AcDbPolyline
 90
        4
 70
     1
 43
0.0
 10
-127.3586430891352
 20
196.0755391094959
 10
-95.33660428111669
 20
196.0755391094959
 10
-95.33660428111669
 20
203.5993000890461
 10
-127.3586430891352
 20
203.5993000890461
  0
LWPOLYLINE
  5
15A
330
3A0
100
AcDbEntity
  8
0
100
AcDbPolyline
 90
        4
 70
     1
 43
0.0
 10
-127.3586430891352
 20
188.5517781299458
 10
-95.33660428111669
 20
188.5517781299458
 10
-95.33660428111671
 20
196.0755391094959
 10
-127.3586430891352
 20
196.0755391094959
  0
LWPOLYLINE
  5
15B
330
3A0
100
AcDbEntity
  8
0
100
AcDbPolyline
 90
        4
 70
     1
 43
0.0
 10
-127.3586430891352
 20
181.0280171503956
 10
-95.33660428111669
 20
181.0280171503956
 10
-95.33660428111669
 20
188.5517781299458
 10
-127.3586430891352
 20
188.5517781299458
  0
LINE
  5
15C
330
3A0
100
AcDbEntity
  8
0
100
AcDbLine
 10
-127.3586430891352
 20
175.0673374640264
 30
0.0
 11
-132.557073060127
 21
169.836100783896
 31
0.0
  0
LINE
  5
15D
330
3A0
100
AcDbEntity
  8
0
100
AcDbLine
 10
-132.557073060127
 20
181.0280171503955
 30
0.0
 11
-141.2834311999479
 21
181.0280171503956
 31
0.0
  0
ARC
  5
15E
330
3A0
100
AcDbEntity
  8
0
100
AcDbCircle
 10
-141.2834311999479
 20
183.0280171503956
 30
0.0
 40
2.0
100
AcDbArc
 50
180.0
 51
270.0
  0
LINE
  5
15F
330
3A0
100
AcDbEntity
  8
0
100
AcDbLine
 10
-132.557073060127
 20
181.0280171503955
 30
0.0
 11
-127.3586430891352
 21
181.0280171503956
 31
0.0
  0
LINE
  5
160
330
3A0
100
AcDbEntity
  8
0
100
AcDbLine
 10
-143.2834311999479
 20
85.02801715039561
 30
0.0
 11
-143.2834311999478
 21
67.52801715039573
 31
0.0
  0
LINE
  5
161
330
3A0
100
AcDbEntity
  8
0
100
AcDbLine
 10
-143.2834311999479
 20
85.02801715039561
 30
0.0
 11
-143.2834311999479
 21
106.0280171503956
 31
0.0
  0
LINE
  5
163
330
3A0
100
AcDbEntity
  8
0
100
AcDbLine
 10
-148.2834311999478
 20
67.52801715039573
 30
0.0
 11
-143.2834311999478
 21
67.52801715039573
 31
0.0
  0
ARC
  5
165
330
3A0
100
AcDbEntity
  8
0
100
AcDbCircle
 10
-47.00328635444527
 20
141.6785349161642
 30
0.0
 40
39.46288635633493
100
AcDbArc
 50
208.8728049287049
 51
230.1969035546972
  0
ARC
  5
166
330
3A0
100
AcDbEntity
  8
0
100
AcDbCircle
 10
42.36459641399235
 20
144.2302293031702
 30
0.0
 40
52.90483986019841
100
AcDbArc
 50
186.9343737386184
 51
216.6973305071446
  0
LINE
  5
167
330
3A0
100
AcDbEntity
  8
0
100
AcDbLine
 10
21.7165688000521
 20
67.52801715039566
 30
0.0
 11
21.71656880005207
 21
231.0280171503956
 31
0.0
  0
LINE
  5
168
330
3A0
100
AcDbEntity
  8
0
100
AcDbLine
 10
6.564008585449767
 20
175.0673374640265
 30
0.0
 11
6.564008585449757
 21
231.0280171503956
 31
0.0
  0
ARC
  5
169
330
3A0
100
AcDbEntity
  8
0
100
AcDbCircle
 10
-17.69764002801904
 20
229.1469908488708
 30
0.0
 40
39.45906888777061
100
AcDbArc
 50
307.9414639128383
 51
2.732343465367295
  0
ARC
  5
16A
330
3A0
100
AcDbEntity
  8
0
100
AcDbCircle
 10
219.4617128616235
 20
136.6058475167161
 30
0.0
 40
229.6182944068404
100
AcDbArc
 50
170.278772913195
 51
179.6913213451909
  0
LINE
  5
16C
330
3A0
100
AcDbEntity
  8
0
100
AcDbLine
 10
16.7165688000521
 20
67.52801715039566
 30
0.0
 11
16.7165688000521
 21
85.02801715039573
 31
0.0
  0
LINE
  5
16D
330
3A0
100
AcDbEntity
  8
0
100
AcDbLine
 10
16.7165688000521
 20
85.02801715039573
 30
0.0
 11
16.71656880005209
 21
106.0280171503956
 31
0.0
  0
LINE
  5
16E
330
3A0
100
AcDbEntity
  8
0
100
AcDbLine
 10
16.7165688000521
 20
67.52801715039566
 30
0.0
 11
21.7165688000521
 21
67.52801715039566
 31
0.0
  0
LINE
  5
16F
330
3A0
100
AcDbEntity
  8
0
100
AcDbLine
 10
-95.29478905955327
 20
231.0280171503956
 30
0.0
 11
-127.3586430891352
 21
231.0280171503956
 31
0.0
  0
DIMENSION
  5
19D
330
3A0
100
AcDbEntity
  8
koty
100
AcDbDimension
  2
*D3
 10
277.6641772540258
 20
377.0280171503956
 30
0.0
 11
282.6641772540315
 21
402.9491642872017
 31
0.0
 70
   163
 71
     0
 42
10.0
  3
ISO-25
100
AcDbDiametricDimension
 15
287.6641772540258
 25
377.0280171503956
 35
0.0
 40
0.0
  0
DIMENSION
  5
1B3
330
3A0
100
AcDbEntity
  8
koty
100
AcDbDimension
  2
*D4
 10
-326.2849692811324
 20
67.52801715039574
 30
0.0
 11
-342.5349692811324
 21
231.0280171503956
 31
0.0
 70
    32
 71
     0
 42
326.9999999999998
  3
ISO-25
100
AcDbAlignedDimension
 13
-148.2834311999479
 23
394.5280171503955
 33
0.0
 14
-148.2834311999478
 24
67.52801715039573
 34
0.0
 50
90.0
100
AcDbRotatedDimension
  0
DIMENSION
  5
1FB
330
3A0
100
AcDbEntity
  8
koty
100
AcDbDimension
  2
*D5
 10
-203.2599414751967
 20
106.0280171503956
 30
0.0
 11
-219.5099414751967
 21
231.0280171503956
 31
0.0
 70
    32
 71
     0
 42
250.0
  3
ISO-25
100
AcDbAlignedDimension
 13
-148.2834311999479
 23
356.0280171503956
 33
0.0
 14
-148.2834311999479
 24
106.0280171503956
 34
0.0
 50
90.0
100
AcDbRotatedDimension
  0
LINE
  5
213
330
3A0
100
AcDbEntity
  8
0
100
AcDbLine
 10
29.50027281140455
 20
377.0280171503956
 30
0.0
 11
9.48907926821903
 21
377.0280171503956
 31
0.0
  0
LINE
  5
214
330
3A0
100
AcDbEntity
  8
0
100
AcDbLine
 10
29.50027281140455
 20
85.02801715039561
 30
0.0
 11
9.48907926821903
 21
85.02801715039561
 31
0.0
  0
LINE
  5
219
330
3A0
100
AcDbEntity
  8
0
100
AcDbLine
 10
-138.3068396206917
 20
85.02801715039561
 30
0.0
 11
-154.7855788760635
 21
85.02801715039558
 31
0.0
  0
LINE
  5
21A
330
3A0
100
AcDbEntity
  8
0
100
AcDbLine
 10
-138.3068396206917
 20
377.0280171503956
 30
0.0
 11
-154.7855788760635
 21
377.0280171503956
 31
0.0
  0
DIMENSION
  5
21B
330
3A0
100
AcDbEntity
  8
koty
100
AcDbDimension
  2
*D6
 10
-264.7948134258913
 20
85.02801715039563
 30
0.0
 11
-281.0448134258913
 21
231.0280171503957
 31
0.0
 70
    32
 71
     0
 42
292.0
  3
ISO-25
100
AcDbAlignedDimension
 13
-148.2834311999479
 23
377.0280171503956
 33
0.0
 14
-148.2834311999478
 24
85.02801715039561
 34
0.0
 50
90.0
100
AcDbRotatedDimension
  0
DIMENSION
  5
233
330
3A0
100
AcDbEntity
  8
koty
100
AcDbDimension
  2
*D7
 10
21.7165688000521
 20
18.33748743184344
 30
0.0
 11
-63.28343119994786
 21
34.58748743184344
 31
0.0
 70
    32
 71
     0
 42
169.9999999999999
  3
ISO-25
100
AcDbAlignedDimension
 13
-148.2834311999478
 23
67.52801715039573
 33
0.0
 14
21.7165688000521
 24
67.52801715039566
 34
0.0
100
AcDbRotatedDimension
  0
TEXT
  5
24B
330
3A0
100
AcDbEntity
  8
popis
100
AcDbText
 10
-200.0889878484719
 20
471.5906346769287
 30
0.0
 40
15.0
  1
TXBR/TXTR 250 axiální ventilátor
100
AcDbText
  0
LWPOLYLINE
  5
25B
330
3A0
100
AcDbEntity
  8
koty
100
AcDbPolyline
 90
        4
 70
     1
 43
0.0
 10
-184.6641772540258
 20
107.9216415312009
 10
-204.6641772540258
 20
104.5883081978676
 10
-184.6641772540258
 20
101.2549748645343
 10
-184.6641772540258
 20
101.2549748645343
210
0.0
220
0.0
230
-1.0
1001
VDEXTRAPARAM
1071
       65
1071
        0
1071
        0
1040
1.0
1000

1000

1040
0.0
1040
0.0
  0
HATCH
  5
40A
330
3A0
100
AcDbEntity
  8
koty
100
AcDbHatch
 10
0.0
 20
0.0
 30
0.0
210
0.0
220
0.0
230
-1.0
  2
SOLID
 70
     1
 71
     0
 91
        1
 92
        2
 72
     0
 73
     1
 93
        3
 10
-184.6641772540258
 20
107.9216415312009
 10
-204.6641772540258
 20
104.5883081978676
 10
-184.6641772540258
 20
101.2549748645343
 97
        0
 75
     0
 76
     1
 98
        1
 10
0.0
 20
0.0
1001
VDEXTRAPARAM
1071
       65
1071
        0
1071
        0
1040
1.0
1000

1000

1040
0.0
1040
0.0
1001
VD_TEMPHATCH
1000
VD_TEMPHATCH
  0
LINE
  5
25C
330
3A0
100
AcDbEntity
  8
koty
100
AcDbLine
 10
184.6641772540258
 20
104.5883081978676
 30
0.0
 11
123.0316441730296
 21
104.5883081978676
 31
0.0
  0
TEXT
  5
25D
330
3A0
100
AcDbEntity
  8
koty
100
AcDbText
 10
84.40069179207723
 20
94.58830819786761
 30
0.0
 40
20.0
  1
4x
  7
Proxy_25D
100
AcDbText
  0
VIEWPORT
  5
40B
330
39C
100
AcDbEntity
 67
     1
  8
0
 60
     1
100
AcDbViewport
 10
0.0
 20
0.0
 30
0.0
 40
10.0
 41
10.0
 69
     1
 12
0.0
 22
0.0
 13
0.0
 23
0.0
 14
1.0
 24
1.0
 15
0.0
 25
0.0
 16
0.0
 26
0.0
 36
1.0
 17
0.0
 27
0.0
 37
0.0
 42
0.0
 43
0.0
 44
0.0
 45
10.0
 50
0.0
 51
0.0000000000007958
 72
   100
 90
   163872
  1

281
     0
 71
     0
 74
     0
110
0.0
120
0.0
130
0.0
111
1.0
121
0.0
131
0.0
112
0.0
122
1.0
132
0.0
 79
     0
146
0.0
1001
VD_INVISIBLE_NOT_FOR_READ
1000
VD_INVISIBLE_NOT_FOR_READ
  0
VIEWPORT
  5
40C
330
39C
100
AcDbEntity
 67
     1
  8
0
 60
     1
100
AcDbViewport
 10
0.0
 20
0.0
 30
0.0
 40
10.0
 41
10.0
 69
     2
 12
0.0
 22
0.0
 13
0.0
 23
0.0
 14
1.0
 24
1.0
 15
0.0
 25
0.0
 16
0.0
 26
0.0
 36
1.0
 17
0.0
 27
0.0
 37
0.0
 42
0.0
 43
0.0
 44
0.0
 45
10.0
 50
0.0
 51
0.0000000000007958
 72
   100
 90
   163872
  1

281
     0
 71
     0
 74
     0
110
0.0
120
0.0
130
0.0
111
1.0
121
0.0
131
0.0
112
0.0
122
1.0
132
0.0
 79
     0
146
0.0
1001
VD_INVISIBLE_NOT_FOR_READ
1000
VD_INVISIBLE_NOT_FOR_READ
  0
ENDSEC
  0
SECTION
  2
OBJECTS
  0
DICTIONARY
  5
38D
330
0
100
AcDbDictionary
281
     1
  3
ACAD_GROUP
350
38E
  3
ACAD_LAYOUT
350
39B
  3
ACAD_MLINESTYLE
350
398
  3
ACAD_PLOTSETTINGS
350
39A
  3
ACAD_PLOTSTYLENAME
350
38F
  3
VECTORDRAW_OBJECTS
350
3B0
  0
DICTIONARY
  5
38E
102
{ACAD_REACTORS
330
38D
102
}
330
38D
100
AcDbDictionary
281
     1
  0
DICTIONARY
  5
39B
102
{ACAD_REACTORS
330
38D
102
}
330
38D
100
AcDbDictionary
281
     1
  3
Model
350
3A3
  3
Rozvržení1
350
39F
  3
Rozvržení2
350
3A7
  0
DICTIONARY
  5
398
102
{ACAD_REACTORS
330
38D
102
}
330
38D
100
AcDbDictionary
281
     1
  3
Standard
350
399
  0
DICTIONARY
  5
39A
102
{ACAD_REACTORS
330
38D
102
}
330
38D
100
AcDbDictionary
281
     1
  0
ACDBDICTIONARYWDFLT
  5
38F
102
{ACAD_REACTORS
330
38D
102
}
330
38D
100
AcDbDictionary
281
     1
  3
Normal
350
390
100
AcDbDictionaryWithDefault
340
390
  0
DICTIONARY
  5
3B0
102
{ACAD_REACTORS
330
38D
102
}
330
38D
100
AcDbDictionary
281
     1
  3
SERIALNO
350
3B1
  0
LAYOUT
  5
3A3
102
{ACAD_REACTORS
330
39B
102
}
330
39B
100
AcDbPlotSettings
  1
VectorDraw Printer Drawing
  2

  4

  6

 40
0.0
 41
0.0
 42
0.0
 43
0.0
 44
0.0
 45
0.0
 46
0.0
 47
0.0
 48
0.0
 49
0.0
140
0.0
141
0.0
142
1.0
143
1.0
 70
  1712
 72
     0
 73
     0
 74
     0
  7

 75
     0
147
1.0
148
0.0
149
0.0
100
AcDbLayout
  1
Model
 70
     1
 71
     0
 10
0.0
 20
0.0
 11
12.0
 21
9.0
 12
0.0
 22
0.0
 32
0.0
 14
-358.7195846657479
 24
5.837487431843442
 34
0.0
 15
446.1641772540257
 25
486.5906346769287
 35
0.0
146
0.0
 13
0.0
 23
0.0
 33
0.0
 16
1.0
 26
0.0
 36
0.0
 17
0.0
 27
1.0
 37
0.0
 76
     0
330
3A0
  0
LAYOUT
  5
39F
102
{ACAD_REACTORS
330
39B
102
}
330
39B
100
AcDbPlotSettings
  1
VectorDraw Printer Drawing
  2

  4

  6

 40
0.0
 41
0.0
 42
0.0
 43
0.0
 44
0.0
 45
0.0
 46
0.0
 47
0.0
 48
0.0
 49
0.0
140
0.0
141
0.0
142
1.0
143
1.0
 70
   688
 72
     0
 73
     0
 74
     5
  7

 75
    16
147
1.0
148
0.0
149
0.0
100
AcDbLayout
  1
Rozvržení1
 70
     1
 71
     1
 10
0.0
 20
0.0
 11
12.0
 21
9.0
 12
0.0
 22
0.0
 32
0.0
 14
1.000000000000000E+20
 24
1.000000000000000E+20
 34
1.000000000000000E+20
 15
-1.000000000000000E+20
 25
-1.000000000000000E+20
 35
-1.000000000000000E+20
146
0.0
 13
0.0
 23
0.0
 33
0.0
 16
1.0
 26
0.0
 36
0.0
 17
0.0
 27
1.0
 37
0.0
 76
     0
330
39C
331
40B
  0
LAYOUT
  5
3A7
102
{ACAD_REACTORS
330
39B
102
}
330
39B
100
AcDbPlotSettings
  1
VectorDraw Printer Drawing
  2

  4

  6

 40
0.0
 41
0.0
 42
0.0
 43
0.0
 44
0.0
 45
0.0
 46
0.0
 47
0.0
 48
0.0
 49
0.0
140
0.0
141
0.0
142
1.0
143
1.0
 70
   688
 72
     0
 73
     0
 74
     5
  7

 75
    16
147
1.0
148
0.0
149
0.0
100
AcDbLayout
  1
Rozvržení2
 70
     1
 71
     2
 10
0.0
 20
0.0
 11
12.0
 21
9.0
 12
0.0
 22
0.0
 32
0.0
 14
0.0
 24
0.0
 34
0.0
 15
0.0
 25
0.0
 35
0.0
146
0.0
 13
0.0
 23
0.0
 33
0.0
 16
1.0
 26
0.0
 36
0.0
 17
0.0
 27
1.0
 37
0.0
 76
     0
330
3A4
331
40D
  0
MLINESTYLE
  5
399
102
{ACAD_REACTORS
330
398
102
}
330
398
100
AcDbMlineStyle
  2
Standard
 70
     0
  3

 62
   256
 51
90.0
 52
90.0
 71
     2
 49
0.5
 62
   256
  6
BYLAYER
 49
-0.5
 62
   256
  6
BYLAYER
  0
ACDBPLACEHOLDER
  5
390
102
{ACAD_REACTORS
330
38F
102
}
330
38F
  0
XRECORD
  5
3B1
102
{ACAD_REACTORS
330
3B0
102
}
330
3B0
100
AcDbXrecord
280
     1
1000
rInJVR9YY4Q8hfPWdUq5j5319
1070
     4
1070
     6
  0
ENDSEC
  0
EOF
