  0
SECTION
  2
HEADER
  9
$ACADVER
  1
AC1015
  9
$ACADMAINTVER
 70
     6
  9
$DWGCODEPAGE
  3
ANSI_1252
  9
$INSBASE
 10
0.0
 20
0.0
 30
0.0
  9
$EXTMIN
 10
-297.6953913870703
 20
-31.62966385777577
 30
0.0
  9
$EXTMAX
 10
554.0023680774057
 20
498.51344451973
 30
0.0
  9
$LIMMIN
 10
0.0
 20
0.0
  9
$LIMMAX
 10
12.0
 20
9.0
  9
$ORTHOMODE
 70
     0
  9
$REGENMODE
 70
     1
  9
$FILLMODE
 70
     1
  9
$QTEXTMODE
 70
     0
  9
$MIRRTEXT
 70
     1
  9
$LTSCALE
 40
1.0
  9
$ATTMODE
 70
     1
  9
$TEXTSIZE
 40
0.2
  9
$TRACEWID
 40
0.05
  9
$TEXTSTYLE
  7
Standard
  9
$CLAYER
  8
popis
  9
$CELTYPE
  6
Continuous
  9
$CECOLOR
 62
    51
  9
$CELTSCALE
 40
1.0
  9
$DISPSILH
 70
     0
  9
$DIMSCALE
 40
10.0
  9
$DIMASZ
 40
2.0
  9
$DIMEXO
 40
0.625
  9
$DIMDLI
 40
0.38
  9
$DIMRND
 40
0.0
  9
$DIMDLE
 40
0.0
  9
$DIMEXE
 40
1.25
  9
$DIMTP
 40
0.0
  9
$DIMTM
 40
0.0
  9
$DIMTXT
 40
2.0
  9
$DIMCEN
 40
0.09
  9
$DIMTSZ
 40
0.0
  9
$DIMTOL
 70
     0
  9
$DIMLIM
 70
     0
  9
$DIMTIH
 70
     0
  9
$DIMTOH
 70
     0
  9
$DIMSE1
 70
     0
  9
$DIMSE2
 70
     0
  9
$DIMTAD
 70
     1
  9
$DIMZIN
 70
     0
  9
$DIMBLK
  1
VDDIM_DEFAULT
  9
$DIMASO
 70
     1
  9
$DIMSHO
 70
     1
  9
$DIMPOST
  1

  9
$DIMAPOST
  1

  9
$DIMALT
 70
     0
  9
$DIMALTD
 70
     2
  9
$DIMALTF
 40
25.4
  9
$DIMLFAC
 40
1.0
  9
$DIMTOFL
 70
     1
  9
$DIMTVP
 40
0.0
  9
$DIMTIX
 70
     1
  9
$DIMSOXD
 70
     0
  9
$DIMSAH
 70
     0
  9
$DIMBLK1
  1

  9
$DIMBLK2
  1

  9
$DIMSTYLE
  2
ISO-25
  9
$DIMCLRD
 70
     0
  9
$DIMCLRE
 70
     0
  9
$DIMCLRT
 70
   256
  9
$DIMTFAC
 40
1.0
  9
$DIMGAP
 40
0.625
  9
$DIMJUST
 70
     0
  9
$DIMSD1
 70
     0
  9
$DIMSD2
 70
     0
  9
$DIMTOLJ
 70
     1
  9
$DIMTZIN
 70
     0
  9
$DIMALTZ
 70
     0
  9
$DIMALTTZ
 70
     0
  9
$DIMUPT
 70
     1
  9
$DIMDEC
 70
     0
  9
$DIMTDEC
 70
     4
  9
$DIMALTU
 70
     2
  9
$DIMALTTD
 70
     2
  9
$DIMTXSTY
  7
Standard
  9
$DIMAUNIT
 70
     0
  9
$DIMADEC
 70
     0
  9
$DIMALTRND
 40
0.0
  9
$DIMAZIN
 70
     0
  9
$DIMDSEP
 70
    46
  9
$DIMATFIT
 70
     3
  9
$DIMFRAC
 70
     0
  9
$DIMLDRBLK
  1

  9
$DIMLUNIT
 70
     2
  9
$DIMLWD
 70
    -2
  9
$DIMLWE
 70
    -2
  9
$DIMTMOVE
 70
     0
  9
$LUNITS
 70
     2
  9
$LUPREC
 70
     4
  9
$SKETCHINC
 40
0.1
  9
$FILLETRAD
 40
0.5
  9
$AUNITS
 70
     0
  9
$AUPREC
 70
     0
  9
$MENU
  1
.
  9
$ELEVATION
 40
0.0
  9
$PELEVATION
 40
0.0
  9
$THICKNESS
 40
0.0
  9
$LIMCHECK
 70
     0
  9
$CHAMFERA
 40
0.5
  9
$CHAMFERB
 40
0.5
  9
$CHAMFERC
 40
1.0
  9
$CHAMFERD
 40
0.0
  9
$SKPOLY
 70
     0
  9
$TDCREATE
 40
2455643.634603727
  9
$TDUCREATE
 40
2455643.59293706
  9
$TDUPDATE
 40
2455643.634603738
  9
$TDUUPDATE
 40
2455643.592937072
  9
$TDINDWG
 40
0.0000000116
  9
$TDUSRTIMER
 40
0.0000000116
  9
$USRTIMER
 70
     1
  9
$ANGBASE
 50
0.0
  9
$ANGDIR
 70
     0
  9
$PDMODE
 70
     0
  9
$PDSIZE
 40
0.0
  9
$PLINEWID
 40
0.0
  9
$SPLFRAME
 70
     0
  9
$SPLINETYPE
 70
     6
  9
$SPLINESEGS
 70
     8
  9
$HANDSEED
  5
30D
  9
$SURFTAB1
 70
     6
  9
$SURFTAB2
 70
     6
  9
$SURFTYPE
 70
     6
  9
$SURFU
 70
     6
  9
$SURFV
 70
     6
  9
$UCSBASE
  2

  9
$UCSNAME
  2

  9
$UCSORG
 10
0.0
 20
0.0
 30
0.0
  9
$UCSXDIR
 10
1.0
 20
0.0
 30
0.0
  9
$UCSYDIR
 10
0.0
 20
1.0
 30
0.0
  9
$UCSORTHOREF
  2

  9
$UCSORTHOVIEW
 70
     0
  9
$UCSORGTOP
 10
0.0
 20
0.0
 30
0.0
  9
$UCSORGBOTTOM
 10
0.0
 20
0.0
 30
0.0
  9
$UCSORGLEFT
 10
0.0
 20
0.0
 30
0.0
  9
$UCSORGRIGHT
 10
0.0
 20
0.0
 30
0.0
  9
$UCSORGFRONT
 10
0.0
 20
0.0
 30
0.0
  9
$UCSORGBACK
 10
0.0
 20
0.0
 30
0.0
  9
$PUCSBASE
  2

  9
$PUCSNAME
  2

  9
$PUCSORG
 10
0.0
 20
0.0
 30
0.0
  9
$PUCSXDIR
 10
1.0
 20
0.0
 30
0.0
  9
$PUCSYDIR
 10
0.0
 20
1.0
 30
0.0
  9
$PUCSORTHOREF
  2

  9
$PUCSORTHOVIEW
 70
     0
  9
$PUCSORGTOP
 10
0.0
 20
0.0
 30
0.0
  9
$PUCSORGBOTTOM
 10
0.0
 20
0.0
 30
0.0
  9
$PUCSORGLEFT
 10
0.0
 20
0.0
 30
0.0
  9
$PUCSORGRIGHT
 10
0.0
 20
0.0
 30
0.0
  9
$PUCSORGFRONT
 10
0.0
 20
0.0
 30
0.0
  9
$PUCSORGBACK
 10
0.0
 20
0.0
 30
0.0
  9
$USERI1
 70
     0
  9
$USERI2
 70
     0
  9
$USERI3
 70
     0
  9
$USERI4
 70
     0
  9
$USERI5
 70
     0
  9
$USERR1
 40
0.0
  9
$USERR2
 40
0.0
  9
$USERR3
 40
0.0
  9
$USERR4
 40
0.0
  9
$USERR5
 40
0.0
  9
$WORLDVIEW
 70
     1
  9
$SHADEDGE
 70
     3
  9
$SHADEDIF
 70
    70
  9
$TILEMODE
 70
     1
  9
$MAXACTVP
 70
    64
  9
$PINSBASE
 10
0.0
 20
0.0
 30
0.0
  9
$PLIMCHECK
 70
     0
  9
$PEXTMIN
 10
1.000000000000000E+20
 20
1.000000000000000E+20
 30
1.000000000000000E+20
  9
$PEXTMAX
 10
-1.000000000000000E+20
 20
-1.000000000000000E+20
 30
-1.000000000000000E+20
  9
$PLIMMIN
 10
0.0
 20
0.0
  9
$PLIMMAX
 10
12.0
 20
9.0
  9
$UNITMODE
 70
     0
  9
$VISRETAIN
 70
     1
  9
$PLINEGEN
 70
     0
  9
$PSLTSCALE
 70
     1
  9
$TREEDEPTH
 70
  3020
  9
$CMLSTYLE
  2
Standard
  9
$CMLJUST
 70
     0
  9
$CMLSCALE
 40
1.0
  9
$PROXYGRAPHICS
 70
     1
  9
$MEASUREMENT
 70
     0
  9
$CELWEIGHT
370
     0
  9
$ENDCAPS
280
     0
  9
$JOINSTYLE
280
     0
  9
$LWDISPLAY
290
     0
  9
$INSUNITS
 70
     1
  9
$HYPERLINKBASE
  1

  9
$STYLESHEET
  1

  9
$XEDIT
290
     1
  9
$CEPSNTYPE
380
     0
  9
$PSTYLEMODE
290
     0
  9
$FINGERPRINTGUID
  2
{FAEB1C30-E019-11D5-929B-00C0DF256EC4}
  9
$VERSIONGUID
  2
{FAEB1C32-E019-11D5-929B-00C0DF256EC4}
  9
$EXTNAMES
290
     1
  9
$PSVPSCALE
 40
0.0
  9
$OLESTARTUP
290
     0
  0
ENDSEC
  0
SECTION
  2
CLASSES
  0
CLASS
  1
ACDBDICTIONARYWDFLT
  2
AcDbDictionaryWithDefault
  3
ObjectDBX Classes
 90
        0
280
     0
281
     0
  0
CLASS
  1
ACDBPLACEHOLDER
  2
AcDbPlaceHolder
  3
ObjectDBX Classes
 90
        0
280
     0
281
     0
  0
CLASS
  1
LAYOUT
  2
AcDbLayout
  3
ObjectDBX Classes
 90
        0
280
     0
281
     0
  0
ENDSEC
  0
SECTION
  2
TABLES
  0
TABLE
  2
VPORT
  5
287
330
0
100
AcDbSymbolTable
 70
     2
  0
VPORT
  5
2A8
330
287
100
AcDbSymbolTableRecord
100
AcDbViewportTableRecord
  2
*Active
 70
     0
 10
0.0
 20
0.0
 11
1.0
 21
1.0
 12
166.0
 22
195.0
 13
0.0
 23
0.0
 14
10.0
 24
10.0
 15
10.0
 25
10.0
 16
0.0
 26
0.0
 36
1.0
 17
0.0
 27
0.0
 37
0.0
 40
925.3563026551799
 41
0.0191891023000572
 42
50.0
 43
0.0
 44
0.0
 50
0.0
 51
0.0000000000007958
 71
     0
 72
   100
 73
     1
 74
     3
 75
     0
 76
     0
 77
     0
 78
     0
281
     0
 65
     1
110
0.0
120
0.0
130
0.0
111
1.0
121
0.0
131
0.0
112
0.0
122
1.0
132
0.0
 79
     0
146
0.0
  0
ENDTAB
  0
TABLE
  2
LTYPE
  5
284
330
0
100
AcDbSymbolTable
 70
    25
  0
LTYPE
  5
293
330
284
100
AcDbSymbolTableRecord
100
AcDbLinetypeTableRecord
  2
ByBlock
 70
     0
  3

 72
    65
 73
     0
 40
0.0
  0
LTYPE
  5
294
330
284
100
AcDbSymbolTableRecord
100
AcDbLinetypeTableRecord
  2
ByLayer
 70
     0
  3

 72
    65
 73
     0
 40
0.0
  0
LTYPE
  5
295
330
284
100
AcDbSymbolTableRecord
100
AcDbLinetypeTableRecord
  2
Continuous
 70
     0
  3
Solid line
 72
    65
 73
     0
 40
0.0
  0
LTYPE
  5
2B0
330
284
100
AcDbSymbolTableRecord
100
AcDbLinetypeTableRecord
  2
CENTER
 70
     0
  3
Center ____ _ ____ _ ____ _ ____ _ ____ _ ____
 72
    65
 73
     4
 40
2.0
 49
1.25
 74
     0
 49
-0.25
 74
     0
 49
0.25
 74
     0
 49
-0.25
 74
     0
  0
LTYPE
  5
2B1
330
284
100
AcDbSymbolTableRecord
100
AcDbLinetypeTableRecord
  2
DASHDOT
 70
     0
  3
Dashdot __ . __ . __ . __ . __ . __ . __ . __
 72
    65
 73
     4
 40
1.0
 49
0.5
 74
     0
 49
-0.25
 74
     0
 49
0.0
 74
     0
 49
-0.25
 74
     0
  0
LTYPE
  5
2B2
330
284
100
AcDbSymbolTableRecord
100
AcDbLinetypeTableRecord
  2
DASHED
 70
     0
  3
Dashed __ __ __ __ __ __ __ __ __ __ __ __ __ _
 72
    65
 73
     2
 40
0.75
 49
0.5
 74
     0
 49
-0.25
 74
     0
  0
LTYPE
  5
2B3
330
284
100
AcDbSymbolTableRecord
100
AcDbLinetypeTableRecord
  2
HIDDEN
 70
     0
  3
Hidden __ __ __ __ __ __ __ __ __ __ __ __ __ __
 72
    65
 73
     2
 40
0.375
 49
0.25
 74
     0
 49
-0.125
 74
     0
  0
LTYPE
  5
2B4
330
284
100
AcDbSymbolTableRecord
100
AcDbLinetypeTableRecord
  2
HIDDEN2
 70
     0
  3
Hidden2 _ _ _ _ _ _ _ _ _ _ _ _ _ _ _ _ _ 
 72
    65
 73
     2
 40
0.1875
 49
0.125
 74
     0
 49
-0.0625
 74
     0
  0
LTYPE
  5
2B5
330
284
100
AcDbSymbolTableRecord
100
AcDbLinetypeTableRecord
  2
BORDER
 70
     0
  3
Border __ __ . __ __ . __ __ . __ __ . __ __ .
 72
    65
 73
     6
 40
1.75
 49
0.5
 74
     0
 49
-0.25
 74
     0
 49
0.5
 74
     0
 49
-0.25
 74
     0
 49
0.0
 74
     0
 49
-0.25
 74
     0
  0
LTYPE
  5
2B6
330
284
100
AcDbSymbolTableRecord
100
AcDbLinetypeTableRecord
  2
BORDER2
 70
     0
  3
Border2 __.__.__.__.__.__.__.__.__.__.__.
 72
    65
 73
     6
 40
0.875
 49
0.25
 74
     0
 49
-0.125
 74
     0
 49
0.25
 74
     0
 49
-0.125
 74
     0
 49
0.0
 74
     0
 49
-0.125
 74
     0
  0
LTYPE
  5
2B7
330
284
100
AcDbSymbolTableRecord
100
AcDbLinetypeTableRecord
  2
BORDERX2
 70
     0
  3
Borderx2  ____  ____  .  ____  ____  .  ___
 72
    65
 73
     6
 40
3.5
 49
1.0
 74
     0
 49
-0.5
 74
     0
 49
1.0
 74
     0
 49
-0.5
 74
     0
 49
0.0
 74
     0
 49
-0.5
 74
     0
  0
LTYPE
  5
2B8
330
284
100
AcDbSymbolTableRecord
100
AcDbLinetypeTableRecord
  2
CENTER2
 70
     0
  3
Center2  ___ _ ___ _ ___ _ ___ _ ___ _ ___
 72
    65
 73
     4
 40
1.125
 49
0.75
 74
     0
 49
-0.125
 74
     0
 49
0.125
 74
     0
 49
-0.125
 74
     0
  0
LTYPE
  5
2B9
330
284
100
AcDbSymbolTableRecord
100
AcDbLinetypeTableRecord
  2
CENTERX2
 70
     0
  3
Centerx2  ________  __  ________  __  _____
 72
    65
 73
     4
 40
4.0
 49
2.5
 74
     0
 49
-0.5
 74
     0
 49
0.5
 74
     0
 49
-0.5
 74
     0
  0
LTYPE
  5
2BA
330
284
100
AcDbSymbolTableRecord
100
AcDbLinetypeTableRecord
  2
DASHDOT2
 70
     0
  3
Dashdot2  _._._._._._._._._._._._._._._.
 72
    65
 73
     4
 40
0.5
 49
0.25
 74
     0
 49
-0.125
 74
     0
 49
0.0
 74
     0
 49
-0.125
 74
     0
  0
LTYPE
  5
2BB
330
284
100
AcDbSymbolTableRecord
100
AcDbLinetypeTableRecord
  2
DASHDOTX2
 70
     0
  3
Dashdotx2 ____  .  ____  .  ____  .  ___
 72
    65
 73
     4
 40
2.0
 49
1.0
 74
     0
 49
-0.5
 74
     0
 49
0.0
 74
     0
 49
-0.5
 74
     0
  0
LTYPE
  5
2BC
330
284
100
AcDbSymbolTableRecord
100
AcDbLinetypeTableRecord
  2
DASHED2
 70
     0
  3
Dashed2 _ _ _ _ _ _ _ _ _ _ _ _ _ _ _ _ _ 
 72
    65
 73
     2
 40
0.375
 49
0.25
 74
     0
 49
-0.125
 74
     0
  0
LTYPE
  5
2BD
330
284
100
AcDbSymbolTableRecord
100
AcDbLinetypeTableRecord
  2
DASHEDX2
 70
     0
  3
Dashedx2 ____  ____  ____  ____  ____  ___
 72
    65
 73
     2
 40
1.5
 49
1.0
 74
     0
 49
-0.5
 74
     0
  0
LTYPE
  5
2BE
330
284
100
AcDbSymbolTableRecord
100
AcDbLinetypeTableRecord
  2
DIVIDE
 70
     0
  3
Divide ____ . . ____ . . ____ . . ____ . . ____
 72
    65
 73
     6
 40
1.25
 49
0.5
 74
     0
 49
-0.25
 74
     0
 49
0.0
 74
     0
 49
-0.25
 74
     0
 49
0.0
 74
     0
 49
-0.25
 74
     0
  0
LTYPE
  5
2BF
330
284
100
AcDbSymbolTableRecord
100
AcDbLinetypeTableRecord
  2
DIVIDE2
 70
     0
  3
Divide2 __..__..__..__..__..__..__..__.._
 72
    65
 73
     6
 40
0.625
 49
0.25
 74
     0
 49
-0.125
 74
     0
 49
0.0
 74
     0
 49
-0.125
 74
     0
 49
0.0
 74
     0
 49
-0.125
 74
     0
  0
LTYPE
  5
2C0
330
284
100
AcDbSymbolTableRecord
100
AcDbLinetypeTableRecord
  2
DIVIDEX2
 70
     0
  3
Dividex2 ________  .  .  ________  .  .  _
 72
    65
 73
     6
 40
2.5
 49
1.0
 74
     0
 49
-0.5
 74
     0
 49
0.0
 74
     0
 49
-0.5
 74
     0
 49
0.0
 74
     0
 49
-0.5
 74
     0
  0
LTYPE
  5
2C1
330
284
100
AcDbSymbolTableRecord
100
AcDbLinetypeTableRecord
  2
DOT
 70
     0
  3
Dot . . . . . . . . . . . . . . . . . . . . . . . .
 72
    65
 73
     2
 40
0.25
 49
0.0
 74
     0
 49
-0.25
 74
     0
  0
LTYPE
  5
2C2
330
284
100
AcDbSymbolTableRecord
100
AcDbLinetypeTableRecord
  2
DOT2
 70
     0
  3
Dot2 ........................................
 72
    65
 73
     2
 40
0.125
 49
0.0
 74
     0
 49
-0.125
 74
     0
  0
LTYPE
  5
2C3
330
284
100
AcDbSymbolTableRecord
100
AcDbLinetypeTableRecord
  2
DOTX2
 70
     0
  3
Dotx2 .  .  .  .  .  .  .  .  .  .  .  .  .  .
 72
    65
 73
     2
 40
0.5
 49
0.0
 74
     0
 49
-0.5
 74
     0
  0
LTYPE
  5
2C4
330
284
100
AcDbSymbolTableRecord
100
AcDbLinetypeTableRecord
  2
HIDDENX2
 70
     0
  3
Hiddenx2 ____ ____ ____ ____ ____ ____ ____ 
 72
    65
 73
     2
 40
0.75
 49
0.5
 74
     0
 49
-0.25
 74
     0
  0
LTYPE
  5
2C5
330
284
100
AcDbSymbolTableRecord
100
AcDbLinetypeTableRecord
  2
PHANTOM
 70
     0
  3
Phantom ______  __  __  ______  __  __  ______ 
 72
    65
 73
     6
 40
2.5
 49
1.25
 74
     0
 49
-0.25
 74
     0
 49
0.25
 74
     0
 49
-0.25
 74
     0
 49
0.25
 74
     0
 49
-0.25
 74
     0
  0
LTYPE
  5
2C6
330
284
100
AcDbSymbolTableRecord
100
AcDbLinetypeTableRecord
  2
PHANTOM2
 70
     0
  3
Phantom2 ___ _ _ ___ _ _ ___ _ _ ___ _ _
 72
    65
 73
     6
 40
1.25
 49
0.625
 74
     0
 49
-0.125
 74
     0
 49
0.125
 74
     0
 49
-0.125
 74
     0
 49
0.125
 74
     0
 49
-0.125
 74
     0
  0
LTYPE
  5
2C7
330
284
100
AcDbSymbolTableRecord
100
AcDbLinetypeTableRecord
  2
PHANTOMX2
 70
     0
  3
Phantomx2 ____________    ____    ____   _
 72
    65
 73
     6
 40
5.0
 49
2.5
 74
     0
 49
-0.5
 74
     0
 49
0.5
 74
     0
 49
-0.5
 74
     0
 49
0.5
 74
     0
 49
-0.5
 74
     0
  0
ENDTAB
  0
TABLE
  2
LAYER
  5
281
330
0
100
AcDbSymbolTable
 70
     4
  0
LAYER
  5
28F
330
281
100
AcDbSymbolTableRecord
100
AcDbLayerTableRecord
  2
0
 70
     0
 62
    90
  6
Continuous
370
     0
390
28E
  0
LAYER
  5
2B
330
281
100
AcDbSymbolTableRecord
100
AcDbLayerTableRecord
  2
koty
 70
     0
 62
    41
  6
Continuous
370
     0
390
28E
  0
LAYER
  5
2C
330
281
100
AcDbSymbolTableRecord
100
AcDbLayerTableRecord
  2
popis
 70
     0
 62
   210
  6
Continuous
370
     0
390
28E
  0
LAYER
  5
162
330
281
100
AcDbSymbolTableRecord
100
AcDbLayerTableRecord
  2
Defpoints
 70
     0
 62
     7
  6
Continuous
290
     0
370
     0
390
28E
  0
ENDTAB
  0
TABLE
  2
STYLE
  5
282
330
0
100
AcDbSymbolTable
 70
     2
  0
STYLE
  5
290
330
282
100
AcDbSymbolTableRecord
100
AcDbTextStyleTableRecord
  2
Standard
 70
     0
 40
0.0
 41
1.0
 50
0.0
 71
     0
 42
0.2
  3
txt.shx
  4

1001
ACAD
1000
txt.shx
1071
        0
  0
STYLE
  5
1EC
330
282
100
AcDbSymbolTableRecord
100
AcDbTextStyleTableRecord
  2
Proxy_1EB
 70
     0
 40
20.0
 41
1.0
 50
0.0
 71
     0
 42
0.2
  3
txt.shx
  4

1001
ACAD
1000
txt.shx
1071
        0
  0
ENDTAB
  0
TABLE
  2
VIEW
  5
285
330
0
100
AcDbSymbolTable
 70
     0
  0
ENDTAB
  0
TABLE
  2
UCS
  5
286
330
0
100
AcDbSymbolTable
 70
     0
  0
ENDTAB
  0
TABLE
  2
APPID
  5
288
330
0
100
AcDbSymbolTable
 70
     6
  0
APPID
  5
291
330
288
100
AcDbSymbolTableRecord
100
AcDbRegAppTableRecord
  2
ACAD
 70
     0
  0
APPID
  5
2A9
330
288
100
AcDbSymbolTableRecord
100
AcDbRegAppTableRecord
  2
VD_INVISIBLE_NOT_FOR_READ
 70
     0
  0
APPID
  5
2AA
330
288
100
AcDbSymbolTableRecord
100
AcDbRegAppTableRecord
  2
VD_TEMPHATCH
 70
     0
  0
APPID
  5
2AB
330
288
100
AcDbSymbolTableRecord
100
AcDbRegAppTableRecord
  2
VDEXTRAPARAM
 70
     0
  0
APPID
  5
2AC
330
288
100
AcDbSymbolTableRecord
100
AcDbRegAppTableRecord
  2
PE_URL
 70
     0
  0
APPID
  5
2AD
330
288
100
AcDbSymbolTableRecord
100
AcDbRegAppTableRecord
  2
VD_UNKNOWN
 70
     0
  0
ENDTAB
  0
TABLE
  2
DIMSTYLE
  5
289
330
0
100
AcDbSymbolTable
 70
     2
100
AcDbDimStyleTable
  0
DIMSTYLE
105
2A6
330
289
100
AcDbSymbolTableRecord
100
AcDbDimStyleTableRecord
  2
STANDARD
 70
     0
 41
0.2
 42
0.05
 44
0.2
 73
     0
 74
     0
140
0.2
172
     1
174
     1
177
   256
178
   256
288
     1
340
290
342
1EF
  0
DIMSTYLE
105
27
102
{ACAD_REACTORS
330
161
330
17A
330
192
330
1AA
330
1C2
102
}
330
289
100
AcDbSymbolTableRecord
100
AcDbDimStyleTableRecord
  2
ISO-25
 70
     0
 40
10.0
 41
2.0
 42
0.625
 44
1.25
 73
     0
 74
     0
 77
     1
140
2.0
147
0.625
172
     1
174
     1
178
   256
271
     0
288
     1
340
290
342
1EF
  0
ENDTAB
  0
TABLE
  2
BLOCK_RECORD
  5
280
330
0
100
AcDbSymbolTable
 70
     8
  0
BLOCK_RECORD
  5
29E
330
280
100
AcDbSymbolTableRecord
100
AcDbBlockTableRecord
  2
*Model_Space
340
2A1
  0
BLOCK_RECORD
  5
29A
330
280
100
AcDbSymbolTableRecord
100
AcDbBlockTableRecord
  2
*Paper_Space
340
29D
  0
BLOCK_RECORD
  5
2A2
330
280
100
AcDbSymbolTableRecord
100
AcDbBlockTableRecord
  2
*Paper_Space0
340
2A5
  0
BLOCK_RECORD
  5
1EF
330
280
100
AcDbSymbolTableRecord
100
AcDbBlockTableRecord
  2
VDDIM_DEFAULT
340
0
102
{BLKREFS
331
2D2
331
2D1
331
2DE
331
2DD
331
2EA
331
2E9
331
2F6
331
2F5
331
302
331
301
102
}
  0
BLOCK_RECORD
  5
1F1
330
280
100
AcDbSymbolTableRecord
100
AcDbBlockTableRecord
  2
VDDIM_NONE
340
0
  0
BLOCK_RECORD
  5
2CD
330
280
100
AcDbSymbolTableRecord
100
AcDbBlockTableRecord
  2
*D3
340
0
  0
BLOCK_RECORD
  5
2D9
330
280
100
AcDbSymbolTableRecord
100
AcDbBlockTableRecord
  2
*D4
340
0
  0
BLOCK_RECORD
  5
2E5
330
280
100
AcDbSymbolTableRecord
100
AcDbBlockTableRecord
  2
*D5
340
0
  0
BLOCK_RECORD
  5
2F1
330
280
100
AcDbSymbolTableRecord
100
AcDbBlockTableRecord
  2
*D6
340
0
  0
BLOCK_RECORD
  5
2FD
330
280
100
AcDbSymbolTableRecord
100
AcDbBlockTableRecord
  2
*D7
340
0
  0
ENDTAB
  0
ENDSEC
  0
SECTION
  2
BLOCKS
  0
BLOCK
  5
29F
330
29E
100
AcDbEntity
  8
0
100
AcDbBlockBegin
  2
*Model_Space
 70
     0
 71
     0
 10
0.0
 20
0.0
 30
0.0
  3
*Model_Space
  1

  0
ENDBLK
  5
2A0
330
29E
100
AcDbEntity
  8
0
100
AcDbBlockEnd
  0
BLOCK
  5
29B
330
29A
100
AcDbEntity
 67
     1
  8
0
100
AcDbBlockBegin
  2
*Paper_Space
 70
     0
 71
     0
 10
0.0
 20
0.0
 30
0.0
  3
*Paper_Space
  1

  0
ENDBLK
  5
29C
330
29A
100
AcDbEntity
 67
     1
  8
0
100
AcDbBlockEnd
  0
BLOCK
  5
2A3
330
2A2
100
AcDbEntity
  8
0
100
AcDbBlockBegin
  2
*Paper_Space0
 70
     0
 71
     0
 10
0.0
 20
0.0
 30
0.0
  3
*Paper_Space0
  1

  0
VIEWPORT
  5
30B
330
2A2
100
AcDbEntity
  8
0
 60
     1
100
AcDbViewport
 10
0.0
 20
0.0
 30
0.0
 40
10.0
 41
10.0
 69
     1
 12
0.0
 22
0.0
 13
0.0
 23
0.0
 14
1.0
 24
1.0
 15
0.0
 25
0.0
 16
0.0
 26
0.0
 36
1.0
 17
0.0
 27
0.0
 37
0.0
 42
0.0
 43
0.0
 44
0.0
 45
10.0
 50
0.0
 51
0.0000000000007958
 72
   100
 90
   163872
  1

281
     0
 71
     0
 74
     0
110
0.0
120
0.0
130
0.0
111
1.0
121
0.0
131
0.0
112
0.0
122
1.0
132
0.0
 79
     0
146
0.0
1001
VD_INVISIBLE_NOT_FOR_READ
1000
VD_INVISIBLE_NOT_FOR_READ
  0
VIEWPORT
  5
30C
330
2A2
100
AcDbEntity
  8
0
 60
     1
100
AcDbViewport
 10
0.0
 20
0.0
 30
0.0
 40
10.0
 41
10.0
 69
     2
 12
0.0
 22
0.0
 13
0.0
 23
0.0
 14
1.0
 24
1.0
 15
0.0
 25
0.0
 16
0.0
 26
0.0
 36
1.0
 17
0.0
 27
0.0
 37
0.0
 42
0.0
 43
0.0
 44
0.0
 45
10.0
 50
0.0
 51
0.0000000000007958
 72
   100
 90
   163872
  1

281
     0
 71
     0
 74
     0
110
0.0
120
0.0
130
0.0
111
1.0
121
0.0
131
0.0
112
0.0
122
1.0
132
0.0
 79
     0
146
0.0
1001
VD_INVISIBLE_NOT_FOR_READ
1000
VD_INVISIBLE_NOT_FOR_READ
  0
ENDBLK
  5
2A4
330
2A2
100
AcDbEntity
  8
0
100
AcDbBlockEnd
  0
BLOCK
  5
2C8
330
1EF
100
AcDbEntity
  8
0
100
AcDbBlockBegin
  2
VDDIM_DEFAULT
 70
     0
 71
     0
 10
0.0
 20
0.0
 30
0.0
  3
VDDIM_DEFAULT
  1

  0
LWPOLYLINE
  5
1F0
330
1EF
100
AcDbEntity
  8
0
  6
Continuous
 62
     0
100
AcDbPolyline
 90
        4
 70
     0
 43
0.0
 10
0.0
 20
0.0
 10
-1.0
 20
-0.1665
 10
-1.0
 20
0.1665
 10
0.0
 20
0.0
1001
VDEXTRAPARAM
1071
        1
1071
        0
1071
        0
1040
1.0
1000

1000

1040
0.0
1040
0.0
  0
HATCH
  5
2CC
330
1EF
100
AcDbEntity
  8
0
  6
Continuous
 62
     0
100
AcDbHatch
 10
0.0
 20
0.0
 30
0.0
210
0.0
220
0.0
230
1.0
  2
SOLID
 70
     1
 71
     0
 91
        1
 92
        2
 72
     0
 73
     1
 93
        3
 10
0.0
 20
0.0
 10
-1.0
 20
-0.1665
 10
-1.0
 20
0.1665
 97
        0
 75
     0
 76
     1
 98
        1
 10
0.0
 20
0.0
1001
VDEXTRAPARAM
1071
        1
1071
        0
1071
        0
1040
1.0
1000

1000

1040
0.0
1040
0.0
1001
VD_TEMPHATCH
1000
VD_TEMPHATCH
  0
ENDBLK
  5
2C9
330
1EF
100
AcDbEntity
  8
0
100
AcDbBlockEnd
  0
BLOCK
  5
2CA
330
1F1
100
AcDbEntity
  8
0
100
AcDbBlockBegin
  2
VDDIM_NONE
 70
     0
 71
     0
 10
0.0
 20
0.0
 30
0.0
  3
VDDIM_NONE
  1

  0
ENDBLK
  5
2CB
330
1F1
100
AcDbEntity
  8
0
100
AcDbBlockEnd
  0
BLOCK
  5
2D7
330
2CD
100
AcDbEntity
  8
0
100
AcDbBlockBegin
  2
*D3
 70
     1
 71
     0
 10
0.0
 20
0.0
 30
0.0
  3
*D3
  1

  0
LINE
  5
2CE
330
2CD
100
AcDbEntity
  8
koty
 62
     0
370
    -2
100
AcDbLine
 10
-103.9458192782154
 20
399.4431783809618
 30
0.0
 11
-152.8344834694853
 21
399.4431783809617
 31
0.0
  0
LINE
  5
2CF
330
2CD
100
AcDbEntity
  8
koty
 62
     0
370
    -2
100
AcDbLine
 10
-103.9458192782156
 20
84.44317838096146
 30
0.0
 11
-152.8344834694854
 21
84.44317838096146
 31
0.0
  0
LINE
  5
2D0
330
2CD
100
AcDbEntity
  8
koty
 62
     0
370
    -2
100
AcDbLine
 10
-140.3344834694853
 20
379.4431783809617
 30
0.0
 11
-140.3344834694854
 21
104.4431783809615
 31
0.0
  0
INSERT
  5
2D1
330
2CD
100
AcDbEntity
  8
koty
 62
     0
370
    -2
100
AcDbBlockReference
  2
VDDIM_DEFAULT
 10
-140.3344834694853
 20
399.4431783809617
 30
0.0
 41
20.0
 42
20.0
 43
20.0
 50
89.99999999999999
  0
INSERT
  5
2D2
330
2CD
100
AcDbEntity
  8
koty
 62
     0
370
    -2
100
AcDbBlockReference
  2
VDDIM_DEFAULT
 10
-140.3344834694854
 20
84.44317838096146
 30
0.0
 41
20.0
 42
20.0
 43
20.0
 50
270.0
  0
MTEXT
  5
2D3
330
2CD
100
AcDbEntity
  8
koty
100
AcDbMText
 10
-156.5844834694854
 20
241.9431783809616
 30
0.0
 40
20.0
 41
0.0
 71
     5
 72
     1
  1
\A1;315
 11
9.022764898540946E-17
 21
1.0
 31
0.0
 73
     1
 44
1.0
  0
POINT
  5
2D4
330
2CD
100
AcDbEntity
  8
Defpoints
 62
     0
100
AcDbPoint
 10
-97.6958192782154
 20
399.4431783809618
 30
0.0
  0
POINT
  5
2D5
330
2CD
100
AcDbEntity
  8
Defpoints
 62
     0
100
AcDbPoint
 10
-97.69581927821555
 20
84.44317838096146
 30
0.0
  0
POINT
  5
2D6
330
2CD
100
AcDbEntity
  8
Defpoints
 62
     0
100
AcDbPoint
 10
-140.3344834694854
 20
84.44317838096146
 30
0.0
  0
ENDBLK
  5
2D8
330
2CD
100
AcDbEntity
  8
0
100
AcDbBlockEnd
  0
BLOCK
  5
2E3
330
2D9
100
AcDbEntity
  8
0
100
AcDbBlockBegin
  2
*D4
 70
     1
 71
     0
 10
0.0
 20
0.0
 30
0.0
  3
*D4
  1

  0
LINE
  5
2DA
330
2D9
100
AcDbEntity
  8
koty
 62
     0
370
    -2
100
AcDbLine
 10
-103.9458192782154
 20
419.4431783809617
 30
0.0
 11
-204.6641795444866
 21
419.4431783809617
 31
0.0
  0
LINE
  5
2DB
330
2D9
100
AcDbEntity
  8
koty
 62
     0
370
    -2
100
AcDbLine
 10
-103.9458192782156
 20
64.44317838096151
 30
0.0
 11
-204.6641795444866
 21
64.44317838096151
 31
0.0
  0
LINE
  5
2DC
330
2D9
100
AcDbEntity
  8
koty
 62
     0
370
    -2
100
AcDbLine
 10
-192.1641795444866
 20
399.4431783809617
 30
0.0
 11
-192.1641795444866
 21
84.44317838096151
 31
0.0
  0
INSERT
  5
2DD
330
2D9
100
AcDbEntity
  8
koty
 62
     0
370
    -2
100
AcDbBlockReference
  2
VDDIM_DEFAULT
 10
-192.1641795444866
 20
419.4431783809617
 30
0.0
 41
20.0
 42
20.0
 43
20.0
 50
90.0
  0
INSERT
  5
2DE
330
2D9
100
AcDbEntity
  8
koty
 62
     0
370
    -2
100
AcDbBlockReference
  2
VDDIM_DEFAULT
 10
-192.1641795444866
 20
64.44317838096151
 30
0.0
 41
20.0
 42
20.0
 43
20.0
 50
270.0
  0
MTEXT
  5
2DF
330
2D9
100
AcDbEntity
  8
koty
100
AcDbMText
 10
-208.4141795444866
 20
241.9431783809616
 30
0.0
 40
20.0
 41
0.0
 71
     5
 72
     1
  1
\A1;355
 11
8.006115332508168E-17
 21
1.0
 31
0.0
 73
     1
 44
1.0
  0
POINT
  5
2E0
330
2D9
100
AcDbEntity
  8
Defpoints
 62
     0
100
AcDbPoint
 10
-97.69581927821537
 20
419.4431783809617
 30
0.0
  0
POINT
  5
2E1
330
2D9
100
AcDbEntity
  8
Defpoints
 62
     0
100
AcDbPoint
 10
-97.69581927821558
 20
64.44317838096151
 30
0.0
  0
POINT
  5
2E2
330
2D9
100
AcDbEntity
  8
Defpoints
 62
     0
100
AcDbPoint
 10
-192.1641795444866
 20
64.44317838096151
 30
0.0
  0
ENDBLK
  5
2E4
330
2D9
100
AcDbEntity
  8
0
100
AcDbBlockEnd
  0
BLOCK
  5
2EF
330
2E5
100
AcDbEntity
  8
0
100
AcDbBlockBegin
  2
*D5
 70
     1
 71
     0
 10
0.0
 20
0.0
 30
0.0
  3
*D5
  1

  0
LINE
  5
2E6
330
2E5
100
AcDbEntity
  8
koty
 62
     0
370
    -2
100
AcDbLine
 10
-103.9458192782156
 20
48.94317838096146
 30
0.0
 11
-277.7607760024548
 21
48.94317838096139
 31
0.0
  0
LINE
  5
2E7
330
2E5
100
AcDbEntity
  8
koty
 62
     0
370
    -2
100
AcDbLine
 10
-103.9458192782154
 20
434.9431783809618
 30
0.0
 11
-277.7607760024548
 21
434.9431783809618
 31
0.0
  0
LINE
  5
2E8
330
2E5
100
AcDbEntity
  8
koty
 62
     0
370
    -2
100
AcDbLine
 10
-265.2607760024548
 20
68.9431783809614
 30
0.0
 11
-265.2607760024548
 21
414.9431783809618
 31
0.0
  0
INSERT
  5
2E9
330
2E5
100
AcDbEntity
  8
koty
 62
     0
370
    -2
100
AcDbBlockReference
  2
VDDIM_DEFAULT
 10
-265.2607760024548
 20
48.9431783809614
 30
0.0
 41
20.0
 42
20.0
 43
20.0
 50
270.0
  0
INSERT
  5
2EA
330
2E5
100
AcDbEntity
  8
koty
 62
     0
370
    -2
100
AcDbBlockReference
  2
VDDIM_DEFAULT
 10
-265.2607760024548
 20
434.9431783809618
 30
0.0
 41
20.0
 42
20.0
 43
20.0
 50
90.0
  0
MTEXT
  5
2EB
330
2E5
100
AcDbEntity
  8
koty
100
AcDbMText
 10
-281.5107760024548
 20
241.9431783809616
 30
0.0
 40
20.0
 41
0.0
 71
     5
 72
     1
  1
\A1;386
 11
0.0
 21
-1.0
 31
0.0
 73
     1
 44
1.0
  0
POINT
  5
2EC
330
2E5
100
AcDbEntity
  8
Defpoints
 62
     0
100
AcDbPoint
 10
-97.6958192782156
 20
48.94317838096146
 30
0.0
  0
POINT
  5
2ED
330
2E5
100
AcDbEntity
  8
Defpoints
 62
     0
100
AcDbPoint
 10
-97.69581927821537
 20
434.9431783809618
 30
0.0
  0
POINT
  5
2EE
330
2E5
100
AcDbEntity
  8
Defpoints
 62
     0
100
AcDbPoint
 10
-265.2607760024548
 20
434.9431783809618
 30
0.0
  0
ENDBLK
  5
2F0
330
2E5
100
AcDbEntity
  8
0
100
AcDbBlockEnd
  0
BLOCK
  5
2FB
330
2F1
100
AcDbEntity
  8
0
100
AcDbBlockBegin
  2
*D6
 70
     1
 71
     0
 10
0.0
 20
0.0
 30
0.0
  3
*D6
  1

  0
LINE
  5
2F2
330
2F1
100
AcDbEntity
  8
koty
 62
     0
370
    -2
100
AcDbLine
 10
-97.6958192782156
 20
42.69317838096146
 30
0.0
 11
-97.6958192782156
 21
-31.62966385777576
 31
0.0
  0
LINE
  5
2F3
330
2F1
100
AcDbEntity
  8
koty
 62
     0
370
    -2
100
AcDbLine
 10
72.30418072178441
 20
42.69317838096128
 30
0.0
 11
72.30418072178441
 21
-31.62966385777578
 31
0.0
  0
LINE
  5
2F4
330
2F1
100
AcDbEntity
  8
koty
 62
     0
370
    -2
100
AcDbLine
 10
-77.6958192782156
 20
-19.12966385777576
 30
0.0
 11
52.30418072178441
 21
-19.12966385777578
 31
0.0
  0
INSERT
  5
2F5
330
2F1
100
AcDbEntity
  8
koty
 62
     0
370
    -2
100
AcDbBlockReference
  2
VDDIM_DEFAULT
 10
-97.6958192782156
 20
-19.12966385777576
 30
0.0
 41
20.0
 42
20.0
 43
20.0
 50
180.0
  0
INSERT
  5
2F6
330
2F1
100
AcDbEntity
  8
koty
 62
     0
370
    -2
100
AcDbBlockReference
  2
VDDIM_DEFAULT
 10
72.30418072178441
 20
-19.12966385777578
 30
0.0
 41
20.0
 42
20.0
 43
20.0
 50
360.0
  0
MTEXT
  5
2F7
330
2F1
100
AcDbEntity
  8
koty
100
AcDbMText
 10
-12.69581927821558
 20
-2.879663857775775
 30
0.0
 40
20.0
 41
0.0
 71
     5
 72
     1
  1
\A1;170
 73
     1
 44
1.0
  0
POINT
  5
2F8
330
2F1
100
AcDbEntity
  8
Defpoints
 62
     0
100
AcDbPoint
 10
-97.6958192782156
 20
48.94317838096146
 30
0.0
  0
POINT
  5
2F9
330
2F1
100
AcDbEntity
  8
Defpoints
 62
     0
100
AcDbPoint
 10
72.30418072178441
 20
48.94317838096128
 30
0.0
  0
POINT
  5
2FA
330
2F1
100
AcDbEntity
  8
Defpoints
 62
     0
100
AcDbPoint
 10
72.30418072178441
 20
-19.12966385777578
 30
0.0
  0
ENDBLK
  5
2FC
330
2F1
100
AcDbEntity
  8
0
100
AcDbBlockEnd
  0
BLOCK
  5
306
330
2FD
100
AcDbEntity
  8
0
100
AcDbBlockBegin
  2
*D7
 70
     1
 71
     0
 10
0.0
 20
0.0
 30
0.0
  3
*D7
  1

  0
LINE
  5
2FE
330
2FD
100
AcDbEntity
  8
koty
 62
     0
370
    -2
100
AcDbLine
 10
394.0895736404533
 20
419.3957875586524
 30
0.0
 11
386.0023424338847
 21
419.4073709042557
 31
0.0
  0
LINE
  5
2FF
330
2FD
100
AcDbEntity
  8
koty
 62
     0
370
    -2
100
AcDbLine
 10
336.0023937209267
 20
419.4789858576677
 30
0.0
 11
316.0024142357434
 21
419.5076318390325
 31
0.0
  0
MTEXT
  5
300
330
2FD
100
AcDbEntity
  8
koty
100
AcDbMText
 10
362.6382143142257
 20
445.0665246461022
 30
0.0
 40
20.0
 41
0.0
 71
     5
 72
     1
  1
\A1;\U+220510
 11
0.9999989742591635
 21
-0.001432299068238769
 31
0.0
 73
     1
 44
1.0
  0
INSERT
  5
301
330
2FD
100
AcDbEntity
  8
koty
 62
     0
370
    -2
100
AcDbBlockReference
  2
VDDIM_DEFAULT
 10
366.0023629487015
 20
419.4360168856205
 30
0.0
 41
20.0
 42
20.0
 43
20.0
 50
179.9179352803304
  0
INSERT
  5
302
330
2FD
100
AcDbEntity
  8
koty
 62
     0
370
    -2
100
AcDbBlockReference
  2
VDDIM_DEFAULT
 10
356.0023732061099
 20
419.4503398763029
 30
0.0
 41
20.0
 42
20.0
 43
20.0
 50
359.9179352803303
  0
LINE
  5
303
330
2FD
100
AcDbEntity
  8
koty
 62
     0
370
    -2
100
AcDbLine
 10
356.0023732061099
 20
419.4503398763029
 30
0.0
 11
366.0023629487015
 21
419.4360168856205
 31
0.0
  0
POINT
  5
304
330
2FD
100
AcDbEntity
  8
Defpoints
 62
     0
100
AcDbPoint
 10
366.0023629487015
 20
419.4360168856205
 30
0.0
  0
POINT
  5
305
330
2FD
100
AcDbEntity
  8
Defpoints
 62
     0
100
AcDbPoint
 10
356.0023732061099
 20
419.4503398763029
 30
0.0
  0
ENDBLK
  5
307
330
2FD
100
AcDbEntity
  8
0
100
AcDbBlockEnd
  0
ENDSEC
  0
SECTION
  2
ENTITIES
  0
CIRCLE
  5
34
330
29E
100
AcDbEntity
  8
0
100
AcDbCircle
 10
361.0023680774056
 20
241.9431783809617
 30
0.0
 40
193.0
  0
CIRCLE
  5
35
330
29E
100
AcDbEntity
  8
0
100
AcDbCircle
 10
361.0023680774056
 20
241.9431783809617
 30
0.0
 40
157.5
  0
CIRCLE
  5
37
330
29E
100
AcDbEntity
  8
0
100
AcDbCircle
 10
361.0023680774056
 20
241.9431783809617
 30
0.0
 40
31.5
  0
CIRCLE
  5
38
330
29E
100
AcDbEntity
  8
0
100
AcDbCircle
 10
361.0023680774056
 20
241.9431783809617
 30
0.0
 40
18.89999999999999
  0
CIRCLE
  5
3E
330
29E
100
AcDbEntity
  8
0
100
AcDbCircle
 10
361.0023680774056
 20
419.4431783809617
 30
0.0
 40
5.0
  0
CIRCLE
  5
3F
330
29E
100
AcDbEntity
  8
0
100
AcDbCircle
 10
272.2523680774057
 20
395.6626875526996
 30
0.0
 40
5.0
  0
CIRCLE
  5
40
330
29E
100
AcDbEntity
  8
0
100
AcDbCircle
 10
207.2828589056678
 20
330.6931783809617
 30
0.0
 40
5.0
  0
CIRCLE
  5
41
330
29E
100
AcDbEntity
  8
0
100
AcDbCircle
 10
183.5023680774057
 20
241.9431783809617
 30
0.0
 40
5.0
  0
CIRCLE
  5
42
330
29E
100
AcDbEntity
  8
0
100
AcDbCircle
 10
207.2828589056677
 20
153.1931783809618
 30
0.0
 40
5.0
  0
CIRCLE
  5
43
330
29E
100
AcDbEntity
  8
0
100
AcDbCircle
 10
272.2523680774056
 20
88.22366920922389
 30
0.0
 40
5.0
  0
CIRCLE
  5
44
330
29E
100
AcDbEntity
  8
0
100
AcDbCircle
 10
361.0023680774057
 20
64.44317838096171
 30
0.0
 40
5.0
  0
CIRCLE
  5
45
330
29E
100
AcDbEntity
  8
0
100
AcDbCircle
 10
449.7523680774055
 20
88.22366920922391
 30
0.0
 40
5.0
  0
CIRCLE
  5
46
330
29E
100
AcDbEntity
  8
0
100
AcDbCircle
 10
514.7218772491434
 20
153.1931783809616
 30
0.0
 40
5.0
  0
CIRCLE
  5
47
330
29E
100
AcDbEntity
  8
0
100
AcDbCircle
 10
538.5023680774057
 20
241.9431783809617
 30
0.0
 40
5.0
  0
CIRCLE
  5
48
330
29E
100
AcDbEntity
  8
0
100
AcDbCircle
 10
514.7218772491434
 20
330.6931783809618
 30
0.0
 40
5.0
  0
CIRCLE
  5
49
330
29E
100
AcDbEntity
  8
0
100
AcDbCircle
 10
449.7523680774055
 20
395.6626875526996
 30
0.0
 40
5.0
  0
LINE
  5
4A
330
29E
100
AcDbEntity
  8
0
100
AcDbLine
 10
370.3550070443047
 20
258.3668851597264
 30
0.0
 11
468.7800184759388
 21
356.7918965913604
 31
0.0
  0
LINE
  5
4B
330
29E
100
AcDbEntity
  8
0
100
AcDbLine
 10
377.4260748561703
 20
251.2958173478608
 30
0.0
 11
475.8510862878043
 21
349.7208287794949
 31
0.0
  0
LINE
  5
4D
330
29E
100
AcDbEntity
  8
0
100
AcDbLine
 10
371.2355258488349
 20
257.8331904018834
 30
0.0
 11
469.5073366612247
 21
356.1050012142733
 31
0.0
  0
LINE
  5
4E
330
29E
100
AcDbEntity
  8
0
100
AcDbLine
 10
376.8923800983273
 20
252.176336152391
 30
0.0
 11
475.1641909107171
 21
350.4481469647809
 31
0.0
  0
LINE
  5
51
330
29E
100
AcDbEntity
  8
0
100
AcDbLine
 10
344.578661298641
 20
251.2958173478608
 30
0.0
 11
246.1536498670069
 21
349.7208287794949
 31
0.0
  0
LINE
  5
52
330
29E
100
AcDbEntity
  8
0
100
AcDbLine
 10
345.1123560564839
 20
252.176336152391
 30
0.0
 11
246.840545244094
 21
350.4481469647809
 31
0.0
  0
LINE
  5
53
330
29E
100
AcDbEntity
  8
0
100
AcDbLine
 10
351.6497291105065
 20
258.3668851597264
 30
0.0
 11
253.2247176788724
 21
356.7918965913604
 31
0.0
  0
LINE
  5
54
330
29E
100
AcDbEntity
  8
0
100
AcDbLine
 10
350.7692103059763
 20
257.8331904018834
 30
0.0
 11
252.4973994935864
 21
356.1050012142733
 31
0.0
  0
LINE
  5
55
330
29E
100
AcDbEntity
  8
0
100
AcDbLine
 10
351.6497291105064
 20
225.519471602197
 30
0.0
 11
253.2247176788724
 21
127.094460170563
 31
0.0
  0
LINE
  5
56
330
29E
100
AcDbEntity
  8
0
100
AcDbLine
 10
350.7692103059762
 20
226.05316636004
 30
0.0
 11
252.4973994935864
 21
127.7813555476501
 31
0.0
  0
LINE
  5
57
330
29E
100
AcDbEntity
  8
0
100
AcDbLine
 10
344.5786612986409
 20
232.5905394140626
 30
0.0
 11
246.1536498670069
 21
134.1655279824285
 31
0.0
  0
LINE
  5
58
330
29E
100
AcDbEntity
  8
0
100
AcDbLine
 10
345.1123560564839
 20
231.7100206095324
 30
0.0
 11
246.840545244094
 21
133.4382097971425
 31
0.0
  0
LINE
  5
59
330
29E
100
AcDbEntity
  8
0
100
AcDbLine
 10
377.4260748561703
 20
232.5905394140626
 30
0.0
 11
475.8510862878043
 21
134.1655279824285
 31
0.0
  0
LINE
  5
5A
330
29E
100
AcDbEntity
  8
0
100
AcDbLine
 10
376.8923800983273
 20
231.7100206095324
 30
0.0
 11
475.1641909107171
 21
133.4382097971425
 31
0.0
  0
LINE
  5
5B
330
29E
100
AcDbEntity
  8
0
100
AcDbLine
 10
370.3550070443047
 20
225.5194716021971
 30
0.0
 11
468.7800184759388
 21
127.094460170563
 31
0.0
  0
LINE
  5
5C
330
29E
100
AcDbEntity
  8
0
100
AcDbLine
 10
371.2355258488349
 20
226.0531663600401
 30
0.0
 11
469.5073366612247
 21
127.7813555476501
 31
0.0
  0
LINE
  5
5D
330
29E
100
AcDbEntity
  8
0
100
AcDbLine
 10
360.5940529459418
 20
260.8387672512091
 30
0.0
 11
360.5940529459419
 21
269.0884974017675
 31
0.0
  0
LINE
  5
5E
330
29E
100
AcDbEntity
  8
0
100
AcDbLine
 10
360.5940529459419
 20
269.0884974017675
 30
0.0
 11
361.0023680774056
 21
269.0884974017675
 31
0.0
  0
LINE
  5
5F
330
29E
100
AcDbEntity
  8
0
100
AcDbLine
 10
361.4106832088694
 20
260.8387672512091
 30
0.0
 11
361.4106832088693
 21
269.0884974017675
 31
0.0
  0
LINE
  5
60
330
29E
100
AcDbEntity
  8
0
100
AcDbLine
 10
361.4106832088693
 20
269.0884974017675
 30
0.0
 11
361.0023680774057
 21
269.0884974017675
 31
0.0
  0
LINE
  5
61
330
29E
100
AcDbEntity
  8
0
100
AcDbLine
 10
356.9155520893191
 20
260.3960354789701
 30
0.0
 11
355.3061095777005
 21
268.4872493779366
 31
0.0
  0
LINE
  5
62
330
29E
100
AcDbEntity
  8
0
100
AcDbLine
 10
357.7164910307303
 20
260.5553521399329
 30
0.0
 11
356.1070485191116
 21
268.6465660388992
 31
0.0
  0
LINE
  5
63
330
29E
100
AcDbEntity
  8
0
100
AcDbLine
 10
356.1070485191116
 20
268.6465660388992
 30
0.0
 11
355.7065790484061
 21
268.5669077084179
 31
0.0
  0
LINE
  5
64
330
29E
100
AcDbEntity
  8
0
100
AcDbLine
 10
355.3061095777005
 20
268.4872493779366
 30
0.0
 11
355.706579048406
 21
268.5669077084179
 31
0.0
  0
LINE
  5
65
330
29E
100
AcDbEntity
  8
0
100
AcDbLine
 10
353.3941052792057
 20
259.2441707569362
 30
0.0
 11
350.2370702291043
 21
266.8659275917784
 31
0.0
  0
LINE
  5
66
330
29E
100
AcDbEntity
  8
0
100
AcDbLine
 10
354.1485732647538
 20
259.5566816289265
 30
0.0
 11
350.9915382146523
 21
267.1784384637686
 31
0.0
  0
LINE
  5
67
330
29E
100
AcDbEntity
  8
0
100
AcDbLine
 10
350.9915382146523
 20
267.1784384637686
 30
0.0
 11
350.6143042218784
 21
267.0221830277735
 31
0.0
  0
LINE
  5
68
330
29E
100
AcDbEntity
  8
0
100
AcDbLine
 10
350.2370702291043
 20
266.8659275917784
 30
0.0
 11
350.6143042218783
 21
267.0221830277735
 31
0.0
  0
LINE
  5
69
330
29E
100
AcDbEntity
  8
0
100
AcDbLine
 10
350.1650397416643
 20
257.4274386004018
 30
0.0
 11
345.5817352395697
 21
264.2868385302873
 31
0.0
  0
LINE
  5
6A
330
29E
100
AcDbEntity
  8
0
100
AcDbLine
 10
350.8440429897751
 20
257.8811340658674
 30
0.0
 11
346.2607384876806
 21
264.7405339957527
 31
0.0
  0
LINE
  5
6B
330
29E
100
AcDbEntity
  8
0
100
AcDbLine
 10
346.2607384876806
 20
264.7405339957527
 30
0.0
 11
345.9212368636252
 21
264.51368626302
 31
0.0
  0
LINE
  5
6C
330
29E
100
AcDbEntity
  8
0
100
AcDbLine
 10
345.5817352395697
 20
264.2868385302873
 30
0.0
 11
345.9212368636251
 21
264.51368626302
 31
0.0
  0
LINE
  5
6D
330
29E
100
AcDbEntity
  8
0
100
AcDbLine
 10
347.3524466544215
 20
255.0156550073075
 30
0.0
 11
341.5190065220026
 21
260.8490951397265
 31
0.0
  0
LINE
  5
6E
330
29E
100
AcDbEntity
  8
0
100
AcDbLine
 10
347.9298914510597
 20
255.5930998039457
 30
0.0
 11
342.0964513186408
 21
261.4265399363647
 31
0.0
  0
LINE
  5
6F
330
29E
100
AcDbEntity
  8
0
100
AcDbLine
 10
342.0964513186408
 20
261.4265399363647
 30
0.0
 11
341.8077289203217
 21
261.1378175380457
 31
0.0
  0
LINE
  5
70
330
29E
100
AcDbEntity
  8
0
100
AcDbLine
 10
341.5190065220026
 20
260.8490951397265
 30
0.0
 11
341.8077289203216
 21
261.1378175380456
 31
0.0
  0
LINE
  5
71
330
29E
100
AcDbEntity
  8
0
100
AcDbLine
 10
345.0644123925
 20
252.1015034685921
 30
0.0
 11
338.2050124626147
 21
256.6848079706867
 31
0.0
  0
LINE
  5
72
330
29E
100
AcDbEntity
  8
0
100
AcDbLine
 10
345.5181078579655
 20
252.780506716703
 30
0.0
 11
338.6587079280801
 21
257.3638112187975
 31
0.0
  0
LINE
  5
73
330
29E
100
AcDbEntity
  8
0
100
AcDbLine
 10
338.6587079280801
 20
257.3638112187975
 30
0.0
 11
338.4318601953474
 21
257.0243095947422
 31
0.0
  0
LINE
  5
74
330
29E
100
AcDbEntity
  8
0
100
AcDbLine
 10
338.2050124626147
 20
256.6848079706867
 30
0.0
 11
338.4318601953474
 21
257.0243095947421
 31
0.0
  0
LINE
  5
75
330
29E
100
AcDbEntity
  8
0
100
AcDbLine
 10
343.3888648294408
 20
248.7969731936135
 30
0.0
 11
335.7671079945987
 21
251.954008243715
 31
0.0
  0
LINE
  5
76
330
29E
100
AcDbEntity
  8
0
100
AcDbLine
 10
343.7013757014311
 20
249.5514411791616
 30
0.0
 11
336.079618866589
 21
252.708476229263
 31
0.0
  0
LINE
  5
77
330
29E
100
AcDbEntity
  8
0
100
AcDbLine
 10
336.079618866589
 20
252.708476229263
 30
0.0
 11
335.9233634305939
 21
252.3312422364891
 31
0.0
  0
LINE
  5
78
330
29E
100
AcDbEntity
  8
0
100
AcDbLine
 10
335.7671079945987
 20
251.954008243715
 30
0.0
 11
335.9233634305938
 21
252.3312422364889
 31
0.0
  0
LINE
  5
79
330
29E
100
AcDbEntity
  8
0
100
AcDbLine
 10
342.3901943184346
 20
245.229055427637
 30
0.0
 11
334.2989804194682
 21
246.8384979392556
 31
0.0
  0
LINE
  5
7A
330
29E
100
AcDbEntity
  8
0
100
AcDbLine
 10
342.5495109793972
 20
246.0299943690481
 30
0.0
 11
334.4582970804308
 21
247.6394368806667
 31
0.0
  0
LINE
  5
7B
330
29E
100
AcDbEntity
  8
0
100
AcDbLine
 10
334.4582970804308
 20
247.6394368806667
 30
0.0
 11
334.3786387499495
 21
247.2389674099612
 31
0.0
  0
LINE
  5
7C
330
29E
100
AcDbEntity
  8
0
100
AcDbLine
 10
334.2989804194682
 20
246.8384979392556
 30
0.0
 11
334.3786387499495
 21
247.2389674099611
 31
0.0
  0
LINE
  5
7D
330
29E
100
AcDbEntity
  8
0
100
AcDbLine
 10
342.1067792071582
 20
241.5348632494978
 30
0.0
 11
333.8570490565998
 21
241.5348632494979
 31
0.0
  0
LINE
  5
7E
330
29E
100
AcDbEntity
  8
0
100
AcDbLine
 10
342.1067792071582
 20
242.3514935124254
 30
0.0
 11
333.8570490565998
 21
242.3514935124253
 31
0.0
  0
LINE
  5
7F
330
29E
100
AcDbEntity
  8
0
100
AcDbLine
 10
333.8570490565998
 20
242.3514935124253
 30
0.0
 11
333.8570490565998
 21
241.9431783809617
 31
0.0
  0
LINE
  5
80
330
29E
100
AcDbEntity
  8
0
100
AcDbLine
 10
333.8570490565998
 20
241.5348632494979
 30
0.0
 11
333.8570490565998
 21
241.9431783809616
 31
0.0
  0
LINE
  5
81
330
29E
100
AcDbEntity
  8
0
100
AcDbLine
 10
342.5495109793974
 20
237.8563623928751
 30
0.0
 11
334.458297080431
 21
236.2469198812567
 31
0.0
  0
LINE
  5
82
330
29E
100
AcDbEntity
  8
0
100
AcDbLine
 10
342.3901943184347
 20
238.6573013342863
 30
0.0
 11
334.2989804194683
 21
237.0478588226677
 31
0.0
  0
LINE
  5
83
330
29E
100
AcDbEntity
  8
0
100
AcDbLine
 10
334.2989804194683
 20
237.0478588226677
 30
0.0
 11
334.3786387499497
 21
236.6473893519622
 31
0.0
  0
LINE
  5
84
330
29E
100
AcDbEntity
  8
0
100
AcDbLine
 10
334.458297080431
 20
236.2469198812567
 30
0.0
 11
334.3786387499497
 21
236.6473893519621
 31
0.0
  0
LINE
  5
85
330
29E
100
AcDbEntity
  8
0
100
AcDbLine
 10
343.7013757014312
 20
234.3349155827617
 30
0.0
 11
336.079618866589
 21
231.1778805326603
 31
0.0
  0
LINE
  5
86
330
29E
100
AcDbEntity
  8
0
100
AcDbLine
 10
343.3888648294408
 20
235.0893835683098
 30
0.0
 11
335.7671079945987
 21
231.9323485182084
 31
0.0
  0
LINE
  5
87
330
29E
100
AcDbEntity
  8
0
100
AcDbLine
 10
335.7671079945987
 20
231.9323485182084
 30
0.0
 11
335.9233634305939
 21
231.5551145254344
 31
0.0
  0
LINE
  5
88
330
29E
100
AcDbEntity
  8
0
100
AcDbLine
 10
336.079618866589
 20
231.1778805326603
 30
0.0
 11
335.9233634305939
 21
231.5551145254343
 31
0.0
  0
LINE
  5
89
330
29E
100
AcDbEntity
  8
0
100
AcDbLine
 10
345.5181078579655
 20
231.1058500452202
 30
0.0
 11
338.6587079280801
 21
226.5225455431257
 31
0.0
  0
LINE
  5
8A
330
29E
100
AcDbEntity
  8
0
100
AcDbLine
 10
345.0644123925
 20
231.7848532933311
 30
0.0
 11
338.2050124626146
 21
227.2015487912365
 31
0.0
  0
LINE
  5
8B
330
29E
100
AcDbEntity
  8
0
100
AcDbLine
 10
338.2050124626146
 20
227.2015487912365
 30
0.0
 11
338.4318601953473
 21
226.8620471671812
 31
0.0
  0
LINE
  5
8C
330
29E
100
AcDbEntity
  8
0
100
AcDbLine
 10
338.6587079280801
 20
226.5225455431257
 30
0.0
 11
338.4318601953474
 21
226.8620471671811
 31
0.0
  0
LINE
  5
8D
330
29E
100
AcDbEntity
  8
0
100
AcDbLine
 10
347.9298914510599
 20
228.2932569579775
 30
0.0
 11
342.0964513186409
 21
222.4598168255587
 31
0.0
  0
LINE
  5
8E
330
29E
100
AcDbEntity
  8
0
100
AcDbLine
 10
347.3524466544216
 20
228.8707017546158
 30
0.0
 11
341.5190065220027
 21
223.0372616221968
 31
0.0
  0
LINE
  5
8F
330
29E
100
AcDbEntity
  8
0
100
AcDbLine
 10
341.5190065220027
 20
223.0372616221968
 30
0.0
 11
341.8077289203218
 21
222.7485392238778
 31
0.0
  0
LINE
  5
90
330
29E
100
AcDbEntity
  8
0
100
AcDbLine
 10
342.0964513186409
 20
222.4598168255587
 30
0.0
 11
341.8077289203218
 21
222.7485392238777
 31
0.0
  0
LINE
  5
91
330
29E
100
AcDbEntity
  8
0
100
AcDbLine
 10
350.8440429897753
 20
226.005222696056
 30
0.0
 11
346.2607384876806
 21
219.1458227661706
 31
0.0
  0
LINE
  5
92
330
29E
100
AcDbEntity
  8
0
100
AcDbLine
 10
350.1650397416643
 20
226.4589181615215
 30
0.0
 11
345.5817352395698
 21
219.5995182316361
 31
0.0
  0
LINE
  5
93
330
29E
100
AcDbEntity
  8
0
100
AcDbLine
 10
345.5817352395698
 20
219.5995182316361
 30
0.0
 11
345.9212368636251
 21
219.3726704989034
 31
0.0
  0
LINE
  5
94
330
29E
100
AcDbEntity
  8
0
100
AcDbLine
 10
346.2607384876806
 20
219.1458227661706
 30
0.0
 11
345.9212368636252
 21
219.3726704989033
 31
0.0
  0
LINE
  5
95
330
29E
100
AcDbEntity
  8
0
100
AcDbLine
 10
354.1485732647538
 20
224.3296751329968
 30
0.0
 11
350.9915382146523
 21
216.7079182981547
 31
0.0
  0
LINE
  5
96
330
29E
100
AcDbEntity
  8
0
100
AcDbLine
 10
353.3941052792058
 20
224.6421860049871
 30
0.0
 11
350.2370702291043
 21
217.020429170145
 31
0.0
  0
LINE
  5
97
330
29E
100
AcDbEntity
  8
0
100
AcDbLine
 10
350.2370702291043
 20
217.020429170145
 30
0.0
 11
350.6143042218783
 21
216.8641737341499
 31
0.0
  0
LINE
  5
98
330
29E
100
AcDbEntity
  8
0
100
AcDbLine
 10
350.9915382146523
 20
216.7079182981547
 30
0.0
 11
350.6143042218784
 21
216.8641737341498
 31
0.0
  0
LINE
  5
99
330
29E
100
AcDbEntity
  8
0
100
AcDbLine
 10
357.7164910307304
 20
223.3310046219906
 30
0.0
 11
356.1070485191117
 21
215.2397907230242
 31
0.0
  0
LINE
  5
9A
330
29E
100
AcDbEntity
  8
0
100
AcDbLine
 10
356.9155520893192
 20
223.4903212829532
 30
0.0
 11
355.3061095777006
 21
215.3991073839869
 31
0.0
  0
LINE
  5
9B
330
29E
100
AcDbEntity
  8
0
100
AcDbLine
 10
355.3061095777006
 20
215.3991073839869
 30
0.0
 11
355.7065790484061
 21
215.3194490535056
 31
0.0
  0
LINE
  5
9C
330
29E
100
AcDbEntity
  8
0
100
AcDbLine
 10
356.1070485191117
 20
215.2397907230242
 30
0.0
 11
355.7065790484063
 21
215.3194490535055
 31
0.0
  0
LINE
  5
9D
330
29E
100
AcDbEntity
  8
0
100
AcDbLine
 10
361.4106832088694
 20
223.0475895107143
 30
0.0
 11
361.4106832088694
 21
214.7978593601559
 31
0.0
  0
LINE
  5
9E
330
29E
100
AcDbEntity
  8
0
100
AcDbLine
 10
360.5940529459419
 20
223.0475895107143
 30
0.0
 11
360.594052945942
 21
214.7978593601559
 31
0.0
  0
LINE
  5
9F
330
29E
100
AcDbEntity
  8
0
100
AcDbLine
 10
360.594052945942
 20
214.7978593601559
 30
0.0
 11
361.0023680774056
 21
214.7978593601559
 31
0.0
  0
LINE
  5
A0
330
29E
100
AcDbEntity
  8
0
100
AcDbLine
 10
361.4106832088694
 20
214.7978593601559
 30
0.0
 11
361.0023680774057
 21
214.7978593601559
 31
0.0
  0
LINE
  5
A1
330
29E
100
AcDbEntity
  8
0
100
AcDbLine
 10
365.0891840654922
 20
223.4903212829533
 30
0.0
 11
366.6986265771107
 21
215.3991073839869
 31
0.0
  0
LINE
  5
A2
330
29E
100
AcDbEntity
  8
0
100
AcDbLine
 10
364.288245124081
 20
223.3310046219906
 30
0.0
 11
365.8976876356997
 21
215.2397907230242
 31
0.0
  0
LINE
  5
A3
330
29E
100
AcDbEntity
  8
0
100
AcDbLine
 10
365.8976876356997
 20
215.2397907230242
 30
0.0
 11
366.2981571064051
 21
215.3194490535056
 31
0.0
  0
LINE
  5
A4
330
29E
100
AcDbEntity
  8
0
100
AcDbLine
 10
366.6986265771107
 20
215.3991073839869
 30
0.0
 11
366.2981571064052
 21
215.3194490535056
 31
0.0
  0
LINE
  5
A5
330
29E
100
AcDbEntity
  8
0
100
AcDbLine
 10
368.6106308756055
 20
224.6421860049872
 30
0.0
 11
371.7676659257069
 21
217.020429170145
 31
0.0
  0
LINE
  5
A6
330
29E
100
AcDbEntity
  8
0
100
AcDbLine
 10
367.8561628900575
 20
224.3296751329968
 30
0.0
 11
371.013197940159
 21
216.7079182981547
 31
0.0
  0
LINE
  5
A7
330
29E
100
AcDbEntity
  8
0
100
AcDbLine
 10
371.013197940159
 20
216.7079182981547
 30
0.0
 11
371.3904319329329
 21
216.8641737341498
 31
0.0
  0
LINE
  5
A8
330
29E
100
AcDbEntity
  8
0
100
AcDbLine
 10
371.7676659257069
 20
217.020429170145
 30
0.0
 11
371.390431932933
 21
216.8641737341499
 31
0.0
  0
LINE
  5
A9
330
29E
100
AcDbEntity
  8
0
100
AcDbLine
 10
371.839696413147
 20
226.4589181615215
 30
0.0
 11
376.4230009152416
 21
219.5995182316361
 31
0.0
  0
LINE
  5
AA
330
29E
100
AcDbEntity
  8
0
100
AcDbLine
 10
371.1606931650362
 20
226.005222696056
 30
0.0
 11
375.7439976671307
 21
219.1458227661706
 31
0.0
  0
LINE
  5
AB
330
29E
100
AcDbEntity
  8
0
100
AcDbLine
 10
375.7439976671307
 20
219.1458227661706
 30
0.0
 11
376.0834992911861
 21
219.3726704989033
 31
0.0
  0
LINE
  5
AC
330
29E
100
AcDbEntity
  8
0
100
AcDbLine
 10
376.4230009152416
 20
219.5995182316361
 30
0.0
 11
376.0834992911862
 21
219.3726704989034
 31
0.0
  0
LINE
  5
AD
330
29E
100
AcDbEntity
  8
0
100
AcDbLine
 10
374.6522895003899
 20
228.8707017546158
 30
0.0
 11
380.4857296328087
 21
223.0372616221968
 31
0.0
  0
LINE
  5
AE
330
29E
100
AcDbEntity
  8
0
100
AcDbLine
 10
374.0748447037516
 20
228.2932569579776
 30
0.0
 11
379.9082848361706
 21
222.4598168255586
 31
0.0
  0
LINE
  5
AF
330
29E
100
AcDbEntity
  8
0
100
AcDbLine
 10
379.9082848361706
 20
222.4598168255586
 30
0.0
 11
380.1970072344896
 21
222.7485392238777
 31
0.0
  0
LINE
  5
B0
330
29E
100
AcDbEntity
  8
0
100
AcDbLine
 10
380.4857296328087
 20
223.0372616221968
 30
0.0
 11
380.1970072344896
 21
222.7485392238778
 31
0.0
  0
LINE
  5
B1
330
29E
100
AcDbEntity
  8
0
100
AcDbLine
 10
376.9403237623114
 20
231.7848532933311
 30
0.0
 11
383.7997236921967
 21
227.2015487912365
 31
0.0
  0
LINE
  5
B2
330
29E
100
AcDbEntity
  8
0
100
AcDbLine
 10
376.4866282968458
 20
231.1058500452202
 30
0.0
 11
383.3460282267312
 21
226.5225455431257
 31
0.0
  0
LINE
  5
B3
330
29E
100
AcDbEntity
  8
0
100
AcDbLine
 10
383.3460282267312
 20
226.5225455431257
 30
0.0
 11
383.572875959464
 21
226.8620471671811
 31
0.0
  0
LINE
  5
B4
330
29E
100
AcDbEntity
  8
0
100
AcDbLine
 10
383.7997236921967
 20
227.2015487912365
 30
0.0
 11
383.572875959464
 21
226.8620471671811
 31
0.0
  0
LINE
  5
B5
330
29E
100
AcDbEntity
  8
0
100
AcDbLine
 10
378.6158713253705
 20
235.0893835683099
 30
0.0
 11
386.2376281602127
 21
231.9323485182084
 31
0.0
  0
LINE
  5
B6
330
29E
100
AcDbEntity
  8
0
100
AcDbLine
 10
378.3033604533802
 20
234.3349155827618
 30
0.0
 11
385.9251172882224
 21
231.1778805326604
 31
0.0
  0
LINE
  5
B7
330
29E
100
AcDbEntity
  8
0
100
AcDbLine
 10
385.9251172882224
 20
231.1778805326604
 30
0.0
 11
386.0813727242174
 21
231.5551145254343
 31
0.0
  0
LINE
  5
B8
330
29E
100
AcDbEntity
  8
0
100
AcDbLine
 10
386.2376281602127
 20
231.9323485182084
 30
0.0
 11
386.0813727242175
 21
231.5551145254344
 31
0.0
  0
LINE
  5
B9
330
29E
100
AcDbEntity
  8
0
100
AcDbLine
 10
379.6145418363768
 20
238.6573013342864
 30
0.0
 11
387.7057557353432
 21
237.0478588226678
 31
0.0
  0
LINE
  5
BA
330
29E
100
AcDbEntity
  8
0
100
AcDbLine
 10
379.4552251754141
 20
237.8563623928753
 30
0.0
 11
387.5464390743806
 21
236.2469198812567
 31
0.0
  0
LINE
  5
BB
330
29E
100
AcDbEntity
  8
0
100
AcDbLine
 10
387.5464390743806
 20
236.2469198812567
 30
0.0
 11
387.6260974048618
 21
236.6473893519621
 31
0.0
  0
LINE
  5
BC
330
29E
100
AcDbEntity
  8
0
100
AcDbLine
 10
387.7057557353432
 20
237.0478588226678
 30
0.0
 11
387.6260974048619
 21
236.6473893519623
 31
0.0
  0
LINE
  5
BD
330
29E
100
AcDbEntity
  8
0
100
AcDbLine
 10
379.8979569476531
 20
242.3514935124255
 30
0.0
 11
388.1476870982115
 21
242.3514935124255
 31
0.0
  0
LINE
  5
BE
330
29E
100
AcDbEntity
  8
0
100
AcDbLine
 10
379.8979569476531
 20
241.534863249498
 30
0.0
 11
388.1476870982115
 21
241.534863249498
 31
0.0
  0
LINE
  5
BF
330
29E
100
AcDbEntity
  8
0
100
AcDbLine
 10
388.1476870982115
 20
241.534863249498
 30
0.0
 11
388.1476870982115
 21
241.9431783809617
 31
0.0
  0
LINE
  5
C0
330
29E
100
AcDbEntity
  8
0
100
AcDbLine
 10
388.1476870982115
 20
242.3514935124255
 30
0.0
 11
388.1476870982115
 21
241.9431783809618
 31
0.0
  0
LINE
  5
C1
330
29E
100
AcDbEntity
  8
0
100
AcDbLine
 10
379.4552251754141
 20
246.0299943690482
 30
0.0
 11
387.5464390743805
 21
247.6394368806668
 31
0.0
  0
LINE
  5
C2
330
29E
100
AcDbEntity
  8
0
100
AcDbLine
 10
379.6145418363767
 20
245.2290554276371
 30
0.0
 11
387.7057557353431
 21
246.8384979392557
 31
0.0
  0
LINE
  5
C3
330
29E
100
AcDbEntity
  8
0
100
AcDbLine
 10
387.7057557353431
 20
246.8384979392557
 30
0.0
 11
387.6260974048618
 21
247.2389674099612
 31
0.0
  0
LINE
  5
C4
330
29E
100
AcDbEntity
  8
0
100
AcDbLine
 10
387.5464390743805
 20
247.6394368806668
 30
0.0
 11
387.6260974048618
 21
247.2389674099613
 31
0.0
  0
LINE
  5
C5
330
29E
100
AcDbEntity
  8
0
100
AcDbLine
 10
378.3033604533802
 20
249.5514411791616
 30
0.0
 11
385.9251172882223
 21
252.708476229263
 31
0.0
  0
LINE
  5
C6
330
29E
100
AcDbEntity
  8
0
100
AcDbLine
 10
378.6158713253705
 20
248.7969731936135
 30
0.0
 11
386.2376281602126
 21
251.954008243715
 31
0.0
  0
LINE
  5
C7
330
29E
100
AcDbEntity
  8
0
100
AcDbLine
 10
386.2376281602126
 20
251.954008243715
 30
0.0
 11
386.0813727242174
 21
252.3312422364889
 31
0.0
  0
LINE
  5
C8
330
29E
100
AcDbEntity
  8
0
100
AcDbLine
 10
385.9251172882223
 20
252.708476229263
 30
0.0
 11
386.0813727242174
 21
252.3312422364891
 31
0.0
  0
LINE
  5
C9
330
29E
100
AcDbEntity
  8
0
100
AcDbLine
 10
376.4866282968458
 20
252.7805067167032
 30
0.0
 11
383.3460282267312
 21
257.3638112187977
 31
0.0
  0
LINE
  5
CA
330
29E
100
AcDbEntity
  8
0
100
AcDbLine
 10
376.9403237623113
 20
252.1015034685922
 30
0.0
 11
383.7997236921967
 21
256.6848079706868
 31
0.0
  0
LINE
  5
CB
330
29E
100
AcDbEntity
  8
0
100
AcDbLine
 10
383.7997236921967
 20
256.6848079706868
 30
0.0
 11
383.572875959464
 21
257.0243095947422
 31
0.0
  0
LINE
  5
CC
330
29E
100
AcDbEntity
  8
0
100
AcDbLine
 10
383.3460282267312
 20
257.3638112187977
 30
0.0
 11
383.5728759594639
 21
257.0243095947423
 31
0.0
  0
LINE
  5
CD
330
29E
100
AcDbEntity
  8
0
100
AcDbLine
 10
374.0748447037515
 20
255.5930998039458
 30
0.0
 11
379.9082848361706
 21
261.4265399363647
 31
0.0
  0
LINE
  5
CE
330
29E
100
AcDbEntity
  8
0
100
AcDbLine
 10
374.6522895003898
 20
255.0156550073076
 30
0.0
 11
380.4857296328087
 21
260.8490951397266
 31
0.0
  0
LINE
  5
CF
330
29E
100
AcDbEntity
  8
0
100
AcDbLine
 10
380.4857296328087
 20
260.8490951397266
 30
0.0
 11
380.1970072344897
 21
261.1378175380456
 31
0.0
  0
LINE
  5
D0
330
29E
100
AcDbEntity
  8
0
100
AcDbLine
 10
379.9082848361706
 20
261.4265399363647
 30
0.0
 11
380.1970072344896
 21
261.1378175380457
 31
0.0
  0
LINE
  5
D1
330
29E
100
AcDbEntity
  8
0
100
AcDbLine
 10
371.1606931650361
 20
257.8811340658674
 30
0.0
 11
375.7439976671307
 21
264.7405339957527
 31
0.0
  0
LINE
  5
D2
330
29E
100
AcDbEntity
  8
0
100
AcDbLine
 10
371.839696413147
 20
257.4274386004019
 30
0.0
 11
376.4230009152415
 21
264.2868385302873
 31
0.0
  0
LINE
  5
D3
330
29E
100
AcDbEntity
  8
0
100
AcDbLine
 10
376.4230009152415
 20
264.2868385302873
 30
0.0
 11
376.0834992911862
 21
264.51368626302
 31
0.0
  0
LINE
  5
D4
330
29E
100
AcDbEntity
  8
0
100
AcDbLine
 10
375.7439976671307
 20
264.7405339957527
 30
0.0
 11
376.0834992911861
 21
264.51368626302
 31
0.0
  0
LINE
  5
D5
330
29E
100
AcDbEntity
  8
0
100
AcDbLine
 10
367.8561628900574
 20
259.5566816289265
 30
0.0
 11
371.013197940159
 21
267.1784384637686
 31
0.0
  0
LINE
  5
D6
330
29E
100
AcDbEntity
  8
0
100
AcDbLine
 10
368.6106308756055
 20
259.2441707569362
 30
0.0
 11
371.7676659257069
 21
266.8659275917784
 31
0.0
  0
LINE
  5
D7
330
29E
100
AcDbEntity
  8
0
100
AcDbLine
 10
371.7676659257069
 20
266.8659275917784
 30
0.0
 11
371.390431932933
 21
267.0221830277735
 31
0.0
  0
LINE
  5
D8
330
29E
100
AcDbEntity
  8
0
100
AcDbLine
 10
371.013197940159
 20
267.1784384637686
 30
0.0
 11
371.3904319329329
 21
267.0221830277735
 31
0.0
  0
LINE
  5
D9
330
29E
100
AcDbEntity
  8
0
100
AcDbLine
 10
364.2882451240809
 20
260.5553521399328
 30
0.0
 11
365.8976876356996
 21
268.6465660388992
 31
0.0
  0
LINE
  5
DA
330
29E
100
AcDbEntity
  8
0
100
AcDbLine
 10
365.0891840654921
 20
260.3960354789701
 30
0.0
 11
366.6986265771106
 21
268.4872493779365
 31
0.0
  0
LINE
  5
DB
330
29E
100
AcDbEntity
  8
0
100
AcDbLine
 10
366.6986265771106
 20
268.4872493779365
 30
0.0
 11
366.2981571064052
 21
268.5669077084178
 31
0.0
  0
LINE
  5
DC
330
29E
100
AcDbEntity
  8
0
100
AcDbLine
 10
365.8976876356996
 20
268.6465660388992
 30
0.0
 11
366.2981571064051
 21
268.5669077084178
 31
0.0
  0
ARC
  5
E2
330
29E
100
AcDbEntity
  8
0
100
AcDbCircle
 10
69.63688761384735
 20
210.4047175102503
 30
0.0
 40
286.2361204137633
100
AcDbArc
 50
12.26383339942421
 51
31.192115153985
  0
ARC
  5
E3
330
29E
100
AcDbEntity
  8
0
100
AcDbCircle
 10
340.9451829186842
 20
373.2150593631012
 30
0.0
 40
30.19706972318467
100
AcDbArc
 50
143.4141760847346
 51
208.8399473590165
  0
ARC
  5
E4
330
29E
100
AcDbEntity
  8
0
100
AcDbCircle
 10
361.0023680774056
 20
241.9431783809617
 30
0.0
 40
155.7062883293355
100
AcDbArc
 50
74.85924429873278
 51
106.5312416819479
  0
ARC
  5
E5
330
29E
100
AcDbEntity
  8
0
100
AcDbCircle
 10
414.2556593217893
 20
364.719860333849
 30
0.0
 40
30.19706972318467
100
AcDbArc
 50
114.6286305356258
 51
180.0544018099077
  0
ARC
  5
E6
330
29E
100
AcDbEntity
  8
0
100
AcDbCircle
 10
98.07493675285298
 20
352.6720725184852
 30
0.0
 40
286.2361204137633
100
AcDbArc
 50
343.4782878503154
 51
2.406569604876265
  0
ARC
  5
E9
330
29E
100
AcDbEntity
  8
0
100
AcDbCircle
 10
245.8644283623177
 20
308.1085186373602
 30
0.0
 40
30.19706972318467
100
AcDbArc
 50
194.842747513306
 51
260.2685187875879
  0
ARC
  5
EA
330
29E
100
AcDbEntity
  8
0
100
AcDbCircle
 10
203.9967240120152
 20
-5.519435869081092
 30
0.0
 40
286.2361204137633
100
AcDbArc
 50
63.69240482799563
 51
82.62068658255643
  0
ARC
  5
EB
330
29E
100
AcDbEntity
  8
0
100
AcDbCircle
 10
110.498460562049
 20
105.4165712328168
 30
0.0
 40
286.2361204137633
100
AcDbArc
 50
34.90685927888689
 51
53.83514103344769
  0
ARC
  5
EC
330
29E
100
AcDbEntity
  8
0
100
AcDbCircle
 10
298.2145768199602
 20
360.1282871245384
 30
0.0
 40
30.19706972318467
100
AcDbArc
 50
166.0572019641973
 51
231.4829732384791
  0
ARC
  5
ED
330
29E
100
AcDbEntity
  8
0
100
AcDbCircle
 10
361.0023680774056
 20
241.9431783809617
 30
0.0
 40
155.7062883293355
100
AcDbArc
 50
126.2878157273042
 51
157.9598131105194
  0
ARC
  5
EE
330
29E
100
AcDbEntity
  8
0
100
AcDbCircle
 10
237.4848907973611
 20
193.1781271715774
 30
0.0
 40
30.19706972318467
100
AcDbArc
 50
246.2713189418774
 51
311.6970902161593
  0
ARC
  5
EF
330
29E
100
AcDbEntity
  8
0
100
AcDbCircle
 10
456.5850127228978
 20
-35.09919340073366
 30
0.0
 40
286.2361204137633
100
AcDbArc
 50
115.120976256567
 51
134.0492580111278
  0
ARC
  5
F0
330
29E
100
AcDbEntity
  8
0
100
AcDbCircle
 10
311.5565360787819
 20
-39.03161023504577
 30
0.0
 40
286.2361204137633
100
AcDbArc
 50
86.3354307074583
 51
105.263712462019
  0
ARC
  5
F1
330
29E
100
AcDbEntity
  8
0
100
AcDbCircle
 10
229.4539817725177
 20
266.5409164944454
 30
0.0
 40
30.19706972318467
100
AcDbArc
 50
217.4857733927687
 51
282.9115446670506
  0
ARC
  5
F2
330
29E
100
AcDbEntity
  8
0
100
AcDbCircle
 10
361.0023680774058
 20
241.9431783809617
 30
0.0
 40
155.7062883293355
100
AcDbArc
 50
177.7163871558755
 51
209.3883845390908
  0
ARC
  5
F3
330
29E
100
AcDbEntity
  8
0
100
AcDbCircle
 10
322.1165329216423
 20
114.9688138922231
 30
0.0
 40
30.19706972318467
100
AcDbArc
 50
297.6998903704489
 51
3.125661644730772
  0
ARC
  5
F4
330
29E
100
AcDbEntity
  8
0
100
AcDbCircle
 10
637.1976204850994
 20
143.9396056537187
 30
0.0
 40
286.2361204137633
100
AcDbArc
 50
166.5495476851384
 51
185.4778294396992
  0
ARC
  5
F5
330
29E
100
AcDbEntity
  8
0
100
AcDbCircle
 10
549.8483316016379
 20
28.0999549661183
 30
0.0
 40
286.2361204137633
100
AcDbArc
 50
137.7640021360297
 51
156.6922838905905
  0
ARC
  5
F6
330
29E
100
AcDbEntity
  8
0
100
AcDbCircle
 10
259.7520047107095
 20
154.430947362483
 30
0.0
 40
30.19706972318467
100
AcDbArc
 50
268.9143448213401
 51
334.340116095622
  0
ARC
  5
F7
330
29E
100
AcDbEntity
  8
0
100
AcDbCircle
 10
361.0023680774057
 20
241.9431783809617
 30
0.0
 40
155.7062883293355
100
AcDbArc
 50
229.144958584447
 51
260.8169559676622
  0
ARC
  5
F8
330
29E
100
AcDbEntity
  8
0
100
AcDbCircle
 10
436.030002044694
 20
132.3737868779016
 30
0.0
 40
30.19706972318467
100
AcDbArc
 50
349.1284617990203
 51
54.55423307330221
  0
ARC
  5
F9
330
29E
100
AcDbEntity
  8
0
100
AcDbCircle
 10
609.8295698279054
 20
396.7770938803437
 30
0.0
 40
286.2361204137633
100
AcDbArc
 50
217.9781191137099
 51
236.9064008682707
  0
ARC
  5
FA
330
29E
100
AcDbEntity
  8
0
100
AcDbCircle
 10
645.9352648351202
 20
256.259829005462
 30
0.0
 40
286.2361204137633
100
AcDbArc
 50
189.1925735646011
 51
208.1208553191619
  0
ARC
  5
FB
330
29E
100
AcDbEntity
  8
0
100
AcDbCircle
 10
366.2936163950416
 20
108.2194731116239
 30
0.0
 40
30.19706972318467
100
AcDbArc
 50
320.3429162499115
 51
25.76868752419347
  0
ARC
  5
FC
330
29E
100
AcDbEntity
  8
0
100
AcDbCircle
 10
361.0023680774058
 20
241.9431783809617
 30
0.0
 40
155.7062883293355
100
AcDbArc
 50
280.5735300130184
 51
312.2455273962336
  0
ARC
  5
FD
330
29E
100
AcDbEntity
  8
0
100
AcDbCircle
 10
493.4461325055572
 20
232.2867464736503
 30
0.0
 40
30.19706972318467
100
AcDbArc
 50
40.55703322759172
 51
105.9828045018736
  0
ARC
  5
FE
330
29E
100
AcDbEntity
  8
0
100
AcDbCircle
 10
395.0895611026765
 20
533.0214856996481
 30
0.0
 40
286.2361204137633
100
AcDbArc
 50
269.4066905422813
 51
288.334972296842
  0
ARC
  5
FF
330
29E
100
AcDbEntity
  8
0
100
AcDbCircle
 10
527.4619152381781
 20
473.6389731181059
 30
0.0
 40
286.2361204137633
100
AcDbArc
 50
240.6211449931725
 51
259.5494267477334
  0
ARC
  5
100
330
29E
100
AcDbEntity
  8
0
100
AcDbCircle
 10
468.850810174398
 20
162.7046763950503
 30
0.0
 40
30.19706972318467
100
AcDbArc
 50
11.77148767848296
 51
77.19725895276487
  0
ARC
  5
101
330
29E
100
AcDbEntity
  8
0
100
AcDbCircle
 10
361.0023680774057
 20
241.9431783809618
 30
0.0
 40
155.7062883293355
100
AcDbArc
 50
332.0021014415899
 51
3.674098824805073
  0
ARC
  5
102
330
29E
100
AcDbEntity
  8
0
100
AcDbCircle
 10
451.1294069915834
 20
339.4711962509179
 30
0.0
 40
30.19706972318467
100
AcDbArc
 50
91.98560465616315
 51
157.411375930445
  0
ARC
  5
103
330
29E
100
AcDbEntity
  8
0
100
AcDbCircle
 10
154.6812007773989
 20
450.0779751925862
 30
0.0
 40
286.2361204137633
100
AcDbArc
 50
320.8352619708527
 51
339.7635437254135
  0
ARC
  5
104
330
29E
100
AcDbEntity
  8
0
100
AcDbCircle
 10
283.6411314732204
 20
516.5464580607893
 30
0.0
 40
286.2361204137633
100
AcDbArc
 50
292.049716421744
 51
310.9779981763047
  0
ARC
  5
105
330
29E
100
AcDbEntity
  8
0
100
AcDbCircle
 10
490.1959273474236
 20
276.8580878447418
 30
0.0
 40
30.19706972318467
100
AcDbArc
 50
63.20005910705439
 51
128.6258303813362
  0
ARC
  5
106
330
29E
100
AcDbEntity
  8
0
100
AcDbCircle
 10
361.0023680774056
 20
241.9431783809617
 30
0.0
 40
155.7062883293355
100
AcDbArc
 50
23.43067287016129
 51
55.1026702533765
  0
CIRCLE
  5
107
330
29E
100
AcDbEntity
  8
0
100
AcDbCircle
 10
361.0023680774056
 20
241.9431783809617
 30
0.0
 40
83.96896379618202
  0
CIRCLE
  5
108
330
29E
100
AcDbEntity
  8
0
100
AcDbCircle
 10
361.0023680774056
 20
241.9431783809617
 30
0.0
 40
126.0
  0
LINE
  5
10B
330
29E
100
AcDbEntity
  8
0
100
AcDbLine
 10
76.37851672988199
 20
419.4431783809617
 30
0.0
 11
63.24432061315701
 21
419.4431783809617
 31
0.0
  0
LINE
  5
10C
330
29E
100
AcDbEntity
  8
0
100
AcDbLine
 10
72.30418072178462
 20
399.4431783809618
 30
0.0
 11
-97.69581927821535
 21
399.4431783809618
 31
0.0
  0
LINE
  5
10D
330
29E
100
AcDbEntity
  8
0
100
AcDbLine
 10
-73.19976151186664
 20
273.4431783809618
 30
0.0
 11
-87.6958192782154
 21
273.4431783809617
 31
0.0
  0
LINE
  5
10F
330
29E
100
AcDbEntity
  8
0
100
AcDbLine
 10
72.30418072178463
 20
434.9431783809617
 30
0.0
 11
72.30418072178463
 21
241.9431783809617
 31
0.0
  0
LINE
  5
110
330
29E
100
AcDbEntity
  8
0
100
AcDbLine
 10
-53.94561077949674
 20
241.9431783809617
 30
0.0
 11
-73.19976151186667
 21
241.9431783809617
 31
0.0
  0
LINE
  5
111
330
29E
100
AcDbEntity
  8
0
100
AcDbLine
 10
-97.69581927821537
 20
241.9431783809617
 30
0.0
 11
-97.69581927821537
 21
434.9431783809618
 31
0.0
  0
LINE
  5
112
330
29E
100
AcDbEntity
  8
0
100
AcDbLine
 10
-92.69581927821537
 20
241.9431783809617
 30
0.0
 11
-92.6958192782154
 21
268.4431783809618
 31
0.0
  0
LINE
  5
113
330
29E
100
AcDbEntity
  8
0
100
AcDbLine
 10
67.30418072178463
 20
434.9431783809617
 30
0.0
 11
67.30418072178463
 21
399.4431783809618
 31
0.0
  0
LWPOLYLINE
  5
115
330
29E
100
AcDbEntity
  8
0
100
AcDbPolyline
 90
        6
 70
     1
 43
0.0
 10
-81.30107847488694
 20
399.3892785499007
 10
28.00210164281589
 20
399.3892785499007
 10
28.00210164281589
 20
432.8356693286706
 42
0.4142135623730951
 10
26.00210164281589
 20
434.8356693286707
 10
-79.30107847488694
 20
434.8356693286706
 42
0.4142135623730951
 10
-81.30107847488694
 20
432.8356693286706
  0
CIRCLE
  5
116
330
29E
100
AcDbEntity
  8
0
100
AcDbCircle
 10
-12.69581927821536
 20
419.4431783809617
 30
0.0
 40
5.0
  0
LINE
  5
117
330
29E
100
AcDbEntity
  8
0
100
AcDbLine
 10
-89.80089023565438
 20
419.4431783809617
 30
0.0
 11
-100.0832699685372
 21
419.4431783809617
 31
0.0
  0
LINE
  5
118
330
29E
100
AcDbEntity
  8
0
100
AcDbLine
 10
-97.69581927821537
 20
434.9431783809618
 30
0.0
 11
-92.69581927821537
 21
434.9431783809618
 31
0.0
  0
LINE
  5
119
330
29E
100
AcDbEntity
  8
0
100
AcDbLine
 10
67.30418072178463
 20
434.9431783809617
 30
0.0
 11
72.30418072178463
 21
434.9431783809617
 31
0.0
  0
LINE
  5
11A
330
29E
100
AcDbEntity
  8
0
100
AcDbLine
 10
-81.30107847488694
 20
399.4431783809618
 30
0.0
 11
-81.30107847488694
 21
290.3300499498387
 31
0.0
  0
LINE
  5
11B
330
29E
100
AcDbEntity
  8
0
100
AcDbLine
 10
55.49333632743195
 20
279.3726393060729
 30
0.0
 11
55.49333632743195
 21
241.9431783809617
 31
0.0
  0
LINE
  5
11D
330
29E
100
AcDbEntity
  8
0
100
AcDbLine
 10
-73.19976151186661
 20
279.3726393060729
 30
0.0
 11
55.49333632743195
 21
279.3726393060729
 31
0.0
  0
ARC
  5
11E
330
29E
100
AcDbEntity
  8
0
100
AcDbCircle
 10
30.87080449490462
 20
240.0668991474004
 30
0.0
 40
41.47583741554206
100
AcDbArc
 50
2.592824849819351
 51
53.58285832522629
  0
LWPOLYLINE
  5
120
330
29E
100
AcDbEntity
  8
0
100
AcDbPolyline
 90
        4
 70
     0
 43
0.0
 10
-73.19976151186665
 20
275.8850368665402
 10
-53.98633417608334
 20
275.8850368665402
 10
-53.98633417608334
 20
272.3974344270076
 10
-73.19976151186665
 20
272.3974344270076
  0
LWPOLYLINE
  5
121
330
29E
100
AcDbEntity
  8
0
100
AcDbPolyline
 90
        4
 70
     0
 43
0.0
 10
-73.19976151186665
 20
272.3974344270076
 10
-53.98633417608334
 20
272.3974344270076
 10
-53.98633417608334
 20
268.9098319874749
 10
-73.19976151186665
 20
268.9098319874749
  0
LWPOLYLINE
  5
122
330
29E
100
AcDbEntity
  8
0
100
AcDbPolyline
 90
        4
 70
     0
 43
0.0
 10
-73.19976151186665
 20
268.9098319874749
 10
-53.98633417608334
 20
268.9098319874749
 10
-53.98633417608334
 20
265.4222295479422
 10
-73.19976151186665
 20
265.4222295479422
  0
LWPOLYLINE
  5
123
330
29E
100
AcDbEntity
  8
0
100
AcDbPolyline
 90
        4
 70
     0
 43
0.0
 10
-73.19976151186665
 20
265.4222295479422
 10
-53.98633417608334
 20
265.4222295479422
 10
-53.98633417608334
 20
261.9346271084095
 10
-73.19976151186665
 20
261.9346271084095
  0
LWPOLYLINE
  5
124
330
29E
100
AcDbEntity
  8
0
100
AcDbPolyline
 90
        4
 70
     0
 43
0.0
 10
-73.19976151186665
 20
261.9346271084095
 10
-53.98633417608334
 20
261.9346271084095
 10
-53.98633417608334
 20
258.4470246688769
 10
-73.19976151186665
 20
258.4470246688769
  0
LWPOLYLINE
  5
125
330
29E
100
AcDbEntity
  8
0
100
AcDbPolyline
 90
        4
 70
     0
 43
0.0
 10
-73.19976151186665
 20
258.4470246688769
 10
-53.98633417608334
 20
258.4470246688769
 10
-53.98633417608334
 20
254.9594222293442
 10
-73.19976151186665
 20
254.9594222293442
  0
LWPOLYLINE
  5
126
330
29E
100
AcDbEntity
  8
0
100
AcDbPolyline
 90
        4
 70
     0
 43
0.0
 10
-73.19976151186665
 20
254.9594222293442
 10
-53.98633417608334
 20
254.9594222293442
 10
-53.98633417608334
 20
251.4718197898115
 10
-73.19976151186665
 20
251.4718197898115
  0
LWPOLYLINE
  5
127
330
29E
100
AcDbEntity
  8
0
100
AcDbPolyline
 90
        4
 70
     0
 43
0.0
 10
-73.19976151186665
 20
251.4718197898115
 10
-53.98633417608334
 20
251.4718197898115
 10
-53.98633417608334
 20
247.9842173502788
 10
-73.19976151186665
 20
247.9842173502788
  0
LINE
  5
129
330
29E
100
AcDbEntity
  8
0
100
AcDbLine
 10
-73.19976151186664
 20
279.3726393060729
 30
0.0
 11
-73.19976151186665
 21
241.9431783809617
 31
0.0
  0
LWPOLYLINE
  5
12A
330
29E
100
AcDbEntity
  8
0
100
AcDbPolyline
 90
        4
 70
     0
 43
0.0
 10
-73.19976151186665
 20
247.9842173502788
 10
-53.98633417608334
 20
247.9842173502788
 10
-53.98633417608334
 20
244.4966149107461
 10
-73.19976151186665
 20
244.4966149107461
  0
LINE
  5
133
330
29E
100
AcDbEntity
  8
0
100
AcDbLine
 10
-73.19976151186664
 20
279.3726393060729
 30
0.0
 11
-81.30107847488694
 21
290.3300499498387
 31
0.0
  0
ARC
  5
134
330
29E
100
AcDbEntity
  8
0
100
AcDbCircle
 10
-87.6958192782154
 20
268.4431783809618
 30
0.0
 40
5.0
100
AcDbArc
 50
89.99999999999999
 51
180.0
  0
LINE
  5
135
330
29E
100
AcDbEntity
  8
0
100
AcDbLine
 10
-92.69581927821537
 20
434.9431783809618
 30
0.0
 11
-92.69581927821537
 21
399.4431783809618
 31
0.0
  0
ARC
  5
136
330
29E
100
AcDbEntity
  8
0
100
AcDbCircle
 10
147.3617685725616
 20
319.4013752709596
 30
0.0
 40
190.0793379057382
100
AcDbArc
 50
161.975639793816
 51
192.1569078428307
  0
ARC
  5
139
330
29E
100
AcDbEntity
  8
0
100
AcDbCircle
 10
279.8486196430929
 20
363.7576590016025
 30
0.0
 40
227.8131757667971
100
AcDbArc
 50
172.4110367963743
 51
180.3416337691104
  0
ARC
  5
13A
330
29E
100
AcDbEntity
  8
0
100
AcDbCircle
 10
-199.2633208393541
 20
325.5920805102691
 30
0.0
 40
253.9840073250438
100
AcDbArc
 50
349.5150199188982
 51
8.332614125377624
  0
ARC
  5
13B
330
29E
100
AcDbEntity
  8
0
100
AcDbCircle
 10
30.19707128384592
 20
274.8445993669927
 30
0.0
 40
121.3626184337261
100
AcDbArc
 50
78.67436163332974
 51
121.5967876377026
  0
LINE
  5
13C
330
29E
100
AcDbEntity
  8
0
100
AcDbLine
 10
-73.19976151186665
 20
204.5137174558502
 30
0.0
 11
55.49333632743191
 21
204.5137174558501
 31
0.0
  0
LINE
  5
13F
330
29E
100
AcDbEntity
  8
0
100
AcDbLine
 10
72.30418072178443
 20
84.44317838096123
 30
0.0
 11
-97.69581927821557
 21
84.44317838096146
 31
0.0
  0
LINE
  5
140
330
29E
100
AcDbEntity
  8
0
100
AcDbLine
 10
-81.30107847488712
 20
84.44317838096146
 30
0.0
 11
-81.30107847488701
 21
193.5563068120845
 31
0.0
  0
LINE
  5
142
330
29E
100
AcDbEntity
  8
0
100
AcDbLine
 10
-97.69581927821537
 20
241.9431783809615
 30
0.0
 11
-97.6958192782156
 21
48.94317838096146
 31
0.0
  0
LINE
  5
143
330
29E
100
AcDbEntity
  8
0
100
AcDbLine
 10
-73.19976151186668
 20
204.5137174558502
 30
0.0
 11
-81.30107847488701
 21
193.5563068120845
 31
0.0
  0
LINE
  5
144
330
29E
100
AcDbEntity
  8
0
100
AcDbLine
 10
-73.19976151186667
 20
210.4431783809614
 30
0.0
 11
-87.69581927821541
 21
210.4431783809614
 31
0.0
  0
LINE
  5
145
330
29E
100
AcDbEntity
  8
0
100
AcDbLine
 10
-53.94561077949674
 20
241.9431783809614
 30
0.0
 11
-73.19976151186667
 21
241.9431783809614
 31
0.0
  0
LINE
  5
146
330
29E
100
AcDbEntity
  8
0
100
AcDbLine
 10
-92.69581927821537
 20
241.9431783809615
 30
0.0
 11
-92.69581927821541
 21
215.4431783809614
 31
0.0
  0
ARC
  5
147
330
29E
100
AcDbEntity
  8
0
100
AcDbCircle
 10
-87.69581927821541
 20
215.4431783809614
 30
0.0
 40
5.0
100
AcDbArc
 50
179.9999999999999
 51
269.9999999999999
  0
LINE
  5
148
330
29E
100
AcDbEntity
  8
0
100
AcDbLine
 10
-73.19976151186668
 20
204.5137174558502
 30
0.0
 11
-73.19976151186665
 21
241.9431783809615
 31
0.0
  0
LWPOLYLINE
  5
149
330
29E
100
AcDbEntity
  8
0
100
AcDbPolyline
 90
        4
 70
     0
 43
0.0
 10
-73.19976151186668
 20
218.4641272139809
 10
-53.98633417608337
 20
218.4641272139809
 10
-53.98633417608337
 20
221.9517296535136
 10
-73.19976151186667
 20
221.9517296535136
  0
LWPOLYLINE
  5
14A
330
29E
100
AcDbEntity
  8
0
100
AcDbPolyline
 90
        4
 70
     0
 43
0.0
 10
-73.19976151186667
 20
232.4145369721116
 10
-53.98633417608335
 20
232.4145369721116
 10
-53.98633417608334
 20
235.9021394116443
 10
-73.19976151186665
 20
235.9021394116443
  0
LWPOLYLINE
  5
14B
330
29E
100
AcDbEntity
  8
0
100
AcDbPolyline
 90
        4
 70
     0
 43
0.0
 10
-73.19976151186667
 20
228.926934532579
 10
-53.98633417608336
 20
228.9269345325789
 10
-53.98633417608335
 20
232.4145369721116
 10
-73.19976151186667
 20
232.4145369721116
  0
LWPOLYLINE
  5
14C
330
29E
100
AcDbEntity
  8
0
100
AcDbPolyline
 90
        4
 70
     0
 43
0.0
 10
-73.19976151186667
 20
225.4393320930463
 10
-53.98633417608336
 20
225.4393320930462
 10
-53.98633417608336
 20
228.9269345325789
 10
-73.19976151186667
 20
228.926934532579
  0
LWPOLYLINE
  5
14D
330
29E
100
AcDbEntity
  8
0
100
AcDbPolyline
 90
        4
 70
     0
 43
0.0
 10
-73.19976151186667
 20
221.9517296535136
 10
-53.98633417608337
 20
221.9517296535136
 10
-53.98633417608336
 20
225.4393320930462
 10
-73.19976151186667
 20
225.4393320930463
  0
LWPOLYLINE
  5
14E
330
29E
100
AcDbEntity
  8
0
100
AcDbPolyline
 90
        4
 70
     0
 43
0.0
 10
-73.19976151186665
 20
235.9021394116443
 10
-53.98633417608334
 20
235.9021394116443
 10
-53.98633417608334
 20
239.389741851177
 10
-73.19976151186665
 20
239.389741851177
  0
LWPOLYLINE
  5
14F
330
29E
100
AcDbEntity
  8
0
100
AcDbPolyline
 90
        4
 70
     0
 43
0.0
 10
-73.19976151186668
 20
214.9765247744483
 10
-53.98633417608337
 20
214.9765247744482
 10
-53.98633417608337
 20
218.4641272139809
 10
-73.19976151186668
 20
218.4641272139809
  0
LWPOLYLINE
  5
150
330
29E
100
AcDbEntity
  8
0
100
AcDbPolyline
 90
        4
 70
     0
 43
0.0
 10
-73.19976151186668
 20
211.4889223349156
 10
-53.98633417608338
 20
211.4889223349155
 10
-53.98633417608337
 20
214.9765247744482
 10
-73.19976151186668
 20
214.9765247744483
  0
LWPOLYLINE
  5
151
330
29E
100
AcDbEntity
  8
0
100
AcDbPolyline
 90
        4
 70
     0
 43
0.0
 10
-73.19976151186668
 20
208.0013198953829
 10
-53.98633417608338
 20
208.0013198953829
 10
-53.98633417608338
 20
211.4889223349155
 10
-73.19976151186668
 20
211.4889223349156
  0
LINE
  5
152
330
29E
100
AcDbEntity
  8
0
100
AcDbLine
 10
-92.6958192782156
 20
48.94317838096146
 30
0.0
 11
-92.69581927821555
 21
84.44317838096146
 31
0.0
  0
LINE
  5
153
330
29E
100
AcDbEntity
  8
0
100
AcDbLine
 10
-89.80089023565461
 20
64.44317838096151
 30
0.0
 11
-100.0832699685374
 21
64.44317838096151
 31
0.0
  0
LINE
  5
154
330
29E
100
AcDbEntity
  8
0
100
AcDbLine
 10
-97.6958192782156
 20
48.94317838096146
 30
0.0
 11
-92.6958192782156
 21
48.94317838096146
 31
0.0
  0
ARC
  5
155
330
29E
100
AcDbEntity
  8
0
100
AcDbCircle
 10
147.3617685725615
 20
164.4849814909633
 30
0.0
 40
190.0793379057382
100
AcDbArc
 50
167.8430921571691
 51
198.0243602061839
  0
ARC
  5
156
330
29E
100
AcDbEntity
  8
0
100
AcDbCircle
 10
-199.2633208393542
 20
158.2942762516542
 30
0.0
 40
253.9840073250438
100
AcDbArc
 50
351.6673858746222
 51
10.4849800811017
  0
LINE
  5
157
330
29E
100
AcDbEntity
  8
0
100
AcDbLine
 10
72.30418072178441
 20
48.94317838096128
 30
0.0
 11
72.30418072178463
 21
241.9431783809613
 31
0.0
  0
LINE
  5
158
330
29E
100
AcDbEntity
  8
0
100
AcDbLine
 10
55.49333632743191
 20
204.51371745585
 30
0.0
 11
55.49333632743196
 21
241.9431783809613
 31
0.0
  0
ARC
  5
159
330
29E
100
AcDbEntity
  8
0
100
AcDbCircle
 10
30.87080449490462
 20
243.8194576145226
 30
0.0
 40
41.47583741554206
100
AcDbArc
 50
306.4171416747736
 51
357.4071751501805
  0
LINE
  5
15A
330
29E
100
AcDbEntity
  8
0
100
AcDbLine
 10
67.30418072178441
 20
48.94317838096134
 30
0.0
 11
67.30418072178443
 21
84.44317838096123
 31
0.0
  0
ARC
  5
15B
330
29E
100
AcDbEntity
  8
0
100
AcDbCircle
 10
30.19707128384589
 20
209.0417573949303
 30
0.0
 40
121.3626184337261
100
AcDbArc
 50
238.4032123622973
 51
281.3256383666701
  0
ARC
  5
15D
330
29E
100
AcDbEntity
  8
0
100
AcDbCircle
 10
279.8486196430927
 20
120.1286977603202
 30
0.0
 40
227.8131757667971
100
AcDbArc
 50
179.6583662308895
 51
187.5889632036255
  0
LINE
  5
15E
330
29E
100
AcDbEntity
  8
0
100
AcDbLine
 10
76.37851672988178
 20
64.44317838096129
 30
0.0
 11
63.2443206131568
 21
64.44317838096134
 31
0.0
  0
LINE
  5
15F
330
29E
100
AcDbEntity
  8
0
100
AcDbLine
 10
67.30418072178441
 20
48.94317838096134
 30
0.0
 11
72.30418072178441
 21
48.94317838096128
 31
0.0
  0
LINE
  5
160
330
29E
100
AcDbEntity
  8
0
100
AcDbLine
 10
-53.98633417608334
 20
244.4966149107461
 30
0.0
 11
-53.98633417608334
 21
239.389741851177
 31
0.0
  0
DIMENSION
  5
161
330
29E
100
AcDbEntity
  8
koty
100
AcDbDimension
  2
*D3
 10
-140.3344834694854
 20
84.44317838096146
 30
0.0
 11
-156.5844834694854
 21
241.9431783809616
 31
0.0
 70
    32
 71
     0
 42
315.0000000000003
  3
ISO-25
100
AcDbAlignedDimension
 13
-97.6958192782154
 23
399.4431783809618
 33
0.0
 14
-97.69581927821555
 24
84.44317838096146
 34
0.0
 50
90.0
100
AcDbRotatedDimension
  0
DIMENSION
  5
17A
330
29E
100
AcDbEntity
  8
koty
100
AcDbDimension
  2
*D4
 10
-192.1641795444866
 20
64.44317838096151
 30
0.0
 11
-208.4141795444866
 21
241.9431783809616
 31
0.0
 70
    32
 71
     0
 42
355.0000000000001
  3
ISO-25
100
AcDbAlignedDimension
 13
-97.69581927821537
 23
419.4431783809617
 33
0.0
 14
-97.69581927821558
 24
64.44317838096151
 34
0.0
 50
90.0
100
AcDbRotatedDimension
  0
DIMENSION
  5
192
330
29E
100
AcDbEntity
  8
koty
100
AcDbDimension
  2
*D5
 10
-265.2607760024548
 20
434.9431783809618
 30
0.0
 11
-281.5107760024548
 21
241.9431783809616
 31
0.0
 70
    32
 71
     0
 42
386.0000000000003
  3
ISO-25
100
AcDbAlignedDimension
 13
-97.6958192782156
 23
48.94317838096146
 33
0.0
 14
-97.69581927821537
 24
434.9431783809618
 34
0.0
 50
90.0
100
AcDbRotatedDimension
  0
DIMENSION
  5
1AA
330
29E
100
AcDbEntity
  8
koty
100
AcDbDimension
  2
*D6
 10
72.30418072178441
 20
-19.12966385777578
 30
0.0
 11
-12.69581927821558
 21
-2.879663857775775
 31
0.0
 70
    32
 71
     0
 42
170.0
  3
ISO-25
100
AcDbAlignedDimension
 13
-97.6958192782156
 23
48.94317838096146
 33
0.0
 14
72.30418072178441
 24
48.94317838096128
 34
0.0
100
AcDbRotatedDimension
  0
DIMENSION
  5
1C2
330
29E
100
AcDbEntity
  8
koty
100
AcDbDimension
  2
*D7
 10
356.0023732061099
 20
419.4503398763029
 30
0.0
 11
362.6382143142257
 21
445.0665246461022
 31
0.0
 70
   163
 71
     0
 42
9.999999999999961
  3
ISO-25
100
AcDbDiametricDimension
 15
366.0023629487015
 25
419.4360168856205
 35
0.0
 40
0.0
  0
TEXT
  5
1DC
330
29E
100
AcDbEntity
  8
popis
100
AcDbText
 10
-102.20890607931
 20
483.51344451973
 30
0.0
 40
15.0
  1
TXBR/TXTR 315 axiální ventilátor
100
AcDbText
  0
LWPOLYLINE
  5
1E5
330
29E
100
AcDbEntity
  8
koty
100
AcDbPolyline
 90
        4
 70
     1
 43
0.0
 10
-248.0864005655509
 20
81.60726531846559
 10
-267.2523680774056
 20
88.22366920922389
 10
-251.268259530762
 20
75.74891930871587
 10
-251.268259530762
 20
75.74891930871587
210
0.0
220
0.0
230
-1.0
1001
VDEXTRAPARAM
1071
       65
1071
        0
1071
        0
1040
1.0
1000

1000

1040
0.0
1040
0.0
  0
HATCH
  5
308
330
29E
100
AcDbEntity
  8
koty
100
AcDbHatch
 10
0.0
 20
0.0
 30
0.0
210
0.0
220
0.0
230
-1.0
  2
SOLID
 70
     1
 71
     0
 91
        1
 92
        2
 72
     0
 73
     1
 93
        3
 10
-248.0864005655509
 20
81.60726531846559
 10
-267.2523680774056
 20
88.22366920922389
 10
-251.268259530762
 20
75.74891930871587
 97
        0
 75
     0
 76
     1
 98
        1
 10
0.0
 20
0.0
1001
VDEXTRAPARAM
1071
       65
1071
        0
1071
        0
1040
1.0
1000

1000

1040
0.0
1040
0.0
1001
VD_TEMPHATCH
1000
VD_TEMPHATCH
  0
LWPOLYLINE
  5
1E6
330
29E
100
AcDbEntity
  8
koty
100
AcDbPolyline
 90
        3
 70
     0
 43
0.0
 10
249.6773300481564
 20
78.67809231359072
 10
213.6967840017389
 20
59.13588316096445
 10
193.6967840017389
 20
59.13588316096445
  0
TEXT
  5
1EB
330
29E
100
AcDbEntity
  8
koty
100
AcDbText
 10
155.0658316207865
 20
49.13588316096445
 30
0.0
 40
20.0
  1
8x
  7
Proxy_1EB
100
AcDbText
  0
VIEWPORT
  5
309
330
29A
100
AcDbEntity
 67
     1
  8
0
 60
     1
100
AcDbViewport
 10
0.0
 20
0.0
 30
0.0
 40
10.0
 41
10.0
 69
     1
 12
0.0
 22
0.0
 13
0.0
 23
0.0
 14
1.0
 24
1.0
 15
0.0
 25
0.0
 16
0.0
 26
0.0
 36
1.0
 17
0.0
 27
0.0
 37
0.0
 42
0.0
 43
0.0
 44
0.0
 45
10.0
 50
0.0
 51
0.0000000000007958
 72
   100
 90
   163872
  1

281
     0
 71
     0
 74
     0
110
0.0
120
0.0
130
0.0
111
1.0
121
0.0
131
0.0
112
0.0
122
1.0
132
0.0
 79
     0
146
0.0
1001
VD_INVISIBLE_NOT_FOR_READ
1000
VD_INVISIBLE_NOT_FOR_READ
  0
VIEWPORT
  5
30A
330
29A
100
AcDbEntity
 67
     1
  8
0
 60
     1
100
AcDbViewport
 10
0.0
 20
0.0
 30
0.0
 40
10.0
 41
10.0
 69
     2
 12
0.0
 22
0.0
 13
0.0
 23
0.0
 14
1.0
 24
1.0
 15
0.0
 25
0.0
 16
0.0
 26
0.0
 36
1.0
 17
0.0
 27
0.0
 37
0.0
 42
0.0
 43
0.0
 44
0.0
 45
10.0
 50
0.0
 51
0.0000000000007958
 72
   100
 90
   163872
  1

281
     0
 71
     0
 74
     0
110
0.0
120
0.0
130
0.0
111
1.0
121
0.0
131
0.0
112
0.0
122
1.0
132
0.0
 79
     0
146
0.0
1001
VD_INVISIBLE_NOT_FOR_READ
1000
VD_INVISIBLE_NOT_FOR_READ
  0
ENDSEC
  0
SECTION
  2
OBJECTS
  0
DICTIONARY
  5
28B
330
0
100
AcDbDictionary
281
     1
  3
ACAD_GROUP
350
28C
  3
ACAD_LAYOUT
350
299
  3
ACAD_MLINESTYLE
350
296
  3
ACAD_PLOTSETTINGS
350
298
  3
ACAD_PLOTSTYLENAME
350
28D
  3
VECTORDRAW_OBJECTS
350
2AE
  0
DICTIONARY
  5
28C
102
{ACAD_REACTORS
330
28B
102
}
330
28B
100
AcDbDictionary
281
     1
  0
DICTIONARY
  5
299
102
{ACAD_REACTORS
330
28B
102
}
330
28B
100
AcDbDictionary
281
     1
  3
Model
350
2A1
  3
Rozvržení1
350
29D
  3
Rozvržení2
350
2A5
  0
DICTIONARY
  5
296
102
{ACAD_REACTORS
330
28B
102
}
330
28B
100
AcDbDictionary
281
     1
  3
Standard
350
297
  0
DICTIONARY
  5
298
102
{ACAD_REACTORS
330
28B
102
}
330
28B
100
AcDbDictionary
281
     1
  0
ACDBDICTIONARYWDFLT
  5
28D
102
{ACAD_REACTORS
330
28B
102
}
330
28B
100
AcDbDictionary
281
     1
  3
Normal
350
28E
100
AcDbDictionaryWithDefault
340
28E
  0
DICTIONARY
  5
2AE
102
{ACAD_REACTORS
330
28B
102
}
330
28B
100
AcDbDictionary
281
     1
  3
SERIALNO
350
2AF
  0
LAYOUT
  5
2A1
102
{ACAD_REACTORS
330
299
102
}
330
299
100
AcDbPlotSettings
  1
VectorDraw Printer Drawing
  2

  4

  6

 40
0.0
 41
0.0
 42
0.0
 43
0.0
 44
0.0
 45
0.0
 46
0.0
 47
0.0
 48
0.0
 49
0.0
140
0.0
141
0.0
142
1.0
143
1.0
 70
  1712
 72
     0
 73
     0
 74
     0
  7

 75
     0
147
1.0
148
0.0
149
0.0
100
AcDbLayout
  1
Model
 70
     1
 71
     0
 10
0.0
 20
0.0
 11
12.0
 21
9.0
 12
0.0
 22
0.0
 32
0.0
 14
-297.6953913870703
 24
-31.62966385777577
 34
0.0
 15
554.0023680774057
 25
498.51344451973
 35
0.0
146
0.0
 13
0.0
 23
0.0
 33
0.0
 16
1.0
 26
0.0
 36
0.0
 17
0.0
 27
1.0
 37
0.0
 76
     0
330
29E
  0
LAYOUT
  5
29D
102
{ACAD_REACTORS
330
299
102
}
330
299
100
AcDbPlotSettings
  1
VectorDraw Printer Drawing
  2

  4

  6

 40
0.0
 41
0.0
 42
0.0
 43
0.0
 44
0.0
 45
0.0
 46
0.0
 47
0.0
 48
0.0
 49
0.0
140
0.0
141
0.0
142
1.0
143
1.0
 70
   688
 72
     0
 73
     0
 74
     5
  7

 75
    16
147
1.0
148
0.0
149
0.0
100
AcDbLayout
  1
Rozvržení1
 70
     1
 71
     1
 10
0.0
 20
0.0
 11
12.0
 21
9.0
 12
0.0
 22
0.0
 32
0.0
 14
1.000000000000000E+20
 24
1.000000000000000E+20
 34
1.000000000000000E+20
 15
-1.000000000000000E+20
 25
-1.000000000000000E+20
 35
-1.000000000000000E+20
146
0.0
 13
0.0
 23
0.0
 33
0.0
 16
1.0
 26
0.0
 36
0.0
 17
0.0
 27
1.0
 37
0.0
 76
     0
330
29A
331
309
  0
LAYOUT
  5
2A5
102
{ACAD_REACTORS
330
299
102
}
330
299
100
AcDbPlotSettings
  1
VectorDraw Printer Drawing
  2

  4

  6

 40
0.0
 41
0.0
 42
0.0
 43
0.0
 44
0.0
 45
0.0
 46
0.0
 47
0.0
 48
0.0
 49
0.0
140
0.0
141
0.0
142
1.0
143
1.0
 70
   688
 72
     0
 73
     0
 74
     5
  7

 75
    16
147
1.0
148
0.0
149
0.0
100
AcDbLayout
  1
Rozvržení2
 70
     1
 71
     2
 10
0.0
 20
0.0
 11
12.0
 21
9.0
 12
0.0
 22
0.0
 32
0.0
 14
0.0
 24
0.0
 34
0.0
 15
0.0
 25
0.0
 35
0.0
146
0.0
 13
0.0
 23
0.0
 33
0.0
 16
1.0
 26
0.0
 36
0.0
 17
0.0
 27
1.0
 37
0.0
 76
     0
330
2A2
331
30B
  0
MLINESTYLE
  5
297
102
{ACAD_REACTORS
330
296
102
}
330
296
100
AcDbMlineStyle
  2
Standard
 70
     0
  3

 62
   256
 51
90.0
 52
90.0
 71
     2
 49
0.5
 62
   256
  6
BYLAYER
 49
-0.5
 62
   256
  6
BYLAYER
  0
ACDBPLACEHOLDER
  5
28E
102
{ACAD_REACTORS
330
28D
102
}
330
28D
  0
XRECORD
  5
2AF
102
{ACAD_REACTORS
330
2AE
102
}
330
2AE
100
AcDbXrecord
280
     1
1000
rInJVR9YY4Q8hfPWdUq5j5319
1070
     4
1070
     6
  0
ENDSEC
  0
EOF
