  0
SECTION
  2
HEADER
  9
$ACADVER
  1
AC1015
  9
$ACADMAINTVER
 70
     6
  9
$DWGCODEPAGE
  3
ANSI_1252
  9
$INSBASE
 10
0.0
 20
0.0
 30
0.0
  9
$EXTMIN
 10
-357.1918976763428
 20
-91.09864229760069
 30
0.0
  9
$EXTMAX
 10
624.5421028695994
 20
557.3397819894283
 30
0.0
  9
$LIMMIN
 10
0.0
 20
0.0
  9
$LIMMAX
 10
12.0
 20
9.0
  9
$ORTHOMODE
 70
     0
  9
$REGENMODE
 70
     1
  9
$FILLMODE
 70
     1
  9
$QTEXTMODE
 70
     0
  9
$MIRRTEXT
 70
     1
  9
$LTSCALE
 40
1.0
  9
$ATTMODE
 70
     1
  9
$TEXTSIZE
 40
0.2
  9
$TRACEWID
 40
0.05
  9
$TEXTSTYLE
  7
Standard
  9
$CLAYER
  8
popis
  9
$CELTYPE
  6
Continuous
  9
$CECOLOR
 62
    51
  9
$CELTSCALE
 40
1.0
  9
$DISPSILH
 70
     0
  9
$DIMSCALE
 40
10.0
  9
$DIMASZ
 40
2.0
  9
$DIMEXO
 40
0.625
  9
$DIMDLI
 40
0.38
  9
$DIMRND
 40
0.0
  9
$DIMDLE
 40
0.0
  9
$DIMEXE
 40
1.25
  9
$DIMTP
 40
0.0
  9
$DIMTM
 40
0.0
  9
$DIMTXT
 40
2.0
  9
$DIMCEN
 40
0.09
  9
$DIMTSZ
 40
0.0
  9
$DIMTOL
 70
     0
  9
$DIMLIM
 70
     0
  9
$DIMTIH
 70
     0
  9
$DIMTOH
 70
     0
  9
$DIMSE1
 70
     0
  9
$DIMSE2
 70
     0
  9
$DIMTAD
 70
     1
  9
$DIMZIN
 70
     0
  9
$DIMBLK
  1
VDDIM_DEFAULT
  9
$DIMASO
 70
     1
  9
$DIMSHO
 70
     1
  9
$DIMPOST
  1

  9
$DIMAPOST
  1

  9
$DIMALT
 70
     0
  9
$DIMALTD
 70
     2
  9
$DIMALTF
 40
25.4
  9
$DIMLFAC
 40
1.0
  9
$DIMTOFL
 70
     1
  9
$DIMTVP
 40
0.0
  9
$DIMTIX
 70
     1
  9
$DIMSOXD
 70
     0
  9
$DIMSAH
 70
     0
  9
$DIMBLK1
  1

  9
$DIMBLK2
  1

  9
$DIMSTYLE
  2
ISO-25
  9
$DIMCLRD
 70
     0
  9
$DIMCLRE
 70
     0
  9
$DIMCLRT
 70
   256
  9
$DIMTFAC
 40
1.0
  9
$DIMGAP
 40
0.625
  9
$DIMJUST
 70
     0
  9
$DIMSD1
 70
     0
  9
$DIMSD2
 70
     0
  9
$DIMTOLJ
 70
     1
  9
$DIMTZIN
 70
     0
  9
$DIMALTZ
 70
     0
  9
$DIMALTTZ
 70
     0
  9
$DIMUPT
 70
     1
  9
$DIMDEC
 70
     0
  9
$DIMTDEC
 70
     4
  9
$DIMALTU
 70
     2
  9
$DIMALTTD
 70
     2
  9
$DIMTXSTY
  7
Standard
  9
$DIMAUNIT
 70
     0
  9
$DIMADEC
 70
     0
  9
$DIMALTRND
 40
0.0
  9
$DIMAZIN
 70
     0
  9
$DIMDSEP
 70
    46
  9
$DIMATFIT
 70
     3
  9
$DIMFRAC
 70
     0
  9
$DIMLDRBLK
  1

  9
$DIMLUNIT
 70
     2
  9
$DIMLWD
 70
    -2
  9
$DIMLWE
 70
    -2
  9
$DIMTMOVE
 70
     0
  9
$LUNITS
 70
     2
  9
$LUPREC
 70
     4
  9
$SKETCHINC
 40
0.1
  9
$FILLETRAD
 40
0.5
  9
$AUNITS
 70
     0
  9
$AUPREC
 70
     0
  9
$MENU
  1
.
  9
$ELEVATION
 40
0.0
  9
$PELEVATION
 40
0.0
  9
$THICKNESS
 40
0.0
  9
$LIMCHECK
 70
     0
  9
$CHAMFERA
 40
0.5
  9
$CHAMFERB
 40
0.5
  9
$CHAMFERC
 40
1.0
  9
$CHAMFERD
 40
0.0
  9
$SKPOLY
 70
     0
  9
$TDCREATE
 40
2455643.636303125
  9
$TDUCREATE
 40
2455643.594636458
  9
$TDUPDATE
 40
2455643.636303137
  9
$TDUUPDATE
 40
2455643.59463647
  9
$TDINDWG
 40
0.0000000116
  9
$TDUSRTIMER
 40
0.0000000116
  9
$USRTIMER
 70
     1
  9
$ANGBASE
 50
0.0
  9
$ANGDIR
 70
     0
  9
$PDMODE
 70
     0
  9
$PDSIZE
 40
0.0
  9
$PLINEWID
 40
0.0
  9
$SPLFRAME
 70
     0
  9
$SPLINETYPE
 70
     6
  9
$SPLINESEGS
 70
     8
  9
$HANDSEED
  5
311
  9
$SURFTAB1
 70
     6
  9
$SURFTAB2
 70
     6
  9
$SURFTYPE
 70
     6
  9
$SURFU
 70
     6
  9
$SURFV
 70
     6
  9
$UCSBASE
  2

  9
$UCSNAME
  2

  9
$UCSORG
 10
0.0
 20
0.0
 30
0.0
  9
$UCSXDIR
 10
1.0
 20
0.0
 30
0.0
  9
$UCSYDIR
 10
0.0
 20
1.0
 30
0.0
  9
$UCSORTHOREF
  2

  9
$UCSORTHOVIEW
 70
     0
  9
$UCSORGTOP
 10
0.0
 20
0.0
 30
0.0
  9
$UCSORGBOTTOM
 10
0.0
 20
0.0
 30
0.0
  9
$UCSORGLEFT
 10
0.0
 20
0.0
 30
0.0
  9
$UCSORGRIGHT
 10
0.0
 20
0.0
 30
0.0
  9
$UCSORGFRONT
 10
0.0
 20
0.0
 30
0.0
  9
$UCSORGBACK
 10
0.0
 20
0.0
 30
0.0
  9
$PUCSBASE
  2

  9
$PUCSNAME
  2

  9
$PUCSORG
 10
0.0
 20
0.0
 30
0.0
  9
$PUCSXDIR
 10
1.0
 20
0.0
 30
0.0
  9
$PUCSYDIR
 10
0.0
 20
1.0
 30
0.0
  9
$PUCSORTHOREF
  2

  9
$PUCSORTHOVIEW
 70
     0
  9
$PUCSORGTOP
 10
0.0
 20
0.0
 30
0.0
  9
$PUCSORGBOTTOM
 10
0.0
 20
0.0
 30
0.0
  9
$PUCSORGLEFT
 10
0.0
 20
0.0
 30
0.0
  9
$PUCSORGRIGHT
 10
0.0
 20
0.0
 30
0.0
  9
$PUCSORGFRONT
 10
0.0
 20
0.0
 30
0.0
  9
$PUCSORGBACK
 10
0.0
 20
0.0
 30
0.0
  9
$USERI1
 70
     0
  9
$USERI2
 70
     0
  9
$USERI3
 70
     0
  9
$USERI4
 70
     0
  9
$USERI5
 70
     0
  9
$USERR1
 40
0.0
  9
$USERR2
 40
0.0
  9
$USERR3
 40
0.0
  9
$USERR4
 40
0.0
  9
$USERR5
 40
0.0
  9
$WORLDVIEW
 70
     1
  9
$SHADEDGE
 70
     3
  9
$SHADEDIF
 70
    70
  9
$TILEMODE
 70
     1
  9
$MAXACTVP
 70
    64
  9
$PINSBASE
 10
0.0
 20
0.0
 30
0.0
  9
$PLIMCHECK
 70
     0
  9
$PEXTMIN
 10
1.000000000000000E+20
 20
1.000000000000000E+20
 30
1.000000000000000E+20
  9
$PEXTMAX
 10
-1.000000000000000E+20
 20
-1.000000000000000E+20
 30
-1.000000000000000E+20
  9
$PLIMMIN
 10
0.0
 20
0.0
  9
$PLIMMAX
 10
12.0
 20
9.0
  9
$UNITMODE
 70
     0
  9
$VISRETAIN
 70
     1
  9
$PLINEGEN
 70
     0
  9
$PSLTSCALE
 70
     1
  9
$TREEDEPTH
 70
  3020
  9
$CMLSTYLE
  2
Standard
  9
$CMLJUST
 70
     0
  9
$CMLSCALE
 40
1.0
  9
$PROXYGRAPHICS
 70
     1
  9
$MEASUREMENT
 70
     0
  9
$CELWEIGHT
370
     0
  9
$ENDCAPS
280
     0
  9
$JOINSTYLE
280
     0
  9
$LWDISPLAY
290
     0
  9
$INSUNITS
 70
     1
  9
$HYPERLINKBASE
  1

  9
$STYLESHEET
  1

  9
$XEDIT
290
     1
  9
$CEPSNTYPE
380
     0
  9
$PSTYLEMODE
290
     0
  9
$FINGERPRINTGUID
  2
{FAEB1C30-E019-11D5-929B-00C0DF256EC4}
  9
$VERSIONGUID
  2
{FAEB1C32-E019-11D5-929B-00C0DF256EC4}
  9
$EXTNAMES
290
     1
  9
$PSVPSCALE
 40
0.0
  9
$OLESTARTUP
290
     0
  0
ENDSEC
  0
SECTION
  2
CLASSES
  0
CLASS
  1
ACDBDICTIONARYWDFLT
  2
AcDbDictionaryWithDefault
  3
ObjectDBX Classes
 90
        0
280
     0
281
     0
  0
CLASS
  1
ACDBPLACEHOLDER
  2
AcDbPlaceHolder
  3
ObjectDBX Classes
 90
        0
280
     0
281
     0
  0
CLASS
  1
LAYOUT
  2
AcDbLayout
  3
ObjectDBX Classes
 90
        0
280
     0
281
     0
  0
ENDSEC
  0
SECTION
  2
TABLES
  0
TABLE
  2
VPORT
  5
28B
330
0
100
AcDbSymbolTable
 70
     2
  0
VPORT
  5
2AC
330
28B
100
AcDbSymbolTableRecord
100
AcDbViewportTableRecord
  2
*Active
 70
     0
 10
0.0
 20
0.0
 11
1.0
 21
1.0
 12
156.0
 22
153.0
 13
0.0
 23
0.0
 14
10.0
 24
10.0
 15
10.0
 25
10.0
 16
0.0
 26
0.0
 36
1.0
 17
0.0
 27
0.0
 37
0.0
 40
943.1990678803027
 41
0.0188260965901489
 42
50.0
 43
0.0
 44
0.0
 50
0.0
 51
0.0000000000007958
 71
     0
 72
   100
 73
     1
 74
     3
 75
     0
 76
     0
 77
     0
 78
     0
281
     0
 65
     1
110
0.0
120
0.0
130
0.0
111
1.0
121
0.0
131
0.0
112
0.0
122
1.0
132
0.0
 79
     0
146
0.0
  0
ENDTAB
  0
TABLE
  2
LTYPE
  5
288
330
0
100
AcDbSymbolTable
 70
    25
  0
LTYPE
  5
297
330
288
100
AcDbSymbolTableRecord
100
AcDbLinetypeTableRecord
  2
ByBlock
 70
     0
  3

 72
    65
 73
     0
 40
0.0
  0
LTYPE
  5
298
330
288
100
AcDbSymbolTableRecord
100
AcDbLinetypeTableRecord
  2
ByLayer
 70
     0
  3

 72
    65
 73
     0
 40
0.0
  0
LTYPE
  5
299
330
288
100
AcDbSymbolTableRecord
100
AcDbLinetypeTableRecord
  2
Continuous
 70
     0
  3
Solid line
 72
    65
 73
     0
 40
0.0
  0
LTYPE
  5
2B4
330
288
100
AcDbSymbolTableRecord
100
AcDbLinetypeTableRecord
  2
CENTER
 70
     0
  3
Center ____ _ ____ _ ____ _ ____ _ ____ _ ____
 72
    65
 73
     4
 40
2.0
 49
1.25
 74
     0
 49
-0.25
 74
     0
 49
0.25
 74
     0
 49
-0.25
 74
     0
  0
LTYPE
  5
2B5
330
288
100
AcDbSymbolTableRecord
100
AcDbLinetypeTableRecord
  2
DASHDOT
 70
     0
  3
Dashdot __ . __ . __ . __ . __ . __ . __ . __
 72
    65
 73
     4
 40
1.0
 49
0.5
 74
     0
 49
-0.25
 74
     0
 49
0.0
 74
     0
 49
-0.25
 74
     0
  0
LTYPE
  5
2B6
330
288
100
AcDbSymbolTableRecord
100
AcDbLinetypeTableRecord
  2
DASHED
 70
     0
  3
Dashed __ __ __ __ __ __ __ __ __ __ __ __ __ _
 72
    65
 73
     2
 40
0.75
 49
0.5
 74
     0
 49
-0.25
 74
     0
  0
LTYPE
  5
2B7
330
288
100
AcDbSymbolTableRecord
100
AcDbLinetypeTableRecord
  2
HIDDEN
 70
     0
  3
Hidden __ __ __ __ __ __ __ __ __ __ __ __ __ __
 72
    65
 73
     2
 40
0.375
 49
0.25
 74
     0
 49
-0.125
 74
     0
  0
LTYPE
  5
2B8
330
288
100
AcDbSymbolTableRecord
100
AcDbLinetypeTableRecord
  2
HIDDEN2
 70
     0
  3
Hidden2 _ _ _ _ _ _ _ _ _ _ _ _ _ _ _ _ _ 
 72
    65
 73
     2
 40
0.1875
 49
0.125
 74
     0
 49
-0.0625
 74
     0
  0
LTYPE
  5
2B9
330
288
100
AcDbSymbolTableRecord
100
AcDbLinetypeTableRecord
  2
BORDER
 70
     0
  3
Border __ __ . __ __ . __ __ . __ __ . __ __ .
 72
    65
 73
     6
 40
1.75
 49
0.5
 74
     0
 49
-0.25
 74
     0
 49
0.5
 74
     0
 49
-0.25
 74
     0
 49
0.0
 74
     0
 49
-0.25
 74
     0
  0
LTYPE
  5
2BA
330
288
100
AcDbSymbolTableRecord
100
AcDbLinetypeTableRecord
  2
BORDER2
 70
     0
  3
Border2 __.__.__.__.__.__.__.__.__.__.__.
 72
    65
 73
     6
 40
0.875
 49
0.25
 74
     0
 49
-0.125
 74
     0
 49
0.25
 74
     0
 49
-0.125
 74
     0
 49
0.0
 74
     0
 49
-0.125
 74
     0
  0
LTYPE
  5
2BB
330
288
100
AcDbSymbolTableRecord
100
AcDbLinetypeTableRecord
  2
BORDERX2
 70
     0
  3
Borderx2  ____  ____  .  ____  ____  .  ___
 72
    65
 73
     6
 40
3.5
 49
1.0
 74
     0
 49
-0.5
 74
     0
 49
1.0
 74
     0
 49
-0.5
 74
     0
 49
0.0
 74
     0
 49
-0.5
 74
     0
  0
LTYPE
  5
2BC
330
288
100
AcDbSymbolTableRecord
100
AcDbLinetypeTableRecord
  2
CENTER2
 70
     0
  3
Center2  ___ _ ___ _ ___ _ ___ _ ___ _ ___
 72
    65
 73
     4
 40
1.125
 49
0.75
 74
     0
 49
-0.125
 74
     0
 49
0.125
 74
     0
 49
-0.125
 74
     0
  0
LTYPE
  5
2BD
330
288
100
AcDbSymbolTableRecord
100
AcDbLinetypeTableRecord
  2
CENTERX2
 70
     0
  3
Centerx2  ________  __  ________  __  _____
 72
    65
 73
     4
 40
4.0
 49
2.5
 74
     0
 49
-0.5
 74
     0
 49
0.5
 74
     0
 49
-0.5
 74
     0
  0
LTYPE
  5
2BE
330
288
100
AcDbSymbolTableRecord
100
AcDbLinetypeTableRecord
  2
DASHDOT2
 70
     0
  3
Dashdot2  _._._._._._._._._._._._._._._.
 72
    65
 73
     4
 40
0.5
 49
0.25
 74
     0
 49
-0.125
 74
     0
 49
0.0
 74
     0
 49
-0.125
 74
     0
  0
LTYPE
  5
2BF
330
288
100
AcDbSymbolTableRecord
100
AcDbLinetypeTableRecord
  2
DASHDOTX2
 70
     0
  3
Dashdotx2 ____  .  ____  .  ____  .  ___
 72
    65
 73
     4
 40
2.0
 49
1.0
 74
     0
 49
-0.5
 74
     0
 49
0.0
 74
     0
 49
-0.5
 74
     0
  0
LTYPE
  5
2C0
330
288
100
AcDbSymbolTableRecord
100
AcDbLinetypeTableRecord
  2
DASHED2
 70
     0
  3
Dashed2 _ _ _ _ _ _ _ _ _ _ _ _ _ _ _ _ _ 
 72
    65
 73
     2
 40
0.375
 49
0.25
 74
     0
 49
-0.125
 74
     0
  0
LTYPE
  5
2C1
330
288
100
AcDbSymbolTableRecord
100
AcDbLinetypeTableRecord
  2
DASHEDX2
 70
     0
  3
Dashedx2 ____  ____  ____  ____  ____  ___
 72
    65
 73
     2
 40
1.5
 49
1.0
 74
     0
 49
-0.5
 74
     0
  0
LTYPE
  5
2C2
330
288
100
AcDbSymbolTableRecord
100
AcDbLinetypeTableRecord
  2
DIVIDE
 70
     0
  3
Divide ____ . . ____ . . ____ . . ____ . . ____
 72
    65
 73
     6
 40
1.25
 49
0.5
 74
     0
 49
-0.25
 74
     0
 49
0.0
 74
     0
 49
-0.25
 74
     0
 49
0.0
 74
     0
 49
-0.25
 74
     0
  0
LTYPE
  5
2C3
330
288
100
AcDbSymbolTableRecord
100
AcDbLinetypeTableRecord
  2
DIVIDE2
 70
     0
  3
Divide2 __..__..__..__..__..__..__..__.._
 72
    65
 73
     6
 40
0.625
 49
0.25
 74
     0
 49
-0.125
 74
     0
 49
0.0
 74
     0
 49
-0.125
 74
     0
 49
0.0
 74
     0
 49
-0.125
 74
     0
  0
LTYPE
  5
2C4
330
288
100
AcDbSymbolTableRecord
100
AcDbLinetypeTableRecord
  2
DIVIDEX2
 70
     0
  3
Dividex2 ________  .  .  ________  .  .  _
 72
    65
 73
     6
 40
2.5
 49
1.0
 74
     0
 49
-0.5
 74
     0
 49
0.0
 74
     0
 49
-0.5
 74
     0
 49
0.0
 74
     0
 49
-0.5
 74
     0
  0
LTYPE
  5
2C5
330
288
100
AcDbSymbolTableRecord
100
AcDbLinetypeTableRecord
  2
DOT
 70
     0
  3
Dot . . . . . . . . . . . . . . . . . . . . . . . .
 72
    65
 73
     2
 40
0.25
 49
0.0
 74
     0
 49
-0.25
 74
     0
  0
LTYPE
  5
2C6
330
288
100
AcDbSymbolTableRecord
100
AcDbLinetypeTableRecord
  2
DOT2
 70
     0
  3
Dot2 ........................................
 72
    65
 73
     2
 40
0.125
 49
0.0
 74
     0
 49
-0.125
 74
     0
  0
LTYPE
  5
2C7
330
288
100
AcDbSymbolTableRecord
100
AcDbLinetypeTableRecord
  2
DOTX2
 70
     0
  3
Dotx2 .  .  .  .  .  .  .  .  .  .  .  .  .  .
 72
    65
 73
     2
 40
0.5
 49
0.0
 74
     0
 49
-0.5
 74
     0
  0
LTYPE
  5
2C8
330
288
100
AcDbSymbolTableRecord
100
AcDbLinetypeTableRecord
  2
HIDDENX2
 70
     0
  3
Hiddenx2 ____ ____ ____ ____ ____ ____ ____ 
 72
    65
 73
     2
 40
0.75
 49
0.5
 74
     0
 49
-0.25
 74
     0
  0
LTYPE
  5
2C9
330
288
100
AcDbSymbolTableRecord
100
AcDbLinetypeTableRecord
  2
PHANTOM
 70
     0
  3
Phantom ______  __  __  ______  __  __  ______ 
 72
    65
 73
     6
 40
2.5
 49
1.25
 74
     0
 49
-0.25
 74
     0
 49
0.25
 74
     0
 49
-0.25
 74
     0
 49
0.25
 74
     0
 49
-0.25
 74
     0
  0
LTYPE
  5
2CA
330
288
100
AcDbSymbolTableRecord
100
AcDbLinetypeTableRecord
  2
PHANTOM2
 70
     0
  3
Phantom2 ___ _ _ ___ _ _ ___ _ _ ___ _ _
 72
    65
 73
     6
 40
1.25
 49
0.625
 74
     0
 49
-0.125
 74
     0
 49
0.125
 74
     0
 49
-0.125
 74
     0
 49
0.125
 74
     0
 49
-0.125
 74
     0
  0
LTYPE
  5
2CB
330
288
100
AcDbSymbolTableRecord
100
AcDbLinetypeTableRecord
  2
PHANTOMX2
 70
     0
  3
Phantomx2 ____________    ____    ____   _
 72
    65
 73
     6
 40
5.0
 49
2.5
 74
     0
 49
-0.5
 74
     0
 49
0.5
 74
     0
 49
-0.5
 74
     0
 49
0.5
 74
     0
 49
-0.5
 74
     0
  0
ENDTAB
  0
TABLE
  2
LAYER
  5
285
330
0
100
AcDbSymbolTable
 70
     4
  0
LAYER
  5
293
330
285
100
AcDbSymbolTableRecord
100
AcDbLayerTableRecord
  2
0
 70
     0
 62
    90
  6
Continuous
370
     0
390
292
  0
LAYER
  5
2B
330
285
100
AcDbSymbolTableRecord
100
AcDbLayerTableRecord
  2
koty
 70
     0
 62
    41
  6
Continuous
370
     0
390
292
  0
LAYER
  5
2C
330
285
100
AcDbSymbolTableRecord
100
AcDbLayerTableRecord
  2
popis
 70
     0
 62
   210
  6
Continuous
370
     0
390
292
  0
LAYER
  5
167
330
285
100
AcDbSymbolTableRecord
100
AcDbLayerTableRecord
  2
Defpoints
 70
     0
 62
     7
  6
Continuous
290
     0
370
     0
390
292
  0
ENDTAB
  0
TABLE
  2
STYLE
  5
286
330
0
100
AcDbSymbolTable
 70
     2
  0
STYLE
  5
294
330
286
100
AcDbSymbolTableRecord
100
AcDbTextStyleTableRecord
  2
Standard
 70
     0
 40
0.0
 41
1.0
 50
0.0
 71
     0
 42
0.2
  3
txt.shx
  4

1001
ACAD
1000
txt.shx
1071
        0
  0
STYLE
  5
1F0
330
286
100
AcDbSymbolTableRecord
100
AcDbTextStyleTableRecord
  2
Proxy_1EF
 70
     0
 40
20.0
 41
1.0
 50
0.0
 71
     0
 42
0.2
  3
txt.shx
  4

1001
ACAD
1000
txt.shx
1071
        0
  0
ENDTAB
  0
TABLE
  2
VIEW
  5
289
330
0
100
AcDbSymbolTable
 70
     0
  0
ENDTAB
  0
TABLE
  2
UCS
  5
28A
330
0
100
AcDbSymbolTable
 70
     0
  0
ENDTAB
  0
TABLE
  2
APPID
  5
28C
330
0
100
AcDbSymbolTable
 70
     6
  0
APPID
  5
295
330
28C
100
AcDbSymbolTableRecord
100
AcDbRegAppTableRecord
  2
ACAD
 70
     0
  0
APPID
  5
2AD
330
28C
100
AcDbSymbolTableRecord
100
AcDbRegAppTableRecord
  2
VD_INVISIBLE_NOT_FOR_READ
 70
     0
  0
APPID
  5
2AE
330
28C
100
AcDbSymbolTableRecord
100
AcDbRegAppTableRecord
  2
VD_TEMPHATCH
 70
     0
  0
APPID
  5
2AF
330
28C
100
AcDbSymbolTableRecord
100
AcDbRegAppTableRecord
  2
VDEXTRAPARAM
 70
     0
  0
APPID
  5
2B0
330
28C
100
AcDbSymbolTableRecord
100
AcDbRegAppTableRecord
  2
PE_URL
 70
     0
  0
APPID
  5
2B1
330
28C
100
AcDbSymbolTableRecord
100
AcDbRegAppTableRecord
  2
VD_UNKNOWN
 70
     0
  0
ENDTAB
  0
TABLE
  2
DIMSTYLE
  5
28D
330
0
100
AcDbSymbolTable
 70
     2
100
AcDbDimStyleTable
  0
DIMSTYLE
105
2AA
330
28D
100
AcDbSymbolTableRecord
100
AcDbDimStyleTableRecord
  2
STANDARD
 70
     0
 41
0.2
 42
0.05
 44
0.2
 73
     0
 74
     0
140
0.2
172
     1
174
     1
177
   256
178
   256
288
     1
340
294
342
1F3
  0
DIMSTYLE
105
27
102
{ACAD_REACTORS
330
166
330
17F
330
197
330
1AF
330
1C7
102
}
330
28D
100
AcDbSymbolTableRecord
100
AcDbDimStyleTableRecord
  2
ISO-25
 70
     0
 40
10.0
 41
2.0
 42
0.625
 44
1.25
 73
     0
 74
     0
 77
     1
140
2.0
147
0.625
172
     1
174
     1
178
   256
271
     0
288
     1
340
294
342
1F3
  0
ENDTAB
  0
TABLE
  2
BLOCK_RECORD
  5
284
330
0
100
AcDbSymbolTable
 70
     8
  0
BLOCK_RECORD
  5
2A2
330
284
100
AcDbSymbolTableRecord
100
AcDbBlockTableRecord
  2
*Model_Space
340
2A5
  0
BLOCK_RECORD
  5
29E
330
284
100
AcDbSymbolTableRecord
100
AcDbBlockTableRecord
  2
*Paper_Space
340
2A1
  0
BLOCK_RECORD
  5
2A6
330
284
100
AcDbSymbolTableRecord
100
AcDbBlockTableRecord
  2
*Paper_Space0
340
2A9
  0
BLOCK_RECORD
  5
1F3
330
284
100
AcDbSymbolTableRecord
100
AcDbBlockTableRecord
  2
VDDIM_DEFAULT
340
0
102
{BLKREFS
331
2D6
331
2D5
331
2E2
331
2E1
331
2EE
331
2ED
331
2FA
331
2F9
331
306
331
305
102
}
  0
BLOCK_RECORD
  5
1F5
330
284
100
AcDbSymbolTableRecord
100
AcDbBlockTableRecord
  2
VDDIM_NONE
340
0
  0
BLOCK_RECORD
  5
2D1
330
284
100
AcDbSymbolTableRecord
100
AcDbBlockTableRecord
  2
*D3
340
0
  0
BLOCK_RECORD
  5
2DD
330
284
100
AcDbSymbolTableRecord
100
AcDbBlockTableRecord
  2
*D4
340
0
  0
BLOCK_RECORD
  5
2E9
330
284
100
AcDbSymbolTableRecord
100
AcDbBlockTableRecord
  2
*D5
340
0
  0
BLOCK_RECORD
  5
2F5
330
284
100
AcDbSymbolTableRecord
100
AcDbBlockTableRecord
  2
*D6
340
0
  0
BLOCK_RECORD
  5
301
330
284
100
AcDbSymbolTableRecord
100
AcDbBlockTableRecord
  2
*D7
340
0
  0
ENDTAB
  0
ENDSEC
  0
SECTION
  2
BLOCKS
  0
BLOCK
  5
2A3
330
2A2
100
AcDbEntity
  8
0
100
AcDbBlockBegin
  2
*Model_Space
 70
     0
 71
     0
 10
0.0
 20
0.0
 30
0.0
  3
*Model_Space
  1

  0
ENDBLK
  5
2A4
330
2A2
100
AcDbEntity
  8
0
100
AcDbBlockEnd
  0
BLOCK
  5
29F
330
29E
100
AcDbEntity
 67
     1
  8
0
100
AcDbBlockBegin
  2
*Paper_Space
 70
     0
 71
     0
 10
0.0
 20
0.0
 30
0.0
  3
*Paper_Space
  1

  0
ENDBLK
  5
2A0
330
29E
100
AcDbEntity
 67
     1
  8
0
100
AcDbBlockEnd
  0
BLOCK
  5
2A7
330
2A6
100
AcDbEntity
  8
0
100
AcDbBlockBegin
  2
*Paper_Space0
 70
     0
 71
     0
 10
0.0
 20
0.0
 30
0.0
  3
*Paper_Space0
  1

  0
VIEWPORT
  5
30F
330
2A6
100
AcDbEntity
  8
0
 60
     1
100
AcDbViewport
 10
0.0
 20
0.0
 30
0.0
 40
10.0
 41
10.0
 69
     1
 12
0.0
 22
0.0
 13
0.0
 23
0.0
 14
1.0
 24
1.0
 15
0.0
 25
0.0
 16
0.0
 26
0.0
 36
1.0
 17
0.0
 27
0.0
 37
0.0
 42
0.0
 43
0.0
 44
0.0
 45
10.0
 50
0.0
 51
0.0000000000007958
 72
   100
 90
   163872
  1

281
     0
 71
     0
 74
     0
110
0.0
120
0.0
130
0.0
111
1.0
121
0.0
131
0.0
112
0.0
122
1.0
132
0.0
 79
     0
146
0.0
1001
VD_INVISIBLE_NOT_FOR_READ
1000
VD_INVISIBLE_NOT_FOR_READ
  0
VIEWPORT
  5
310
330
2A6
100
AcDbEntity
  8
0
 60
     1
100
AcDbViewport
 10
0.0
 20
0.0
 30
0.0
 40
10.0
 41
10.0
 69
     2
 12
0.0
 22
0.0
 13
0.0
 23
0.0
 14
1.0
 24
1.0
 15
0.0
 25
0.0
 16
0.0
 26
0.0
 36
1.0
 17
0.0
 27
0.0
 37
0.0
 42
0.0
 43
0.0
 44
0.0
 45
10.0
 50
0.0
 51
0.0000000000007958
 72
   100
 90
   163872
  1

281
     0
 71
     0
 74
     0
110
0.0
120
0.0
130
0.0
111
1.0
121
0.0
131
0.0
112
0.0
122
1.0
132
0.0
 79
     0
146
0.0
1001
VD_INVISIBLE_NOT_FOR_READ
1000
VD_INVISIBLE_NOT_FOR_READ
  0
ENDBLK
  5
2A8
330
2A6
100
AcDbEntity
  8
0
100
AcDbBlockEnd
  0
BLOCK
  5
2CC
330
1F3
100
AcDbEntity
  8
0
100
AcDbBlockBegin
  2
VDDIM_DEFAULT
 70
     0
 71
     0
 10
0.0
 20
0.0
 30
0.0
  3
VDDIM_DEFAULT
  1

  0
LWPOLYLINE
  5
1F4
330
1F3
100
AcDbEntity
  8
0
  6
Continuous
 62
     0
100
AcDbPolyline
 90
        4
 70
     0
 43
0.0
 10
0.0
 20
0.0
 10
-1.0
 20
-0.1665
 10
-1.0
 20
0.1665
 10
0.0
 20
0.0
1001
VDEXTRAPARAM
1071
        1
1071
        0
1071
        0
1040
1.0
1000

1000

1040
0.0
1040
0.0
  0
HATCH
  5
2D0
330
1F3
100
AcDbEntity
  8
0
  6
Continuous
 62
     0
100
AcDbHatch
 10
0.0
 20
0.0
 30
0.0
210
0.0
220
0.0
230
1.0
  2
SOLID
 70
     1
 71
     0
 91
        1
 92
        2
 72
     0
 73
     1
 93
        3
 10
0.0
 20
0.0
 10
-1.0
 20
-0.1665
 10
-1.0
 20
0.1665
 97
        0
 75
     0
 76
     1
 98
        1
 10
0.0
 20
0.0
1001
VDEXTRAPARAM
1071
        1
1071
        0
1071
        0
1040
1.0
1000

1000

1040
0.0
1040
0.0
1001
VD_TEMPHATCH
1000
VD_TEMPHATCH
  0
ENDBLK
  5
2CD
330
1F3
100
AcDbEntity
  8
0
100
AcDbBlockEnd
  0
BLOCK
  5
2CE
330
1F5
100
AcDbEntity
  8
0
100
AcDbBlockBegin
  2
VDDIM_NONE
 70
     0
 71
     0
 10
0.0
 20
0.0
 30
0.0
  3
VDDIM_NONE
  1

  0
ENDBLK
  5
2CF
330
1F5
100
AcDbEntity
  8
0
100
AcDbBlockEnd
  0
BLOCK
  5
2DB
330
2D1
100
AcDbEntity
  8
0
100
AcDbBlockBegin
  2
*D3
 70
     1
 71
     0
 10
0.0
 20
0.0
 30
0.0
  3
*D3
  1

  0
LINE
  5
2D2
330
2D1
100
AcDbEntity
  8
koty
 62
     0
370
    -2
100
AcDbLine
 10
-149.6157037962295
 20
420.098232021537
 30
0.0
 11
-207.05228400352
 21
420.0982320215371
 31
0.0
  0
LINE
  5
2D3
330
2D1
100
AcDbEntity
  8
koty
 62
     0
370
    -2
100
AcDbLine
 10
-149.6157037962302
 20
20.09823202153631
 30
0.0
 11
-207.0522840035201
 21
20.09823202153632
 31
0.0
  0
LINE
  5
2D4
330
2D1
100
AcDbEntity
  8
koty
 62
     0
370
    -2
100
AcDbLine
 10
-194.55228400352
 20
400.0982320215371
 30
0.0
 11
-194.5522840035201
 21
40.09823202153632
 31
0.0
  0
INSERT
  5
2D5
330
2D1
100
AcDbEntity
  8
koty
 62
     0
370
    -2
100
AcDbBlockReference
  2
VDDIM_DEFAULT
 10
-194.55228400352
 20
420.0982320215371
 30
0.0
 41
20.0
 42
20.0
 43
20.0
 50
90.0
  0
INSERT
  5
2D6
330
2D1
100
AcDbEntity
  8
koty
 62
     0
370
    -2
100
AcDbBlockReference
  2
VDDIM_DEFAULT
 10
-194.5522840035201
 20
20.09823202153632
 30
0.0
 41
20.0
 42
20.0
 43
20.0
 50
270.0
  0
MTEXT
  5
2D7
330
2D1
100
AcDbEntity
  8
koty
100
AcDbMText
 10
-210.8022840035201
 20
220.0982320215367
 30
0.0
 40
20.0
 41
0.0
 71
     5
 72
     1
  1
\A1;400
 11
1.421085471520198E-16
 21
1.0
 31
0.0
 73
     1
 44
1.0
  0
POINT
  5
2D8
330
2D1
100
AcDbEntity
  8
Defpoints
 62
     0
100
AcDbPoint
 10
-143.3657037962295
 20
420.098232021537
 30
0.0
  0
POINT
  5
2D9
330
2D1
100
AcDbEntity
  8
Defpoints
 62
     0
100
AcDbPoint
 10
-143.3657037962302
 20
20.09823202153631
 30
0.0
  0
POINT
  5
2DA
330
2D1
100
AcDbEntity
  8
Defpoints
 62
     0
100
AcDbPoint
 10
-194.5522840035201
 20
20.09823202153632
 30
0.0
  0
ENDBLK
  5
2DC
330
2D1
100
AcDbEntity
  8
0
100
AcDbBlockEnd
  0
BLOCK
  5
2E7
330
2DD
100
AcDbEntity
  8
0
100
AcDbBlockBegin
  2
*D4
 70
     1
 71
     0
 10
0.0
 20
0.0
 30
0.0
  3
*D4
  1

  0
LINE
  5
2DE
330
2DD
100
AcDbEntity
  8
koty
 62
     0
370
    -2
100
AcDbLine
 10
-149.6157037962302
 20
-4.901767978463541
 30
0.0
 11
-267.1128541810322
 21
-4.901767978463571
 31
0.0
  0
LINE
  5
2DF
330
2DD
100
AcDbEntity
  8
koty
 62
     0
370
    -2
100
AcDbLine
 10
-149.6157037962295
 20
445.0982320215368
 30
0.0
 11
-267.1128541810322
 21
445.0982320215368
 31
0.0
  0
LINE
  5
2E0
330
2DD
100
AcDbEntity
  8
koty
 62
     0
370
    -2
100
AcDbLine
 10
-254.6128541810322
 20
15.09823202153643
 30
0.0
 11
-254.6128541810322
 21
425.0982320215368
 31
0.0
  0
INSERT
  5
2E1
330
2DD
100
AcDbEntity
  8
koty
 62
     0
370
    -2
100
AcDbBlockReference
  2
VDDIM_DEFAULT
 10
-254.6128541810322
 20
-4.901767978463568
 30
0.0
 41
20.0
 42
20.0
 43
20.0
 50
270.0
  0
INSERT
  5
2E2
330
2DD
100
AcDbEntity
  8
koty
 62
     0
370
    -2
100
AcDbBlockReference
  2
VDDIM_DEFAULT
 10
-254.6128541810322
 20
445.0982320215368
 30
0.0
 41
20.0
 42
20.0
 43
20.0
 50
90.0
  0
MTEXT
  5
2E3
330
2DD
100
AcDbEntity
  8
koty
100
AcDbMText
 10
-270.8628541810322
 20
220.0982320215366
 30
0.0
 40
20.0
 41
0.0
 71
     5
 72
     1
  1
\A1;450
 11
6.315935428978663E-17
 21
1.0
 31
0.0
 73
     1
 44
1.0
  0
POINT
  5
2E4
330
2DD
100
AcDbEntity
  8
Defpoints
 62
     0
100
AcDbPoint
 10
-143.3657037962302
 20
-4.901767978463539
 30
0.0
  0
POINT
  5
2E5
330
2DD
100
AcDbEntity
  8
Defpoints
 62
     0
100
AcDbPoint
 10
-143.3657037962295
 20
445.0982320215368
 30
0.0
  0
POINT
  5
2E6
330
2DD
100
AcDbEntity
  8
Defpoints
 62
     0
100
AcDbPoint
 10
-254.6128541810322
 20
445.0982320215368
 30
0.0
  0
ENDBLK
  5
2E8
330
2DD
100
AcDbEntity
  8
0
100
AcDbBlockEnd
  0
BLOCK
  5
2F3
330
2E9
100
AcDbEntity
  8
0
100
AcDbBlockBegin
  2
*D5
 70
     1
 71
     0
 10
0.0
 20
0.0
 30
0.0
  3
*D5
  1

  0
LINE
  5
2EA
330
2E9
100
AcDbEntity
  8
koty
 62
     0
370
    -2
100
AcDbLine
 10
-149.6157037962295
 20
463.5982320215369
 30
0.0
 11
-337.2572822917272
 21
463.5982320215368
 31
0.0
  0
LINE
  5
2EB
330
2E9
100
AcDbEntity
  8
koty
 62
     0
370
    -2
100
AcDbLine
 10
-149.6157037962303
 20
-23.40176797846357
 30
0.0
 11
-337.2572822917273
 21
-23.40176797846356
 31
0.0
  0
LINE
  5
2EC
330
2E9
100
AcDbEntity
  8
koty
 62
     0
370
    -2
100
AcDbLine
 10
-324.7572822917272
 20
443.5982320215368
 30
0.0
 11
-324.7572822917273
 21
-3.401767978463568
 31
0.0
  0
INSERT
  5
2ED
330
2E9
100
AcDbEntity
  8
koty
 62
     0
370
    -2
100
AcDbBlockReference
  2
VDDIM_DEFAULT
 10
-324.7572822917272
 20
463.5982320215368
 30
0.0
 41
20.0
 42
20.0
 43
20.0
 50
89.99999999999999
  0
INSERT
  5
2EE
330
2E9
100
AcDbEntity
  8
koty
 62
     0
370
    -2
100
AcDbBlockReference
  2
VDDIM_DEFAULT
 10
-324.7572822917273
 20
-23.40176797846357
 30
0.0
 41
20.0
 42
20.0
 43
20.0
 50
270.0
  0
MTEXT
  5
2EF
330
2E9
100
AcDbEntity
  8
koty
100
AcDbMText
 10
-341.0072822917273
 20
220.0982320215366
 30
0.0
 40
20.0
 41
0.0
 71
     5
 72
     1
  1
\A1;487
 11
1.167215993035071E-16
 21
1.0
 31
0.0
 73
     1
 44
1.0
  0
POINT
  5
2F0
330
2E9
100
AcDbEntity
  8
Defpoints
 62
     0
100
AcDbPoint
 10
-143.3657037962295
 20
463.5982320215369
 30
0.0
  0
POINT
  5
2F1
330
2E9
100
AcDbEntity
  8
Defpoints
 62
     0
100
AcDbPoint
 10
-143.3657037962303
 20
-23.40176797846357
 30
0.0
  0
POINT
  5
2F2
330
2E9
100
AcDbEntity
  8
Defpoints
 62
     0
100
AcDbPoint
 10
-324.7572822917273
 20
-23.40176797846356
 30
0.0
  0
ENDBLK
  5
2F4
330
2E9
100
AcDbEntity
  8
0
100
AcDbBlockEnd
  0
BLOCK
  5
2FF
330
2F5
100
AcDbEntity
  8
0
100
AcDbBlockBegin
  2
*D6
 70
     1
 71
     0
 10
0.0
 20
0.0
 30
0.0
  3
*D6
  1

  0
LINE
  5
2F6
330
2F5
100
AcDbEntity
  8
koty
 62
     0
370
    -2
100
AcDbLine
 10
-143.3657037962303
 20
-29.65176797846357
 30
0.0
 11
-143.3657037962303
 21
-91.09864229760068
 31
0.0
  0
LINE
  5
2F7
330
2F5
100
AcDbEntity
  8
koty
 62
     0
370
    -2
100
AcDbLine
 10
26.63429620376968
 20
-29.6517679784655
 30
0.0
 11
26.63429620376968
 21
-91.09864229760069
 31
0.0
  0
LINE
  5
2F8
330
2F5
100
AcDbEntity
  8
koty
 62
     0
370
    -2
100
AcDbLine
 10
-123.3657037962303
 20
-78.59864229760068
 30
0.0
 11
6.634296203769679
 21
-78.59864229760069
 31
0.0
  0
INSERT
  5
2F9
330
2F5
100
AcDbEntity
  8
koty
 62
     0
370
    -2
100
AcDbBlockReference
  2
VDDIM_DEFAULT
 10
-143.3657037962303
 20
-78.59864229760068
 30
0.0
 41
20.0
 42
20.0
 43
20.0
 50
180.0
  0
INSERT
  5
2FA
330
2F5
100
AcDbEntity
  8
koty
 62
     0
370
    -2
100
AcDbBlockReference
  2
VDDIM_DEFAULT
 10
26.63429620376968
 20
-78.59864229760069
 30
0.0
 41
20.0
 42
20.0
 43
20.0
 50
360.0
  0
MTEXT
  5
2FB
330
2F5
100
AcDbEntity
  8
koty
100
AcDbMText
 10
-58.36570379623031
 20
-62.34864229760069
 30
0.0
 40
20.0
 41
0.0
 71
     5
 72
     1
  1
\A1;170
 73
     1
 44
1.0
  0
POINT
  5
2FC
330
2F5
100
AcDbEntity
  8
Defpoints
 62
     0
100
AcDbPoint
 10
-143.3657037962303
 20
-23.40176797846357
 30
0.0
  0
POINT
  5
2FD
330
2F5
100
AcDbEntity
  8
Defpoints
 62
     0
100
AcDbPoint
 10
26.63429620376968
 20
-23.4017679784655
 30
0.0
  0
POINT
  5
2FE
330
2F5
100
AcDbEntity
  8
Defpoints
 62
     0
100
AcDbPoint
 10
26.63429620376968
 20
-78.59864229760069
 30
0.0
  0
ENDBLK
  5
300
330
2F5
100
AcDbEntity
  8
0
100
AcDbBlockEnd
  0
BLOCK
  5
30A
330
301
100
AcDbEntity
  8
0
100
AcDbBlockBegin
  2
*D7
 70
     1
 71
     0
 10
0.0
 20
0.0
 30
0.0
  3
*D7
  1

  0
LINE
  5
302
330
301
100
AcDbEntity
  8
koty
 62
     0
370
    -2
100
AcDbLine
 10
412.6110606563074
 20
445.0891295453466
 30
0.0
 11
407.0421017888079
 21
445.0907352782896
 31
0.0
  0
LINE
  5
303
330
301
100
AcDbEntity
  8
koty
 62
     0
370
    -2
100
AcDbLine
 10
355.042103950391
 20
445.1057287647843
 30
0.0
 11
335.0421047817691
 21
445.1114954903591
 31
0.0
  0
MTEXT
  5
304
330
301
100
AcDbEntity
  8
koty
100
AcDbMText
 10
381.1326346547627
 20
478.6282496253426
 30
0.0
 40
20.0
 41
0.0
 71
     5
 72
     1
  1
\A1;\U+220512
 11
0.9999999584310944
 21
-0.0002883362787429191
 31
0.0
 73
     1
 44
1.0
  0
INSERT
  5
305
330
301
100
AcDbEntity
  8
koty
 62
     0
370
    -2
100
AcDbBlockReference
  2
VDDIM_DEFAULT
 10
387.042102620186
 20
445.0965020038645
 30
0.0
 41
20.0
 42
20.0
 43
20.0
 50
179.9834795479188
  0
INSERT
  5
306
330
301
100
AcDbEntity
  8
koty
 62
     0
370
    -2
100
AcDbBlockReference
  2
VDDIM_DEFAULT
 10
375.0421031190129
 20
445.0999620392094
 30
0.0
 41
20.0
 42
20.0
 43
20.0
 50
359.9834795479187
  0
LINE
  5
307
330
301
100
AcDbEntity
  8
koty
 62
     0
370
    -2
100
AcDbLine
 10
375.0421031190129
 20
445.0999620392094
 30
0.0
 11
387.042102620186
 21
445.0965020038645
 31
0.0
  0
POINT
  5
308
330
301
100
AcDbEntity
  8
Defpoints
 62
     0
100
AcDbPoint
 10
387.042102620186
 20
445.0965020038645
 30
0.0
  0
POINT
  5
309
330
301
100
AcDbEntity
  8
Defpoints
 62
     0
100
AcDbPoint
 10
375.0421031190129
 20
445.0999620392094
 30
0.0
  0
ENDBLK
  5
30B
330
301
100
AcDbEntity
  8
0
100
AcDbBlockEnd
  0
ENDSEC
  0
SECTION
  2
ENTITIES
  0
CIRCLE
  5
34
330
2A2
100
AcDbEntity
  8
0
100
AcDbCircle
 10
381.0421028695993
 20
220.0982320215369
 30
0.0
 40
200.0
  0
CIRCLE
  5
36
330
2A2
100
AcDbEntity
  8
0
100
AcDbCircle
 10
381.0421028695993
 20
220.0982320215369
 30
0.0
 40
243.5
  0
CIRCLE
  5
37
330
2A2
100
AcDbEntity
  8
0
100
AcDbCircle
 10
381.0421028695993
 20
220.0982320215369
 30
0.0
 40
80.0
  0
CIRCLE
  5
38
330
2A2
100
AcDbEntity
  8
0
100
AcDbCircle
 10
381.0421028695993
 20
220.0982320215369
 30
0.0
 40
48.0
  0
CIRCLE
  5
3B
330
2A2
100
AcDbEntity
  8
0
100
AcDbCircle
 10
381.0421028695993
 20
445.098232021537
 30
0.0
 40
6.0
  0
CIRCLE
  5
3C
330
2A2
100
AcDbEntity
  8
0
100
AcDbCircle
 10
268.5421028695994
 20
414.9539478730357
 30
0.0
 40
6.0
  0
CIRCLE
  5
3D
330
2A2
100
AcDbEntity
  8
0
100
AcDbCircle
 10
186.1863870181007
 20
332.5982320215369
 30
0.0
 40
6.0
  0
CIRCLE
  5
3E
330
2A2
100
AcDbEntity
  8
0
100
AcDbCircle
 10
156.0421028695993
 20
220.098232021537
 30
0.0
 40
6.0
  0
CIRCLE
  5
3F
330
2A2
100
AcDbEntity
  8
0
100
AcDbCircle
 10
186.1863870181007
 20
107.5982320215371
 30
0.0
 40
6.0
  0
CIRCLE
  5
40
330
2A2
100
AcDbEntity
  8
0
100
AcDbCircle
 10
268.5421028695993
 20
25.24251617003836
 30
0.0
 40
6.0
  0
CIRCLE
  5
41
330
2A2
100
AcDbEntity
  8
0
100
AcDbCircle
 10
381.0421028695992
 20
-4.901767978462999
 30
0.0
 40
6.0
  0
CIRCLE
  5
42
330
2A2
100
AcDbEntity
  8
0
100
AcDbCircle
 10
493.5421028695994
 20
25.24251617003836
 30
0.0
 40
6.0
  0
CIRCLE
  5
43
330
2A2
100
AcDbEntity
  8
0
100
AcDbCircle
 10
575.8978187210979
 20
107.5982320215368
 30
0.0
 40
6.0
  0
CIRCLE
  5
44
330
2A2
100
AcDbEntity
  8
0
100
AcDbCircle
 10
606.0421028695993
 20
220.0982320215369
 30
0.0
 40
6.0
  0
CIRCLE
  5
45
330
2A2
100
AcDbEntity
  8
0
100
AcDbCircle
 10
575.8978187210979
 20
332.598232021537
 30
0.0
 40
6.0
  0
CIRCLE
  5
46
330
2A2
100
AcDbEntity
  8
0
100
AcDbCircle
 10
493.5421028695992
 20
414.9539478730357
 30
0.0
 40
6.0
  0
LINE
  5
4A
330
2A2
100
AcDbEntity
  8
0
100
AcDbLine
 10
411.263049822903
 20
257.3902467867062
 30
0.0
 11
518.8837241196535
 21
365.0109210834566
 31
0.0
  0
LINE
  5
4B
330
2A2
100
AcDbEntity
  8
0
100
AcDbLine
 10
418.3341176347686
 20
250.3191789748407
 30
0.0
 11
525.954791931519
 21
357.9398532715911
 31
0.0
  0
LINE
  5
4D
330
2A2
100
AcDbEntity
  8
0
100
AcDbLine
 10
412.0367447954286
 20
256.7497281968587
 30
0.0
 11
519.6067448819222
 21
364.3197282833523
 31
0.0
  0
LINE
  5
4E
330
2A2
100
AcDbEntity
  8
0
100
AcDbLine
 10
417.693599044921
 20
251.0928739473663
 30
0.0
 11
525.2635991314146
 21
358.6628740338599
 31
0.0
  0
LINE
  5
4F
330
2A2
100
AcDbEntity
  8
0
100
AcDbLine
 10
350.04746094377
 20
256.7497281968587
 30
0.0
 11
242.4774608572765
 21
364.3197282833524
 31
0.0
  0
LINE
  5
50
330
2A2
100
AcDbEntity
  8
0
100
AcDbLine
 10
350.8211559162956
 20
257.3902467867063
 30
0.0
 11
243.2004816195453
 21
365.0109210834567
 31
0.0
  0
LINE
  5
51
330
2A2
100
AcDbEntity
  8
0
100
AcDbLine
 10
343.7500881044301
 20
250.3191789748407
 30
0.0
 11
236.1294138076797
 21
357.9398532715913
 31
0.0
  0
LINE
  5
52
330
2A2
100
AcDbEntity
  8
0
100
AcDbLine
 10
344.3906066942776
 20
251.0928739473663
 30
0.0
 11
236.8206066077841
 21
358.6628740338599
 31
0.0
  0
LINE
  5
53
330
2A2
100
AcDbEntity
  8
0
100
AcDbLine
 10
344.3906066942775
 20
189.1035900957076
 30
0.0
 11
236.8206066077838
 21
81.53359000921415
 31
0.0
  0
LINE
  5
54
330
2A2
100
AcDbEntity
  8
0
100
AcDbLine
 10
343.75008810443
 20
189.8772850682332
 30
0.0
 11
236.1294138076794
 21
82.25661077148293
 31
0.0
  0
LINE
  5
55
330
2A2
100
AcDbEntity
  8
0
100
AcDbLine
 10
350.8211559162954
 20
182.8062172563677
 30
0.0
 11
243.2004816195449
 21
75.18554295961741
 31
0.0
  0
LINE
  5
56
330
2A2
100
AcDbEntity
  8
0
100
AcDbLine
 10
350.0474609437698
 20
183.4467358462152
 30
0.0
 11
242.4774608572763
 21
75.87673575972173
 31
0.0
  0
LINE
  5
57
330
2A2
100
AcDbEntity
  8
0
100
AcDbLine
 10
412.0367447954285
 20
183.4467358462151
 30
0.0
 11
519.6067448819221
 21
75.87673575972144
 31
0.0
  0
LINE
  5
58
330
2A2
100
AcDbEntity
  8
0
100
AcDbLine
 10
411.2630498229029
 20
182.8062172563675
 30
0.0
 11
518.8837241196532
 21
75.18554295961712
 31
0.0
  0
LINE
  5
59
330
2A2
100
AcDbEntity
  8
0
100
AcDbLine
 10
418.3341176347685
 20
189.8772850682331
 30
0.0
 11
525.9547919315187
 21
82.25661077148254
 31
0.0
  0
LINE
  5
5A
330
2A2
100
AcDbEntity
  8
0
100
AcDbLine
 10
417.693599044921
 20
189.1035900957074
 30
0.0
 11
525.2635991314145
 21
81.53359000921398
 31
0.0
  0
LINE
  5
5B
330
2A2
100
AcDbEntity
  8
0
100
AcDbLine
 10
379.3910015886148
 20
268.0698263723602
 30
0.0
 11
379.3910015886149
 21
290.7467672489061
 31
0.0
  0
LINE
  5
5C
330
2A2
100
AcDbEntity
  8
0
100
AcDbLine
 10
379.3910015886149
 20
290.7467672489061
 30
0.0
 11
381.0421028695993
 21
290.7467672489061
 31
0.0
  0
LINE
  5
5D
330
2A2
100
AcDbEntity
  8
0
100
AcDbLine
 10
382.6932041505838
 20
268.0698263723602
 30
0.0
 11
382.6932041505838
 21
290.7467672489061
 31
0.0
  0
LINE
  5
5E
330
2A2
100
AcDbEntity
  8
0
100
AcDbLine
 10
382.6932041505838
 20
290.7467672489061
 30
0.0
 11
381.0421028695993
 21
290.7467672489061
 31
0.0
  0
LINE
  5
5F
330
2A2
100
AcDbEntity
  8
0
100
AcDbLine
 10
373.3026849129147
 20
267.4701795188876
 30
0.0
 11
368.8786332149686
 21
289.7113893351782
 31
0.0
  0
LINE
  5
60
330
2A2
100
AcDbEntity
  8
0
100
AcDbLine
 10
370.0639332472257
 20
266.8259517577105
 30
0.0
 11
365.6398815492797
 21
289.0671615740013
 31
0.0
  0
LINE
  5
61
330
2A2
100
AcDbEntity
  8
0
100
AcDbLine
 10
365.6398815492797
 20
289.0671615740013
 30
0.0
 11
367.2592573821241
 21
289.3892754545898
 31
0.0
  0
LINE
  5
62
330
2A2
100
AcDbEntity
  8
0
100
AcDbLine
 10
368.8786332149686
 20
289.7113893351782
 30
0.0
 11
367.2592573821241
 21
289.3892754545898
 31
0.0
  0
LINE
  5
63
330
2A2
100
AcDbEntity
  8
0
100
AcDbLine
 10
364.2095871670053
 20
265.0500552895861
 30
0.0
 11
355.5314975968284
 21
286.0008168253955
 31
0.0
  0
LINE
  5
64
330
2A2
100
AcDbEntity
  8
0
100
AcDbLine
 10
361.1587498077958
 20
263.786357078807
 30
0.0
 11
352.4806602376191
 21
284.7371186146164
 31
0.0
  0
LINE
  5
65
330
2A2
100
AcDbEntity
  8
0
100
AcDbLine
 10
352.4806602376191
 20
284.7371186146164
 30
0.0
 11
354.0060789172238
 21
285.368967720006
 31
0.0
  0
LINE
  5
66
330
2A2
100
AcDbEntity
  8
0
100
AcDbLine
 10
355.5314975968284
 20
286.0008168253955
 30
0.0
 11
354.0060789172238
 21
285.368967720006
 31
0.0
  0
LINE
  5
67
330
2A2
100
AcDbEntity
  8
0
100
AcDbLine
 10
355.7633535597631
 20
260.9024577013664
 30
0.0
 11
343.1647202328087
 21
279.7576449401958
 31
0.0
  0
LINE
  5
68
330
2A2
100
AcDbEntity
  8
0
100
AcDbLine
 10
353.0176724758182
 20
259.0678522545354
 30
0.0
 11
340.4190391488639
 21
277.9230394933648
 31
0.0
  0
LINE
  5
69
330
2A2
100
AcDbEntity
  8
0
100
AcDbLine
 10
340.4190391488639
 20
277.9230394933648
 30
0.0
 11
341.7918796908363
 21
278.8403422167803
 31
0.0
  0
LINE
  5
6A
330
2A2
100
AcDbEntity
  8
0
100
AcDbLine
 10
343.1647202328087
 20
279.7576449401958
 30
0.0
 11
341.7918796908363
 21
278.8403422167803
 31
0.0
  0
LINE
  5
6B
330
2A2
100
AcDbEntity
  8
0
100
AcDbLine
 10
348.2885681120119
 20
255.1867766035443
 30
0.0
 11
332.2535494416397
 21
271.2217952739164
 31
0.0
  0
LINE
  5
6C
330
2A2
100
AcDbEntity
  8
0
100
AcDbLine
 10
345.953558287592
 20
252.8517667791244
 30
0.0
 11
329.9185396172199
 21
268.8867854494965
 31
0.0
  0
LINE
  5
6D
330
2A2
100
AcDbEntity
  8
0
100
AcDbLine
 10
329.9185396172199
 20
268.8867854494965
 30
0.0
 11
331.0860445294299
 21
270.0542903617065
 31
0.0
  0
LINE
  5
6E
330
2A2
100
AcDbEntity
  8
0
100
AcDbLine
 10
332.2535494416397
 20
271.2217952739164
 30
0.0
 11
331.0860445294299
 21
270.0542903617065
 31
0.0
  0
LINE
  5
6F
330
2A2
100
AcDbEntity
  8
0
100
AcDbLine
 10
342.0724826366009
 20
248.1226624153181
 30
0.0
 11
323.2172953977715
 21
260.7212957422724
 31
0.0
  0
LINE
  5
70
330
2A2
100
AcDbEntity
  8
0
100
AcDbLine
 10
340.2378771897699
 20
245.3769813313732
 30
0.0
 11
321.3826899509405
 21
257.9756146583277
 31
0.0
  0
LINE
  5
71
330
2A2
100
AcDbEntity
  8
0
100
AcDbLine
 10
321.3826899509405
 20
257.9756146583277
 30
0.0
 11
322.299992674356
 21
259.3484552003
 31
0.0
  0
LINE
  5
72
330
2A2
100
AcDbEntity
  8
0
100
AcDbLine
 10
323.2172953977715
 20
260.7212957422724
 30
0.0
 11
322.299992674356
 21
259.3484552003
 31
0.0
  0
LINE
  5
73
330
2A2
100
AcDbEntity
  8
0
100
AcDbLine
 10
337.3539778123292
 20
239.9815850833405
 30
0.0
 11
316.4032162765199
 21
248.6596746535173
 31
0.0
  0
LINE
  5
74
330
2A2
100
AcDbEntity
  8
0
100
AcDbLine
 10
336.0902796015502
 20
236.930747724131
 30
0.0
 11
315.1395180657408
 21
245.6088372943079
 31
0.0
  0
LINE
  5
75
330
2A2
100
AcDbEntity
  8
0
100
AcDbLine
 10
315.1395180657408
 20
245.6088372943079
 30
0.0
 11
315.7713671711303
 21
247.1342559739126
 31
0.0
  0
LINE
  5
76
330
2A2
100
AcDbEntity
  8
0
100
AcDbLine
 10
316.4032162765199
 20
248.6596746535173
 30
0.0
 11
315.7713671711303
 21
247.1342559739126
 31
0.0
  0
LINE
  5
77
330
2A2
100
AcDbEntity
  8
0
100
AcDbLine
 10
334.3143831334257
 20
231.0764016439107
 30
0.0
 11
312.073173317135
 21
235.5004533418567
 31
0.0
  0
LINE
  5
78
330
2A2
100
AcDbEntity
  8
0
100
AcDbLine
 10
333.6701553722487
 20
227.8376499782217
 30
0.0
 11
311.4289455559581
 21
232.2617016761678
 31
0.0
  0
LINE
  5
79
330
2A2
100
AcDbEntity
  8
0
100
AcDbLine
 10
311.4289455559581
 20
232.2617016761678
 30
0.0
 11
311.7510594365465
 21
233.8810775090123
 31
0.0
  0
LINE
  5
7A
330
2A2
100
AcDbEntity
  8
0
100
AcDbLine
 10
312.073173317135
 20
235.5004533418567
 30
0.0
 11
311.7510594365465
 21
233.8810775090123
 31
0.0
  0
LINE
  5
7B
330
2A2
100
AcDbEntity
  8
0
100
AcDbLine
 10
333.0705085187762
 20
221.7493333025215
 30
0.0
 11
310.3935676422302
 21
221.7493333025215
 31
0.0
  0
LINE
  5
7C
330
2A2
100
AcDbEntity
  8
0
100
AcDbLine
 10
333.0705085187762
 20
218.4471307405525
 30
0.0
 11
310.3935676422302
 21
218.4471307405526
 31
0.0
  0
LINE
  5
7D
330
2A2
100
AcDbEntity
  8
0
100
AcDbLine
 10
310.3935676422302
 20
218.4471307405526
 30
0.0
 11
310.3935676422302
 21
220.098232021537
 31
0.0
  0
LINE
  5
7E
330
2A2
100
AcDbEntity
  8
0
100
AcDbLine
 10
310.3935676422302
 20
221.7493333025215
 30
0.0
 11
310.3935676422302
 21
220.098232021537
 31
0.0
  0
LINE
  5
7F
330
2A2
100
AcDbEntity
  8
0
100
AcDbLine
 10
333.6701553722487
 20
212.3588140648523
 30
0.0
 11
311.4289455559581
 21
207.9347623669063
 31
0.0
  0
LINE
  5
80
330
2A2
100
AcDbEntity
  8
0
100
AcDbLine
 10
334.3143831334257
 20
209.1200623991633
 30
0.0
 11
312.0731733171351
 21
204.6960107012174
 31
0.0
  0
LINE
  5
81
330
2A2
100
AcDbEntity
  8
0
100
AcDbLine
 10
312.0731733171351
 20
204.6960107012174
 30
0.0
 11
311.7510594365465
 21
206.3153865340618
 31
0.0
  0
LINE
  5
82
330
2A2
100
AcDbEntity
  8
0
100
AcDbLine
 10
311.4289455559581
 20
207.9347623669063
 30
0.0
 11
311.7510594365465
 21
206.3153865340618
 31
0.0
  0
LINE
  5
83
330
2A2
100
AcDbEntity
  8
0
100
AcDbLine
 10
336.09027960155
 20
203.265716318943
 30
0.0
 11
315.1395180657407
 21
194.5876267487661
 31
0.0
  0
LINE
  5
84
330
2A2
100
AcDbEntity
  8
0
100
AcDbLine
 10
337.3539778123291
 20
200.2148789597334
 30
0.0
 11
316.4032162765197
 21
191.5367893895567
 31
0.0
  0
LINE
  5
85
330
2A2
100
AcDbEntity
  8
0
100
AcDbLine
 10
316.4032162765197
 20
191.5367893895567
 30
0.0
 11
315.7713671711302
 21
193.0622080691614
 31
0.0
  0
LINE
  5
86
330
2A2
100
AcDbEntity
  8
0
100
AcDbLine
 10
315.1395180657407
 20
194.5876267487661
 30
0.0
 11
315.7713671711302
 21
193.0622080691614
 31
0.0
  0
LINE
  5
87
330
2A2
100
AcDbEntity
  8
0
100
AcDbLine
 10
340.2378771897698
 20
194.8194827117007
 30
0.0
 11
321.3826899509403
 21
182.2208493847464
 31
0.0
  0
LINE
  5
88
330
2A2
100
AcDbEntity
  8
0
100
AcDbLine
 10
342.0724826366008
 20
192.0738016277559
 30
0.0
 11
323.2172953977713
 21
179.4751683008016
 31
0.0
  0
LINE
  5
89
330
2A2
100
AcDbEntity
  8
0
100
AcDbLine
 10
323.2172953977713
 20
179.4751683008016
 30
0.0
 11
322.2999926743558
 21
180.848008842774
 31
0.0
  0
LINE
  5
8A
330
2A2
100
AcDbEntity
  8
0
100
AcDbLine
 10
321.3826899509403
 20
182.2208493847464
 30
0.0
 11
322.2999926743558
 21
180.848008842774
 31
0.0
  0
LINE
  5
8B
330
2A2
100
AcDbEntity
  8
0
100
AcDbLine
 10
345.9535582875919
 20
187.3446972639496
 30
0.0
 11
329.9185396172199
 21
171.3096785935775
 31
0.0
  0
LINE
  5
8C
330
2A2
100
AcDbEntity
  8
0
100
AcDbLine
 10
348.2885681120118
 20
185.0096874395297
 30
0.0
 11
332.2535494416397
 21
168.9746687691577
 31
0.0
  0
LINE
  5
8D
330
2A2
100
AcDbEntity
  8
0
100
AcDbLine
 10
332.2535494416397
 20
168.9746687691577
 30
0.0
 11
331.0860445294298
 21
170.1421736813676
 31
0.0
  0
LINE
  5
8E
330
2A2
100
AcDbEntity
  8
0
100
AcDbLine
 10
329.9185396172199
 20
171.3096785935775
 30
0.0
 11
331.0860445294298
 21
170.1421736813676
 31
0.0
  0
LINE
  5
8F
330
2A2
100
AcDbEntity
  8
0
100
AcDbLine
 10
353.0176724758181
 20
181.1286117885386
 30
0.0
 11
340.4190391488638
 21
162.2734245497092
 31
0.0
  0
LINE
  5
90
330
2A2
100
AcDbEntity
  8
0
100
AcDbLine
 10
355.763353559763
 20
179.2940063417075
 30
0.0
 11
343.1647202328085
 21
160.4388191028782
 31
0.0
  0
LINE
  5
91
330
2A2
100
AcDbEntity
  8
0
100
AcDbLine
 10
343.1647202328085
 20
160.4388191028782
 30
0.0
 11
341.7918796908362
 21
161.3561218262937
 31
0.0
  0
LINE
  5
92
330
2A2
100
AcDbEntity
  8
0
100
AcDbLine
 10
340.4190391488638
 20
162.2734245497092
 30
0.0
 11
341.7918796908362
 21
161.3561218262937
 31
0.0
  0
LINE
  5
93
330
2A2
100
AcDbEntity
  8
0
100
AcDbLine
 10
361.1587498077958
 20
176.4101069642669
 30
0.0
 11
352.480660237619
 21
155.4593454284575
 31
0.0
  0
LINE
  5
94
330
2A2
100
AcDbEntity
  8
0
100
AcDbLine
 10
364.2095871670053
 20
175.1464087534879
 30
0.0
 11
355.5314975968284
 21
154.1956472176785
 31
0.0
  0
LINE
  5
95
330
2A2
100
AcDbEntity
  8
0
100
AcDbLine
 10
355.5314975968284
 20
154.1956472176785
 30
0.0
 11
354.0060789172237
 21
154.827496323068
 31
0.0
  0
LINE
  5
96
330
2A2
100
AcDbEntity
  8
0
100
AcDbLine
 10
352.480660237619
 20
155.4593454284575
 30
0.0
 11
354.0060789172237
 21
154.827496323068
 31
0.0
  0
LINE
  5
97
330
2A2
100
AcDbEntity
  8
0
100
AcDbLine
 10
370.0639332472255
 20
173.3705122853634
 30
0.0
 11
365.6398815492794
 21
151.1293024690728
 31
0.0
  0
LINE
  5
98
330
2A2
100
AcDbEntity
  8
0
100
AcDbLine
 10
373.3026849129145
 20
172.7262845241864
 30
0.0
 11
368.8786332149684
 21
150.4850747078958
 31
0.0
  0
LINE
  5
99
330
2A2
100
AcDbEntity
  8
0
100
AcDbLine
 10
368.8786332149684
 20
150.4850747078958
 30
0.0
 11
367.2592573821239
 21
150.8071885884843
 31
0.0
  0
LINE
  5
9A
330
2A2
100
AcDbEntity
  8
0
100
AcDbLine
 10
365.6398815492794
 20
151.1293024690728
 30
0.0
 11
367.2592573821239
 21
150.8071885884843
 31
0.0
  0
LINE
  5
9B
330
2A2
100
AcDbEntity
  8
0
100
AcDbLine
 10
379.3910015886146
 20
172.1266376707138
 30
0.0
 11
379.3910015886147
 21
149.4496967941678
 31
0.0
  0
LINE
  5
9C
330
2A2
100
AcDbEntity
  8
0
100
AcDbLine
 10
382.6932041505837
 20
172.1266376707138
 30
0.0
 11
382.6932041505836
 21
149.4496967941678
 31
0.0
  0
LINE
  5
9D
330
2A2
100
AcDbEntity
  8
0
100
AcDbLine
 10
382.6932041505836
 20
149.4496967941678
 30
0.0
 11
381.0421028695992
 21
149.4496967941678
 31
0.0
  0
LINE
  5
9E
330
2A2
100
AcDbEntity
  8
0
100
AcDbLine
 10
379.3910015886147
 20
149.4496967941678
 30
0.0
 11
381.0421028695992
 21
149.4496967941678
 31
0.0
  0
LINE
  5
9F
330
2A2
100
AcDbEntity
  8
0
100
AcDbLine
 10
388.7815208262838
 20
172.7262845241863
 30
0.0
 11
393.2055725242299
 21
150.4850747078957
 31
0.0
  0
LINE
  5
A0
330
2A2
100
AcDbEntity
  8
0
100
AcDbLine
 10
392.0202724919728
 20
173.3705122853633
 30
0.0
 11
396.4443241899188
 21
151.1293024690727
 31
0.0
  0
LINE
  5
A1
330
2A2
100
AcDbEntity
  8
0
100
AcDbLine
 10
396.4443241899188
 20
151.1293024690727
 30
0.0
 11
394.8249483570744
 21
150.8071885884842
 31
0.0
  0
LINE
  5
A2
330
2A2
100
AcDbEntity
  8
0
100
AcDbLine
 10
393.2055725242299
 20
150.4850747078957
 30
0.0
 11
394.8249483570744
 21
150.8071885884842
 31
0.0
  0
LINE
  5
A3
330
2A2
100
AcDbEntity
  8
0
100
AcDbLine
 10
397.8746185721931
 20
175.1464087534877
 30
0.0
 11
406.55270814237
 21
154.1956472176783
 31
0.0
  0
LINE
  5
A4
330
2A2
100
AcDbEntity
  8
0
100
AcDbLine
 10
400.9254559314026
 20
176.4101069642669
 30
0.0
 11
409.6035455015793
 21
155.4593454284574
 31
0.0
  0
LINE
  5
A5
330
2A2
100
AcDbEntity
  8
0
100
AcDbLine
 10
409.6035455015793
 20
155.4593454284574
 30
0.0
 11
408.0781268219746
 21
154.8274963230679
 31
0.0
  0
LINE
  5
A6
330
2A2
100
AcDbEntity
  8
0
100
AcDbLine
 10
406.55270814237
 20
154.1956472176783
 30
0.0
 11
408.0781268219746
 21
154.8274963230679
 31
0.0
  0
LINE
  5
A7
330
2A2
100
AcDbEntity
  8
0
100
AcDbLine
 10
406.3208521794354
 20
179.2940063417074
 30
0.0
 11
418.9194855063898
 21
160.438819102878
 31
0.0
  0
LINE
  5
A8
330
2A2
100
AcDbEntity
  8
0
100
AcDbLine
 10
409.0665332633802
 20
181.1286117885384
 30
0.0
 11
421.6651665903346
 21
162.2734245497089
 31
0.0
  0
LINE
  5
A9
330
2A2
100
AcDbEntity
  8
0
100
AcDbLine
 10
421.6651665903346
 20
162.2734245497089
 30
0.0
 11
420.2923260483622
 21
161.3561218262934
 31
0.0
  0
LINE
  5
AA
330
2A2
100
AcDbEntity
  8
0
100
AcDbLine
 10
418.9194855063898
 20
160.438819102878
 30
0.0
 11
420.2923260483622
 21
161.3561218262934
 31
0.0
  0
LINE
  5
AB
330
2A2
100
AcDbEntity
  8
0
100
AcDbLine
 10
413.7956376271866
 20
185.0096874395296
 30
0.0
 11
429.8306562975587
 21
168.9746687691575
 31
0.0
  0
LINE
  5
AC
330
2A2
100
AcDbEntity
  8
0
100
AcDbLine
 10
416.1306474516065
 20
187.3446972639494
 30
0.0
 11
432.1656661219785
 21
171.3096785935773
 31
0.0
  0
LINE
  5
AD
330
2A2
100
AcDbEntity
  8
0
100
AcDbLine
 10
432.1656661219785
 20
171.3096785935773
 30
0.0
 11
430.9981612097686
 21
170.1421736813674
 31
0.0
  0
LINE
  5
AE
330
2A2
100
AcDbEntity
  8
0
100
AcDbLine
 10
429.8306562975587
 20
168.9746687691575
 30
0.0
 11
430.9981612097686
 21
170.1421736813674
 31
0.0
  0
LINE
  5
AF
330
2A2
100
AcDbEntity
  8
0
100
AcDbLine
 10
420.0117231025975
 20
192.0738016277557
 30
0.0
 11
438.8669103414271
 21
179.4751683008013
 31
0.0
  0
LINE
  5
B0
330
2A2
100
AcDbEntity
  8
0
100
AcDbLine
 10
421.8463285494286
 20
194.8194827117005
 30
0.0
 11
440.7015157882581
 21
182.220849384746
 31
0.0
  0
LINE
  5
B1
330
2A2
100
AcDbEntity
  8
0
100
AcDbLine
 10
440.7015157882581
 20
182.220849384746
 30
0.0
 11
439.7842130648426
 21
180.8480088427737
 31
0.0
  0
LINE
  5
B2
330
2A2
100
AcDbEntity
  8
0
100
AcDbLine
 10
438.8669103414271
 20
179.4751683008013
 30
0.0
 11
439.7842130648426
 21
180.8480088427737
 31
0.0
  0
LINE
  5
B3
330
2A2
100
AcDbEntity
  8
0
100
AcDbLine
 10
424.7302279268692
 20
200.2148789597333
 30
0.0
 11
445.6809894626786
 21
191.5367893895565
 31
0.0
  0
LINE
  5
B4
330
2A2
100
AcDbEntity
  8
0
100
AcDbLine
 10
425.9939261376484
 20
203.2657163189428
 30
0.0
 11
446.9446876734577
 21
194.5876267487659
 31
0.0
  0
LINE
  5
B5
330
2A2
100
AcDbEntity
  8
0
100
AcDbLine
 10
446.9446876734577
 20
194.5876267487659
 30
0.0
 11
446.3128385680682
 21
193.0622080691612
 31
0.0
  0
LINE
  5
B6
330
2A2
100
AcDbEntity
  8
0
100
AcDbLine
 10
445.6809894626786
 20
191.5367893895565
 30
0.0
 11
446.3128385680682
 21
193.0622080691612
 31
0.0
  0
LINE
  5
B7
330
2A2
100
AcDbEntity
  8
0
100
AcDbLine
 10
427.7698226057728
 20
209.120062399163
 30
0.0
 11
450.0110324220635
 21
204.696010701217
 31
0.0
  0
LINE
  5
B8
330
2A2
100
AcDbEntity
  8
0
100
AcDbLine
 10
428.4140503669499
 20
212.3588140648521
 30
0.0
 11
450.6552601832405
 21
207.9347623669059
 31
0.0
  0
LINE
  5
B9
330
2A2
100
AcDbEntity
  8
0
100
AcDbLine
 10
450.6552601832405
 20
207.9347623669059
 30
0.0
 11
450.333146302652
 21
206.3153865340614
 31
0.0
  0
LINE
  5
BA
330
2A2
100
AcDbEntity
  8
0
100
AcDbLine
 10
450.0110324220635
 20
204.696010701217
 30
0.0
 11
450.333146302652
 21
206.3153865340614
 31
0.0
  0
LINE
  5
BB
330
2A2
100
AcDbEntity
  8
0
100
AcDbLine
 10
429.0136972204225
 20
218.4471307405523
 30
0.0
 11
451.6906380969684
 21
218.4471307405523
 31
0.0
  0
LINE
  5
BC
330
2A2
100
AcDbEntity
  8
0
100
AcDbLine
 10
429.0136972204225
 20
221.7493333025213
 30
0.0
 11
451.6906380969684
 21
221.7493333025212
 31
0.0
  0
LINE
  5
BD
330
2A2
100
AcDbEntity
  8
0
100
AcDbLine
 10
451.6906380969684
 20
221.7493333025212
 30
0.0
 11
451.6906380969684
 21
220.0982320215367
 31
0.0
  0
LINE
  5
BE
330
2A2
100
AcDbEntity
  8
0
100
AcDbLine
 10
451.6906380969684
 20
218.4471307405523
 30
0.0
 11
451.6906380969684
 21
220.0982320215367
 31
0.0
  0
LINE
  5
BF
330
2A2
100
AcDbEntity
  8
0
100
AcDbLine
 10
428.4140503669499
 20
227.8376499782215
 30
0.0
 11
450.6552601832406
 21
232.2617016761676
 31
0.0
  0
LINE
  5
C0
330
2A2
100
AcDbEntity
  8
0
100
AcDbLine
 10
427.7698226057729
 20
231.0764016439106
 30
0.0
 11
450.0110324220636
 21
235.5004533418565
 31
0.0
  0
LINE
  5
C1
330
2A2
100
AcDbEntity
  8
0
100
AcDbLine
 10
450.0110324220636
 20
235.5004533418565
 30
0.0
 11
450.3331463026521
 21
233.8810775090121
 31
0.0
  0
LINE
  5
C2
330
2A2
100
AcDbEntity
  8
0
100
AcDbLine
 10
450.6552601832406
 20
232.2617016761676
 30
0.0
 11
450.3331463026521
 21
233.8810775090121
 31
0.0
  0
LINE
  5
C3
330
2A2
100
AcDbEntity
  8
0
100
AcDbLine
 10
425.9939261376485
 20
236.9307477241308
 30
0.0
 11
446.9446876734578
 21
245.6088372943077
 31
0.0
  0
LINE
  5
C4
330
2A2
100
AcDbEntity
  8
0
100
AcDbLine
 10
424.7302279268693
 20
239.9815850833403
 30
0.0
 11
445.6809894626788
 21
248.6596746535171
 31
0.0
  0
LINE
  5
C5
330
2A2
100
AcDbEntity
  8
0
100
AcDbLine
 10
445.6809894626788
 20
248.6596746535171
 30
0.0
 11
446.3128385680683
 21
247.1342559739124
 31
0.0
  0
LINE
  5
C6
330
2A2
100
AcDbEntity
  8
0
100
AcDbLine
 10
446.9446876734578
 20
245.6088372943077
 30
0.0
 11
446.3128385680683
 21
247.1342559739124
 31
0.0
  0
LINE
  5
C7
330
2A2
100
AcDbEntity
  8
0
100
AcDbLine
 10
421.8463285494288
 20
245.3769813313731
 30
0.0
 11
440.7015157882582
 21
257.9756146583275
 31
0.0
  0
LINE
  5
C8
330
2A2
100
AcDbEntity
  8
0
100
AcDbLine
 10
420.0117231025977
 20
248.1226624153179
 30
0.0
 11
438.8669103414272
 21
260.7212957422723
 31
0.0
  0
LINE
  5
C9
330
2A2
100
AcDbEntity
  8
0
100
AcDbLine
 10
438.8669103414272
 20
260.7212957422723
 30
0.0
 11
439.7842130648426
 21
259.3484552003
 31
0.0
  0
LINE
  5
CA
330
2A2
100
AcDbEntity
  8
0
100
AcDbLine
 10
440.7015157882582
 20
257.9756146583275
 30
0.0
 11
439.7842130648426
 21
259.3484552003
 31
0.0
  0
LINE
  5
CB
330
2A2
100
AcDbEntity
  8
0
100
AcDbLine
 10
416.1306474516067
 20
252.8517667791243
 30
0.0
 11
432.1656661219787
 21
268.8867854494964
 31
0.0
  0
LINE
  5
CC
330
2A2
100
AcDbEntity
  8
0
100
AcDbLine
 10
413.7956376271868
 20
255.1867766035441
 30
0.0
 11
429.8306562975589
 21
271.2217952739162
 31
0.0
  0
LINE
  5
CD
330
2A2
100
AcDbEntity
  8
0
100
AcDbLine
 10
429.8306562975589
 20
271.2217952739162
 30
0.0
 11
430.9981612097688
 21
270.0542903617062
 31
0.0
  0
LINE
  5
CE
330
2A2
100
AcDbEntity
  8
0
100
AcDbLine
 10
432.1656661219787
 20
268.8867854494964
 30
0.0
 11
430.9981612097688
 21
270.0542903617062
 31
0.0
  0
LINE
  5
CF
330
2A2
100
AcDbEntity
  8
0
100
AcDbLine
 10
409.0665332633805
 20
259.0678522545353
 30
0.0
 11
421.6651665903348
 21
277.9230394933648
 31
0.0
  0
LINE
  5
D0
330
2A2
100
AcDbEntity
  8
0
100
AcDbLine
 10
406.3208521794356
 20
260.9024577013664
 30
0.0
 11
418.9194855063901
 21
279.7576449401957
 31
0.0
  0
LINE
  5
D1
330
2A2
100
AcDbEntity
  8
0
100
AcDbLine
 10
418.9194855063901
 20
279.7576449401957
 30
0.0
 11
420.2923260483625
 21
278.8403422167803
 31
0.0
  0
LINE
  5
D2
330
2A2
100
AcDbEntity
  8
0
100
AcDbLine
 10
421.6651665903348
 20
277.9230394933648
 30
0.0
 11
420.2923260483625
 21
278.8403422167803
 31
0.0
  0
LINE
  5
D3
330
2A2
100
AcDbEntity
  8
0
100
AcDbLine
 10
400.925455931403
 20
263.7863570788069
 30
0.0
 11
409.6035455015798
 21
284.7371186146164
 31
0.0
  0
LINE
  5
D4
330
2A2
100
AcDbEntity
  8
0
100
AcDbLine
 10
397.8746185721934
 20
265.0500552895861
 30
0.0
 11
406.5527081423703
 21
286.0008168253955
 31
0.0
  0
LINE
  5
D5
330
2A2
100
AcDbEntity
  8
0
100
AcDbLine
 10
406.5527081423703
 20
286.0008168253955
 30
0.0
 11
408.078126821975
 21
285.368967720006
 31
0.0
  0
LINE
  5
D6
330
2A2
100
AcDbEntity
  8
0
100
AcDbLine
 10
409.6035455015798
 20
284.7371186146164
 30
0.0
 11
408.078126821975
 21
285.368967720006
 31
0.0
  0
LINE
  5
D7
330
2A2
100
AcDbEntity
  8
0
100
AcDbLine
 10
392.020272491973
 20
266.8259517577106
 30
0.0
 11
396.4443241899191
 21
289.0671615740012
 31
0.0
  0
LINE
  5
D8
330
2A2
100
AcDbEntity
  8
0
100
AcDbLine
 10
388.781520826284
 20
267.4701795188876
 30
0.0
 11
393.2055725242301
 21
289.7113893351782
 31
0.0
  0
LINE
  5
D9
330
2A2
100
AcDbEntity
  8
0
100
AcDbLine
 10
393.2055725242301
 20
289.7113893351782
 30
0.0
 11
394.8249483570746
 21
289.3892754545897
 31
0.0
  0
LINE
  5
DA
330
2A2
100
AcDbEntity
  8
0
100
AcDbLine
 10
396.4443241899191
 20
289.0671615740012
 30
0.0
 11
394.8249483570746
 21
289.3892754545897
 31
0.0
  0
ARC
  5
DD
330
2A2
100
AcDbEntity
  8
0
100
AcDbCircle
 10
759.2997092405291
 20
496.855504480697
 30
0.0
 40
446.6874107889958
100
AcDbArc
 50
193.8803183675871
 51
206.5489825856182
  0
ARC
  5
DE
330
2A2
100
AcDbEntity
  8
0
100
AcDbCircle
 10
365.923119410846
 20
386.323973070732
 30
0.0
 40
40.70713943712443
100
AcDbArc
 50
139.1808889668586
 51
172.6417542164033
  0
ARC
  5
DF
330
2A2
100
AcDbEntity
  8
0
100
AcDbCircle
 10
381.0421028695993
 20
220.0982320215369
 30
0.0
 40
198.2282130774614
100
AcDbArc
 50
74.98460430478356
 51
103.3959115949069
  0
ARC
  5
E0
330
2A2
100
AcDbEntity
  8
0
100
AcDbCircle
 10
330.5100368847686
 20
390.8970893805894
 30
0.0
 40
5.0
100
AcDbArc
 50
172.641754216403
 51
193.8803183675872
  0
ARC
  5
E8
330
2A2
100
AcDbEntity
  8
0
100
AcDbCircle
 10
781.3853781458811
 20
308.8390389804083
 30
0.0
 40
375.8005949713987
100
AcDbArc
 50
166.5488352478754
 51
181.9639904775772
  0
ARC
  5
E9
330
2A2
100
AcDbEntity
  8
0
100
AcDbCircle
 10
467.6049236540549
 20
357.0304451418471
 30
0.0
 40
64.90567704105227
100
AcDbArc
 50
122.8485295071273
 51
142.8176240316461
  0
ARC
  5
EA
330
2A2
100
AcDbEntity
  8
0
100
AcDbCircle
 10
400.5043143068157
 20
688.3872741338548
 30
0.0
 40
446.6874107889958
100
AcDbArc
 50
245.3088897961586
 51
257.9775540141897
  0
ARC
  5
EB
330
2A2
100
AcDbEntity
  8
0
100
AcDbCircle
 10
241.6550533197568
 20
311.917789121154
 30
0.0
 40
40.70713943712443
100
AcDbArc
 50
190.60946039543
 51
224.0703256449747
  0
ARC
  5
EC
330
2A2
100
AcDbEntity
  8
0
100
AcDbCircle
 10
561.2716955870211
 20
588.4281965744697
 30
0.0
 40
375.8005949713987
100
AcDbArc
 50
217.9774066764468
 51
233.3925619061486
  0
ARC
  5
ED
330
2A2
100
AcDbEntity
  8
0
100
AcDbCircle
 10
327.9552236673524
 20
373.1516089485223
 30
0.0
 40
64.90567704105227
100
AcDbArc
 50
174.2771009356988
 51
194.2461954602175
  0
ARC
  5
EE
330
2A2
100
AcDbEntity
  8
0
100
AcDbCircle
 10
381.0421028695994
 20
220.098232021537
 30
0.0
 40
198.2282130774614
100
AcDbArc
 50
126.4131757333549
 51
154.8244830234783
  0
ARC
  5
EF
330
2A2
100
AcDbEntity
  8
0
100
AcDbCircle
 10
27.05347720411527
 20
527.2878437208273
 30
0.0
 40
446.6874107889958
100
AcDbArc
 50
296.73746122473
 51
309.406125442761
  0
ARC
  5
F0
330
2A2
100
AcDbEntity
  8
0
100
AcDbCircle
 10
222.348278517343
 20
168.3696058979359
 30
0.0
 40
40.70713943712443
100
AcDbArc
 50
242.0380318240014
 51
275.4988970735461
  0
ARC
  5
F1
330
2A2
100
AcDbEntity
  8
0
100
AcDbCircle
 10
205.4414536982487
 20
590.6573782981504
 30
0.0
 40
375.8005949713987
100
AcDbArc
 50
269.4059781050182
 51
284.82113333472
  0
ARC
  5
F2
330
2A2
100
AcDbEntity
  8
0
100
AcDbCircle
 10
228.2810264949287
 20
274.0204582092593
 30
0.0
 40
64.90567704105227
100
AcDbArc
 50
225.7056723642701
 51
245.6747668887889
  0
ARC
  5
F3
330
2A2
100
AcDbEntity
  8
0
100
AcDbCircle
 10
381.0421028695993
 20
220.0982320215371
 30
0.0
 40
198.2282130774614
100
AcDbArc
 50
177.8417471619263
 51
206.2530544520498
  0
ARC
  5
F4
330
2A2
100
AcDbEntity
  8
0
100
AcDbCircle
 10
-79.83670472045333
 20
134.868370172123
 30
0.0
 40
446.6874107889958
100
AcDbArc
 50
348.1660326533014
 51
0.8346968713325075
  0
ARC
  5
F5
330
2A2
100
AcDbEntity
  8
0
100
AcDbCircle
 10
322.541190216256
 20
63.77413321746274
 30
0.0
 40
40.70713943712443
100
AcDbArc
 50
293.4666032525729
 51
326.9274685021175
  0
ARC
  5
F6
330
2A2
100
AcDbEntity
  8
0
100
AcDbCircle
 10
-18.15791776404313
 20
313.8479648464989
 30
0.0
 40
375.8005949713987
100
AcDbArc
 50
320.8345495335897
 51
336.2497047632915
  0
ARC
  5
F7
330
2A2
100
AcDbEntity
  8
0
100
AcDbCircle
 10
243.6390355907058
 20
134.2847713376812
 30
0.0
 40
64.90567704105227
100
AcDbArc
 50
277.1342437928416
 51
297.1033383173604
  0
ARC
  5
F8
330
2A2
100
AcDbEntity
  8
0
100
AcDbCircle
 10
381.0421028695993
 20
220.098232021537
 30
0.0
 40
198.2282130774614
100
AcDbArc
 50
229.2703185904978
 51
257.6816258806212
  0
ARC
  5
F9
330
2A2
100
AcDbEntity
  8
0
100
AcDbCircle
 10
160.3242556846607
 20
-193.3712790316301
 30
0.0
 40
446.6874107889958
100
AcDbArc
 50
39.59460408187286
 51
52.26326829990398
  0
ARC
  5
FA
330
2A2
100
AcDbEntity
  8
0
100
AcDbCircle
 10
466.7864823442793
 20
76.89389536694345
 30
0.0
 40
40.70713943712443
100
AcDbArc
 50
344.8951746811443
 51
18.35603993068898
  0
ARC
  5
FB
330
2A2
100
AcDbEntity
  8
0
100
AcDbCircle
 10
58.84846850720567
 20
-33.55690956838714
 30
0.0
 40
375.8005949713987
100
AcDbArc
 50
12.26312096216112
 51
27.67827619186292
  0
ARC
  5
FC
330
2A2
100
AcDbEntity
  8
0
100
AcDbCircle
 10
362.4643568592708
 20
59.16837063663575
 30
0.0
 40
64.90567704105227
100
AcDbArc
 50
328.5628152214131
 51
348.5319097459318
  0
ARC
  5
FD
330
2A2
100
AcDbEntity
  8
0
100
AcDbCircle
 10
381.0421028695993
 20
220.098232021537
 30
0.0
 40
198.2282130774614
100
AcDbArc
 50
280.6988900190692
 51
309.1101973091926
  0
ARC
  5
FE
330
2A2
100
AcDbEntity
  8
0
100
AcDbCircle
 10
566.6902568436046
 20
-210.2599531713822
 30
0.0
 40
446.6874107889958
100
AcDbArc
 50
91.02317551044425
 51
103.6918397284753
  0
ARC
  5
FF
330
2A2
100
AcDbEntity
  8
0
100
AcDbCircle
 10
546.4645078612793
 20
197.8494438534434
 30
0.0
 40
40.70713943712443
100
AcDbArc
 50
36.32374610971572
 51
69.78461135926038
  0
ARC
  5
100
330
2A2
100
AcDbEntity
  8
0
100
AcDbCircle
 10
378.4732330057334
 20
-189.9542887441263
 30
0.0
 40
375.8005949713987
100
AcDbArc
 50
63.69169239073251
 51
79.10684762043432
  0
ARC
  5
101
330
2A2
100
AcDbEntity
  8
0
100
AcDbCircle
 10
495.2790997905695
 20
105.2354379293418
 30
0.0
 40
64.90567704105227
100
AcDbArc
 50
19.99138664998446
 51
39.96048117450321
  0
ARC
  5
102
330
2A2
100
AcDbEntity
  8
0
100
AcDbCircle
 10
381.0421028695993
 20
220.098232021537
 30
0.0
 40
198.2282130774614
100
AcDbArc
 50
332.1274614476406
 51
0.5387687377640397
  0
ARC
  5
103
330
2A2
100
AcDbEntity
  8
0
100
AcDbCircle
 10
833.2594115279226
 20
96.91986384626922
 30
0.0
 40
446.6874107889958
100
AcDbArc
 50
142.4517469390156
 51
155.1204111570467
  0
ARC
  5
104
330
2A2
100
AcDbEntity
  8
0
100
AcDbCircle
 10
501.5760884174349
 20
335.5587836230873
 30
0.0
 40
40.70713943712443
100
AcDbArc
 50
87.75231753828714
 51
121.2131827878317
  0
ARC
  5
105
330
2A2
100
AcDbEntity
  8
0
100
AcDbCircle
 10
700.0324089071479
 20
-37.57375623625444
 30
0.0
 40
375.8005949713987
100
AcDbArc
 50
115.1202638193039
 51
130.5354190490057
  0
ARC
  5
106
330
2A2
100
AcDbEntity
  8
0
100
AcDbCircle
 10
542.0710540303129
 20
237.7965319474715
 30
0.0
 40
64.90567704105227
100
AcDbArc
 50
71.41995807855589
 51
91.38905260307465
  0
ARC
  5
107
330
2A2
100
AcDbEntity
  8
0
100
AcDbCircle
 10
381.0421028695993
 20
220.0982320215369
 30
0.0
 40
198.2282130774614
100
AcDbArc
 50
23.55603287621207
 51
51.96734016633547
  0
LINE
  5
108
330
2A2
100
AcDbEntity
  8
0
100
AcDbLine
 10
212.4075180820932
 20
283.6043138191866
 30
0.0
 11
213.9113206679125
 21
282.5391526866201
 31
0.0
  0
LINE
  5
109
330
2A2
100
AcDbEntity
  8
0
100
AcDbLine
 10
226.249104936315
 20
127.8497989585816
 30
0.0
 11
228.019487019924
 21
128.3614020601004
 31
0.0
  0
LINE
  5
10A
330
2A2
100
AcDbEntity
  8
0
100
AcDbLine
 10
356.6529764360197
 20
41.5602357194859
 30
0.0
 11
357.3568041992476
 21
43.26335548484512
 31
0.0
  0
LINE
  5
10B
330
2A2
100
AcDbEntity
  8
0
100
AcDbLine
 10
505.4223575877235
 20
89.71342520725015
 30
0.0
 11
504.5296343693897
 21
91.32557771582214
 31
0.0
  0
LINE
  5
10C
330
2A2
100
AcDbEntity
  8
0
100
AcDbLine
 10
560.530870041863
 20
236.0490335915301
 30
0.0
 11
558.7138346336081
 21
236.3562351224423
 31
0.0
  0
LINE
  5
10D
330
2A2
100
AcDbEntity
  8
0
100
AcDbLine
 10
479.1075970366886
 20
369.1442845912561
 30
0.0
 11
480.4806799116812
 21
370.3733630565498
 31
0.0
  0
LINE
  5
10F
330
2A2
100
AcDbEntity
  8
0
100
AcDbLine
 10
30.05886539262883
 20
445.0982320215368
 30
0.0
 11
16.85404022978036
 21
445.098232021537
 31
0.0
  0
LINE
  5
110
330
2A2
100
AcDbEntity
  8
0
100
AcDbLine
 10
26.63429620377042
 20
420.098232021537
 30
0.0
 11
-143.3657037962295
 21
420.098232021537
 31
0.0
  0
LINE
  5
114
330
2A2
100
AcDbEntity
  8
0
100
AcDbLine
 10
26.63429620377042
 20
463.5982320215369
 30
0.0
 11
26.63429620377042
 21
220.098232021537
 31
0.0
  0
LINE
  5
116
330
2A2
100
AcDbEntity
  8
0
100
AcDbLine
 10
-143.3657037962295
 20
220.098232021537
 30
0.0
 11
-143.3657037962295
 21
463.5982320215369
 31
0.0
  0
LINE
  5
117
330
2A2
100
AcDbEntity
  8
0
100
AcDbLine
 10
-138.3657037962295
 20
220.098232021537
 30
0.0
 11
-138.3657037962295
 21
295.098232021537
 31
0.0
  0
LINE
  5
118
330
2A2
100
AcDbEntity
  8
0
100
AcDbLine
 10
21.63429620377042
 20
463.5982320215369
 30
0.0
 11
21.63429620377042
 21
420.0982320215371
 31
0.0
  0
LWPOLYLINE
  5
119
330
2A2
100
AcDbEntity
  8
0
100
AcDbPolyline
 90
        6
 70
     1
 43
0.0
 10
-123.6168477317946
 20
420.1037091828115
 10
-15.71325170786417
 20
420.1107274810639
 10
-15.67340127017047
 20
458.6210519277689
 42
0.4145166803054878
 10
-20.6733985931512
 20
463.6262259190206
 10
-118.6418515862181
 20
463.6262259190205
 42
0.4144036916762114
 10
-123.6418505328963
 20
458.6229804272151
  0
CIRCLE
  5
11B
330
2A2
100
AcDbEntity
  8
0
100
AcDbCircle
 10
-58.36570379622959
 20
445.0982320215368
 30
0.0
 40
6.0
  0
LINE
  5
11C
330
2A2
100
AcDbEntity
  8
0
100
AcDbLine
 10
-143.3657037962295
 20
463.5982320215369
 30
0.0
 11
-138.3657037962295
 21
463.5982320215369
 31
0.0
  0
LINE
  5
11D
330
2A2
100
AcDbEntity
  8
0
100
AcDbLine
 10
21.63429620377042
 20
463.5982320215369
 30
0.0
 11
26.63429620377042
 21
463.5982320215369
 31
0.0
  0
LINE
  5
11E
330
2A2
100
AcDbEntity
  8
0
100
AcDbLine
 10
-133.7317503453043
 20
445.0982320215367
 30
0.0
 11
-147.4444522862395
 21
445.0982320215368
 31
0.0
  0
LINE
  5
11F
330
2A2
100
AcDbEntity
  8
0
100
AcDbLine
 10
-123.6168477317946
 20
420.1037091828115
 30
0.0
 11
-123.6168477317946
 21
324.1318473864753
 31
0.0
  0
LINE
  5
120
330
2A2
100
AcDbEntity
  8
0
100
AcDbLine
 10
3.212500303925253
 20
300.098232021537
 30
0.0
 11
3.212500303925253
 21
220.098232021537
 31
0.0
  0
LINE
  5
124
330
2A2
100
AcDbEntity
  8
0
100
AcDbLine
 10
-113.8813504907764
 20
311.005788492503
 30
0.0
 11
-123.6168477317946
 21
324.1318473864753
 31
0.0
  0
LWPOLYLINE
  5
125
330
2A2
100
AcDbEntity
  8
0
100
AcDbPolyline
 90
        4
 70
     1
 43
0.0
 10
-113.8813504907764
 20
311.005788492503
 10
-83.43663635523808
 20
311.005788492503
 10
-83.43663635523808
 20
304.0384916613312
 10
-113.8813504907764
 20
304.0384916613312
  0
LWPOLYLINE
  5
126
330
2A2
100
AcDbEntity
  8
0
100
AcDbPolyline
 90
        4
 70
     1
 43
0.0
 10
-113.8813504907764
 20
304.0384916613312
 10
-83.43663635523808
 20
304.0384916613312
 10
-83.43663635523808
 20
297.0711948301594
 10
-113.8813504907764
 20
297.0711948301594
  0
LWPOLYLINE
  5
127
330
2A2
100
AcDbEntity
  8
0
100
AcDbPolyline
 90
        4
 70
     1
 43
0.0
 10
-113.8813504907764
 20
297.0711948301594
 10
-83.43663635523808
 20
297.0711948301594
 10
-83.43663635523808
 20
290.1038979989877
 10
-113.8813504907764
 20
290.1038979989877
  0
LWPOLYLINE
  5
128
330
2A2
100
AcDbEntity
  8
0
100
AcDbPolyline
 90
        4
 70
     1
 43
0.0
 10
-113.8813504907764
 20
290.1038979989877
 10
-83.43663635523808
 20
290.1038979989877
 10
-83.43663635523808
 20
283.1366011678159
 10
-113.8813504907764
 20
283.1366011678159
  0
LWPOLYLINE
  5
129
330
2A2
100
AcDbEntity
  8
0
100
AcDbPolyline
 90
        4
 70
     1
 43
0.0
 10
-113.8813504907764
 20
283.1366011678159
 10
-83.43663635523808
 20
283.1366011678159
 10
-83.43663635523808
 20
276.1693043366441
 10
-113.8813504907764
 20
276.1693043366441
  0
LWPOLYLINE
  5
12A
330
2A2
100
AcDbEntity
  8
0
100
AcDbPolyline
 90
        4
 70
     1
 43
0.0
 10
-113.8813504907764
 20
276.1693043366441
 10
-83.43663635523808
 20
276.1693043366441
 10
-83.43663635523808
 20
269.2020075054723
 10
-113.8813504907764
 20
269.2020075054723
  0
LWPOLYLINE
  5
12D
330
2A2
100
AcDbEntity
  8
0
100
AcDbPolyline
 90
        4
 70
     1
 43
0.0
 10
-113.8813504907764
 20
269.2020075054723
 10
-83.43663635523808
 20
269.2020075054723
 10
-83.43663635523808
 20
262.2347106743005
 10
-113.8813504907764
 20
262.2347106743005
  0
LWPOLYLINE
  5
12E
330
2A2
100
AcDbEntity
  8
0
100
AcDbPolyline
 90
        4
 70
     1
 43
0.0
 10
-113.8813504907764
 20
262.2347106743005
 10
-83.43663635523808
 20
262.2347106743005
 10
-83.43663635523808
 20
255.2674138431287
 10
-113.8813504907764
 20
255.2674138431287
  0
LWPOLYLINE
  5
12F
330
2A2
100
AcDbEntity
  8
0
100
AcDbPolyline
 90
        4
 70
     1
 43
0.0
 10
-113.8813504907764
 20
255.2674138431287
 10
-83.43663635523808
 20
255.2674138431287
 10
-83.43663635523808
 20
248.300117011957
 10
-113.8813504907764
 20
248.300117011957
  0
LWPOLYLINE
  5
130
330
2A2
100
AcDbEntity
  8
0
100
AcDbPolyline
 90
        4
 70
     1
 43
0.0
 10
-113.8813504907764
 20
248.300117011957
 10
-83.43663635523808
 20
248.300117011957
 10
-83.43663635523808
 20
241.3328201807852
 10
-113.8813504907764
 20
241.3328201807852
  0
LWPOLYLINE
  5
131
330
2A2
100
AcDbEntity
  8
0
100
AcDbPolyline
 90
        4
 70
     1
 43
0.0
 10
-113.8813504907764
 20
241.3328201807852
 10
-83.43663635523808
 20
241.3328201807852
 10
-83.43663635523808
 20
234.3655233496134
 10
-113.8813504907764
 20
234.3655233496134
  0
LWPOLYLINE
  5
132
330
2A2
100
AcDbEntity
  8
0
100
AcDbPolyline
 90
        4
 70
     1
 43
0.0
 10
-113.8813504907764
 20
234.3655233496134
 10
-83.43663635523808
 20
234.3655233496134
 10
-83.43663635523808
 20
227.3982265184416
 10
-113.8813504907764
 20
227.3982265184416
  0
LWPOLYLINE
  5
133
330
2A2
100
AcDbEntity
  8
0
100
AcDbPolyline
 90
        4
 70
     1
 43
0.0
 10
-113.8813504907764
 20
227.3982265184416
 10
-83.43663635523808
 20
227.3982265184416
 10
-83.43663635523808
 20
220.4309296872699
 10
-113.8813504907764
 20
220.4309296872699
  0
ARC
  5
134
330
2A2
100
AcDbEntity
  8
0
100
AcDbCircle
 10
-133.3657037962295
 20
295.098232021537
 30
0.0
 40
5.0
100
AcDbArc
 50
89.99999999999999
 51
180.0
  0
LINE
  5
135
330
2A2
100
AcDbEntity
  8
0
100
AcDbLine
 10
-113.8813504907764
 20
300.098232021537
 30
0.0
 11
-133.3657037962295
 21
300.098232021537
 31
0.0
  0
ARC
  5
137
330
2A2
100
AcDbEntity
  8
0
100
AcDbCircle
 10
-33.13851455028132
 20
220.6462255162355
 30
0.0
 40
59.77532268679038
100
AcDbArc
 50
359.4747304932758
 51
52.54577142406546
  0
LINE
  5
138
330
2A2
100
AcDbEntity
  8
0
100
AcDbLine
 10
-138.3657037962295
 20
463.5982320215369
 30
0.0
 11
-138.3657037962295
 21
420.098232021537
 31
0.0
  0
LINE
  5
139
330
2A2
100
AcDbEntity
  8
0
100
AcDbLine
 10
-83.43663635523808
 20
311.005788492503
 30
0.0
 11
3.212500303925253
 21
311.005788492503
 31
0.0
  0
LINE
  5
13A
330
2A2
100
AcDbEntity
  8
0
100
AcDbLine
 10
3.212500303925253
 20
311.005788492503
 30
0.0
 11
3.212500303925253
 21
300.098232021537
 31
0.0
  0
ARC
  5
13B
330
2A2
100
AcDbEntity
  8
0
100
AcDbCircle
 10
636.7160750644725
 20
354.3093998905305
 30
0.0
 40
710.7034604064714
100
AcDbArc
 50
176.5355001964764
 51
183.4932318277746
  0
ARC
  5
13C
330
2A2
100
AcDbEntity
  8
0
100
AcDbCircle
 10
-14.07175401671812
 20
318.2564140088707
 30
0.0
 40
98.37205752022867
100
AcDbArc
 50
81.77166929577513
 51
126.5745428885817
  0
ARC
  5
13D
330
2A2
100
AcDbEntity
  8
0
100
AcDbCircle
 10
173.3894360656749
 20
375.0042795055963
 30
0.0
 40
178.0750756858353
100
AcDbArc
 50
166.8172139696259
 51
180.6955701490008
  0
ARC
  5
13E
330
2A2
100
AcDbEntity
  8
0
100
AcDbCircle
 10
-113.8116624944165
 20
341.7600867876728
 30
0.0
 40
113.4789389111896
100
AcDbArc
 50
344.2754287984048
 51
15.89675290784055
  0
ARC
  5
140
330
2A2
100
AcDbEntity
  8
0
100
AcDbCircle
 10
-14.07175401671842
 20
121.9400500342022
 30
0.0
 40
98.37205752022867
100
AcDbArc
 50
233.425457111418
 51
278.2283307042246
  0
LINE
  5
141
330
2A2
100
AcDbEntity
  8
0
100
AcDbLine
 10
-83.43663635523835
 20
129.19067555057
 30
0.0
 11
3.212500303924983
 21
129.1906755505698
 31
0.0
  0
LINE
  5
144
330
2A2
100
AcDbEntity
  8
0
100
AcDbLine
 10
26.63429620376981
 20
20.09823202153575
 30
0.0
 11
-143.3657037962302
 21
20.09823202153631
 31
0.0
  0
ARC
  5
146
330
2A2
100
AcDbEntity
  8
0
100
AcDbCircle
 10
636.7160750644721
 20
85.8870641525404
 30
0.0
 40
710.7034604064714
100
AcDbArc
 50
176.5067681722252
 51
183.4644998035233
  0
LINE
  5
147
330
2A2
100
AcDbEntity
  8
0
100
AcDbLine
 10
-123.6168477317952
 20
20.09275486026177
 30
0.0
 11
-123.6168477317949
 21
116.0646166565979
 31
0.0
  0
LINE
  5
148
330
2A2
100
AcDbEntity
  8
0
100
AcDbLine
 10
-143.3657037962295
 20
220.0982320215362
 30
0.0
 11
-143.3657037962303
 21
-23.40176797846357
 31
0.0
  0
LINE
  5
149
330
2A2
100
AcDbEntity
  8
0
100
AcDbLine
 10
-138.3657037962295
 20
220.0982320215362
 30
0.0
 11
-138.3657037962298
 21
145.0982320215361
 31
0.0
  0
LWPOLYLINE
  5
14A
330
2A2
100
AcDbEntity
  8
0
100
AcDbPolyline
 90
        4
 70
     1
 43
0.0
 10
-113.8813504907764
 20
198.8636438622879
 10
-83.43663635523816
 20
198.8636438622878
 10
-83.43663635523812
 20
205.8309406934596
 10
-113.8813504907764
 20
205.8309406934597
  0
LWPOLYLINE
  5
14B
330
2A2
100
AcDbEntity
  8
0
100
AcDbPolyline
 90
        4
 70
     1
 43
0.0
 10
-113.8813504907764
 20
212.7982375246315
 10
-83.43663635523809
 20
212.7982375246314
 10
-83.43663635523808
 20
219.7655343558032
 10
-113.8813504907764
 20
219.7655343558033
  0
LWPOLYLINE
  5
14C
330
2A2
100
AcDbEntity
  8
0
100
AcDbPolyline
 90
        4
 70
     1
 43
0.0
 10
-113.8813504907764
 20
205.8309406934597
 10
-83.43663635523812
 20
205.8309406934596
 10
-83.43663635523809
 20
212.7982375246314
 10
-113.8813504907764
 20
212.7982375246315
  0
LINE
  5
14D
330
2A2
100
AcDbEntity
  8
0
100
AcDbLine
 10
-113.8813504907766
 20
140.0982320215361
 30
0.0
 11
-133.3657037962298
 21
140.0982320215362
 31
0.0
  0
LINE
  5
14E
330
2A2
100
AcDbEntity
  8
0
100
AcDbLine
 10
-113.8813504907766
 20
129.1906755505701
 30
0.0
 11
-123.6168477317949
 21
116.0646166565979
 31
0.0
  0
ARC
  5
14F
330
2A2
100
AcDbEntity
  8
0
100
AcDbCircle
 10
-133.3657037962298
 20
145.0982320215361
 30
0.0
 40
5.0
100
AcDbArc
 50
179.9999999999998
 51
269.9999999999998
  0
LWPOLYLINE
  5
150
330
2A2
100
AcDbEntity
  8
0
100
AcDbPolyline
 90
        4
 70
     1
 43
0.0
 10
-113.8813504907766
 20
150.0925660440855
 10
-83.43663635523831
 20
150.0925660440854
 10
-83.43663635523828
 20
157.0598628752571
 10
-113.8813504907766
 20
157.0598628752573
  0
LWPOLYLINE
  5
151
330
2A2
100
AcDbEntity
  8
0
100
AcDbPolyline
 90
        4
 70
     1
 43
0.0
 10
-113.8813504907765
 20
191.8963470311162
 10
-83.43663635523816
 20
191.8963470311161
 10
-83.43663635523816
 20
198.8636438622878
 10
-113.8813504907764
 20
198.8636438622879
  0
LWPOLYLINE
  5
152
330
2A2
100
AcDbEntity
  8
0
100
AcDbPolyline
 90
        4
 70
     1
 43
0.0
 10
-113.8813504907765
 20
184.9290501999444
 10
-83.43663635523819
 20
184.9290501999443
 10
-83.43663635523816
 20
191.8963470311161
 10
-113.8813504907765
 20
191.8963470311162
  0
LWPOLYLINE
  5
153
330
2A2
100
AcDbEntity
  8
0
100
AcDbPolyline
 90
        4
 70
     1
 43
0.0
 10
-113.8813504907765
 20
177.9617533687726
 10
-83.43663635523821
 20
177.9617533687725
 10
-83.43663635523819
 20
184.9290501999443
 10
-113.8813504907765
 20
184.9290501999444
  0
LWPOLYLINE
  5
154
330
2A2
100
AcDbEntity
  8
0
100
AcDbPolyline
 90
        4
 70
     1
 43
0.0
 10
-113.8813504907765
 20
170.9944565376008
 10
-83.43663635523824
 20
170.9944565376007
 10
-83.43663635523821
 20
177.9617533687725
 10
-113.8813504907765
 20
177.9617533687726
  0
LWPOLYLINE
  5
155
330
2A2
100
AcDbEntity
  8
0
100
AcDbPolyline
 90
        4
 70
     1
 43
0.0
 10
-113.8813504907765
 20
164.027159706429
 10
-83.43663635523824
 20
164.0271597064289
 10
-83.43663635523824
 20
170.9944565376007
 10
-113.8813504907765
 20
170.9944565376008
  0
LWPOLYLINE
  5
156
330
2A2
100
AcDbEntity
  8
0
100
AcDbPolyline
 90
        4
 70
     1
 43
0.0
 10
-113.8813504907766
 20
157.0598628752573
 10
-83.43663635523828
 20
157.0598628752571
 10
-83.43663635523824
 20
164.0271597064289
 10
-113.8813504907765
 20
164.027159706429
  0
LWPOLYLINE
  5
157
330
2A2
100
AcDbEntity
  8
0
100
AcDbPolyline
 90
        4
 70
     1
 43
0.0
 10
-113.8813504907766
 20
129.1906755505701
 10
-83.43663635523835
 20
129.19067555057
 10
-83.43663635523834
 20
136.1579723817418
 10
-113.8813504907766
 20
136.1579723817419
  0
LWPOLYLINE
  5
158
330
2A2
100
AcDbEntity
  8
0
100
AcDbPolyline
 90
        4
 70
     1
 43
0.0
 10
-113.8813504907766
 20
143.1252692129137
 10
-83.43663635523832
 20
143.1252692129136
 10
-83.43663635523831
 20
150.0925660440854
 10
-113.8813504907766
 20
150.0925660440855
  0
LWPOLYLINE
  5
159
330
2A2
100
AcDbEntity
  8
0
100
AcDbPolyline
 90
        4
 70
     1
 43
0.0
 10
-113.8813504907766
 20
136.1579723817419
 10
-83.43663635523834
 20
136.1579723817418
 10
-83.43663635523832
 20
143.1252692129136
 10
-113.8813504907766
 20
143.1252692129137
  0
LINE
  5
15A
330
2A2
100
AcDbEntity
  8
0
100
AcDbLine
 10
-138.3657037962303
 20
-23.40176797846362
 30
0.0
 11
-138.3657037962301
 21
20.09823202153626
 31
0.0
  0
LINE
  5
15B
330
2A2
100
AcDbEntity
  8
0
100
AcDbLine
 10
-133.731750345305
 20
-4.90176797846351
 30
0.0
 11
-147.4444522862402
 21
-4.901767978463567
 31
0.0
  0
LINE
  5
15C
330
2A2
100
AcDbEntity
  8
0
100
AcDbLine
 10
-143.3657037962303
 20
-23.40176797846357
 30
0.0
 11
-138.3657037962303
 21
-23.40176797846362
 31
0.0
  0
ARC
  5
15D
330
2A2
100
AcDbEntity
  8
0
100
AcDbCircle
 10
-113.8116624944168
 20
98.43637725540043
 30
0.0
 40
113.4789389111896
100
AcDbArc
 50
344.1032470921593
 51
15.72457120159501
  0
LINE
  5
15E
330
2A2
100
AcDbEntity
  8
0
100
AcDbLine
 10
26.63429620376968
 20
-23.40176797846413
 30
0.0
 11
26.63429620377042
 21
220.0982320215357
 31
0.0
  0
LINE
  5
15F
330
2A2
100
AcDbEntity
  8
0
100
AcDbLine
 10
3.212500303925009
 20
140.0982320215358
 30
0.0
 11
3.212500303925252
 21
220.0982320215358
 31
0.0
  0
ARC
  5
160
330
2A2
100
AcDbEntity
  8
0
100
AcDbCircle
 10
-33.13851455028132
 20
219.5502385268373
 30
0.0
 40
59.77532268679038
100
AcDbArc
 50
307.4542285759343
 51
0.5252695067240439
  0
LINE
  5
161
330
2A2
100
AcDbEntity
  8
0
100
AcDbLine
 10
3.212500303924976
 20
129.1906755505698
 30
0.0
 11
3.212500303925009
 21
140.0982320215358
 31
0.0
  0
LINE
  5
162
330
2A2
100
AcDbEntity
  8
0
100
AcDbLine
 10
21.63429620376967
 20
-23.40176797846413
 30
0.0
 11
21.63429620376981
 21
20.09823202153569
 31
0.0
  0
ARC
  5
163
330
2A2
100
AcDbEntity
  8
0
100
AcDbCircle
 10
173.3894360656744
 20
65.19218453747601
 30
0.0
 40
178.0750756858353
100
AcDbArc
 50
179.3044298509989
 51
193.1827860303738
  0
LINE
  5
164
330
2A2
100
AcDbEntity
  8
0
100
AcDbLine
 10
30.05886539262815
 20
-4.901767978464135
 30
0.0
 11
16.85404022977968
 21
-4.901767978464249
 31
0.0
  0
LINE
  5
165
330
2A2
100
AcDbEntity
  8
0
100
AcDbLine
 10
21.63429620376967
 20
-23.40176797846413
 30
0.0
 11
26.63429620376968
 21
-23.40176797846413
 31
0.0
  0
DIMENSION
  5
166
330
2A2
100
AcDbEntity
  8
koty
100
AcDbDimension
  2
*D3
 10
-194.5522840035201
 20
20.09823202153632
 30
0.0
 11
-210.8022840035201
 21
220.0982320215367
 31
0.0
 70
    32
 71
     0
 42
400.0000000000007
  3
ISO-25
100
AcDbAlignedDimension
 13
-143.3657037962295
 23
420.098232021537
 33
0.0
 14
-143.3657037962302
 24
20.09823202153631
 34
0.0
 50
90.0
100
AcDbRotatedDimension
  0
DIMENSION
  5
17F
330
2A2
100
AcDbEntity
  8
koty
100
AcDbDimension
  2
*D4
 10
-254.6128541810322
 20
445.0982320215368
 30
0.0
 11
-270.8628541810322
 21
220.0982320215366
 31
0.0
 70
    32
 71
     0
 42
450.0000000000003
  3
ISO-25
100
AcDbAlignedDimension
 13
-143.3657037962302
 23
-4.901767978463539
 33
0.0
 14
-143.3657037962295
 24
445.0982320215368
 34
0.0
 50
90.0
100
AcDbRotatedDimension
  0
DIMENSION
  5
197
330
2A2
100
AcDbEntity
  8
koty
100
AcDbDimension
  2
*D5
 10
-324.7572822917273
 20
-23.40176797846356
 30
0.0
 11
-341.0072822917273
 21
220.0982320215366
 31
0.0
 70
    32
 71
     0
 42
487.0000000000005
  3
ISO-25
100
AcDbAlignedDimension
 13
-143.3657037962295
 23
463.5982320215369
 33
0.0
 14
-143.3657037962303
 24
-23.40176797846357
 34
0.0
 50
90.0
100
AcDbRotatedDimension
  0
DIMENSION
  5
1AF
330
2A2
100
AcDbEntity
  8
koty
100
AcDbDimension
  2
*D6
 10
26.63429620376968
 20
-78.59864229760069
 30
0.0
 11
-58.36570379623031
 21
-62.34864229760069
 31
0.0
 70
    32
 71
     0
 42
170.0
  3
ISO-25
100
AcDbAlignedDimension
 13
-143.3657037962303
 23
-23.40176797846357
 33
0.0
 14
26.63429620376968
 24
-23.4017679784655
 34
0.0
100
AcDbRotatedDimension
  0
DIMENSION
  5
1C7
330
2A2
100
AcDbEntity
  8
koty
100
AcDbDimension
  2
*D7
 10
375.0421031190129
 20
445.0999620392094
 30
0.0
 11
381.1326346547627
 21
478.6282496253426
 31
0.0
 70
   163
 71
     0
 42
11.99999999999995
  3
ISO-25
100
AcDbDiametricDimension
 15
387.042102620186
 25
445.0965020038645
 35
0.0
 40
0.0
  0
TEXT
  5
1E1
330
2A2
100
AcDbEntity
  8
popis
100
AcDbText
 10
-109.909594256364
 20
542.3397819894283
 30
0.0
 40
15.0
  1
TXBR/TXTR 400 axiální ventilátor
100
AcDbText
  0
LWPOLYLINE
  5
1E9
330
2A2
100
AcDbEntity
  8
koty
100
AcDbPolyline
 90
        4
 70
     1
 43
0.0
 10
247.0917957635715
 20
12.11243157623098
 10
262.5421028695993
 20
25.24251617003836
 10
252.1853533132403
 20
7.811255465833174
 10
252.1853533132403
 20
7.811255465833174
1001
VDEXTRAPARAM
1071
       65
1071
        0
1071
        0
1040
1.0
1000

1000

1040
0.0
1040
0.0
  0
HATCH
  5
30C
330
2A2
100
AcDbEntity
  8
koty
100
AcDbHatch
 10
0.0
 20
0.0
 30
0.0
210
0.0
220
0.0
230
1.0
  2
SOLID
 70
     1
 71
     0
 91
        1
 92
        2
 72
     0
 73
     1
 93
        3
 10
247.0917957635715
 20
12.11243157623098
 10
262.5421028695993
 20
25.24251617003836
 10
252.1853533132403
 20
7.811255465833174
 97
        0
 75
     0
 76
     1
 98
        1
 10
0.0
 20
0.0
1001
VDEXTRAPARAM
1071
       65
1071
        0
1071
        0
1040
1.0
1000

1000

1040
0.0
1040
0.0
1001
VD_TEMPHATCH
1000
VD_TEMPHATCH
  0
LWPOLYLINE
  5
1EA
330
2A2
100
AcDbEntity
  8
koty
100
AcDbPolyline
 90
        3
 70
     0
 43
0.0
 10
249.6385745384059
 20
9.961843521032076
 10
234.7566457410862
 20
-7.661699164414926
 10
214.7566457410862
 20
-7.661699164414926
  0
TEXT
  5
1EF
330
2A2
100
AcDbEntity
  8
koty
100
AcDbText
 10
176.1256933601338
 20
-17.66169916441492
 30
0.0
 40
20.0
  1
8x
  7
Proxy_1EF
100
AcDbText
  0
VIEWPORT
  5
30D
330
29E
100
AcDbEntity
 67
     1
  8
0
 60
     1
100
AcDbViewport
 10
0.0
 20
0.0
 30
0.0
 40
10.0
 41
10.0
 69
     1
 12
0.0
 22
0.0
 13
0.0
 23
0.0
 14
1.0
 24
1.0
 15
0.0
 25
0.0
 16
0.0
 26
0.0
 36
1.0
 17
0.0
 27
0.0
 37
0.0
 42
0.0
 43
0.0
 44
0.0
 45
10.0
 50
0.0
 51
0.0000000000007958
 72
   100
 90
   163872
  1

281
     0
 71
     0
 74
     0
110
0.0
120
0.0
130
0.0
111
1.0
121
0.0
131
0.0
112
0.0
122
1.0
132
0.0
 79
     0
146
0.0
1001
VD_INVISIBLE_NOT_FOR_READ
1000
VD_INVISIBLE_NOT_FOR_READ
  0
VIEWPORT
  5
30E
330
29E
100
AcDbEntity
 67
     1
  8
0
 60
     1
100
AcDbViewport
 10
0.0
 20
0.0
 30
0.0
 40
10.0
 41
10.0
 69
     2
 12
0.0
 22
0.0
 13
0.0
 23
0.0
 14
1.0
 24
1.0
 15
0.0
 25
0.0
 16
0.0
 26
0.0
 36
1.0
 17
0.0
 27
0.0
 37
0.0
 42
0.0
 43
0.0
 44
0.0
 45
10.0
 50
0.0
 51
0.0000000000007958
 72
   100
 90
   163872
  1

281
     0
 71
     0
 74
     0
110
0.0
120
0.0
130
0.0
111
1.0
121
0.0
131
0.0
112
0.0
122
1.0
132
0.0
 79
     0
146
0.0
1001
VD_INVISIBLE_NOT_FOR_READ
1000
VD_INVISIBLE_NOT_FOR_READ
  0
ENDSEC
  0
SECTION
  2
OBJECTS
  0
DICTIONARY
  5
28F
330
0
100
AcDbDictionary
281
     1
  3
ACAD_GROUP
350
290
  3
ACAD_LAYOUT
350
29D
  3
ACAD_MLINESTYLE
350
29A
  3
ACAD_PLOTSETTINGS
350
29C
  3
ACAD_PLOTSTYLENAME
350
291
  3
VECTORDRAW_OBJECTS
350
2B2
  0
DICTIONARY
  5
290
102
{ACAD_REACTORS
330
28F
102
}
330
28F
100
AcDbDictionary
281
     1
  0
DICTIONARY
  5
29D
102
{ACAD_REACTORS
330
28F
102
}
330
28F
100
AcDbDictionary
281
     1
  3
Model
350
2A5
  3
Rozvržení1
350
2A1
  3
Rozvržení2
350
2A9
  0
DICTIONARY
  5
29A
102
{ACAD_REACTORS
330
28F
102
}
330
28F
100
AcDbDictionary
281
     1
  3
Standard
350
29B
  0
DICTIONARY
  5
29C
102
{ACAD_REACTORS
330
28F
102
}
330
28F
100
AcDbDictionary
281
     1
  0
ACDBDICTIONARYWDFLT
  5
291
102
{ACAD_REACTORS
330
28F
102
}
330
28F
100
AcDbDictionary
281
     1
  3
Normal
350
292
100
AcDbDictionaryWithDefault
340
292
  0
DICTIONARY
  5
2B2
102
{ACAD_REACTORS
330
28F
102
}
330
28F
100
AcDbDictionary
281
     1
  3
SERIALNO
350
2B3
  0
LAYOUT
  5
2A5
102
{ACAD_REACTORS
330
29D
102
}
330
29D
100
AcDbPlotSettings
  1
VectorDraw Printer Drawing
  2

  4

  6

 40
0.0
 41
0.0
 42
0.0
 43
0.0
 44
0.0
 45
0.0
 46
0.0
 47
0.0
 48
0.0
 49
0.0
140
0.0
141
0.0
142
1.0
143
1.0
 70
  1712
 72
     0
 73
     0
 74
     0
  7

 75
     0
147
1.0
148
0.0
149
0.0
100
AcDbLayout
  1
Model
 70
     1
 71
     0
 10
0.0
 20
0.0
 11
12.0
 21
9.0
 12
0.0
 22
0.0
 32
0.0
 14
-357.1918976763428
 24
-91.09864229760069
 34
0.0
 15
624.5421028695994
 25
557.3397819894283
 35
0.0
146
0.0
 13
0.0
 23
0.0
 33
0.0
 16
1.0
 26
0.0
 36
0.0
 17
0.0
 27
1.0
 37
0.0
 76
     0
330
2A2
  0
LAYOUT
  5
2A1
102
{ACAD_REACTORS
330
29D
102
}
330
29D
100
AcDbPlotSettings
  1
VectorDraw Printer Drawing
  2

  4

  6

 40
0.0
 41
0.0
 42
0.0
 43
0.0
 44
0.0
 45
0.0
 46
0.0
 47
0.0
 48
0.0
 49
0.0
140
0.0
141
0.0
142
1.0
143
1.0
 70
   688
 72
     0
 73
     0
 74
     5
  7

 75
    16
147
1.0
148
0.0
149
0.0
100
AcDbLayout
  1
Rozvržení1
 70
     1
 71
     1
 10
0.0
 20
0.0
 11
12.0
 21
9.0
 12
0.0
 22
0.0
 32
0.0
 14
1.000000000000000E+20
 24
1.000000000000000E+20
 34
1.000000000000000E+20
 15
-1.000000000000000E+20
 25
-1.000000000000000E+20
 35
-1.000000000000000E+20
146
0.0
 13
0.0
 23
0.0
 33
0.0
 16
1.0
 26
0.0
 36
0.0
 17
0.0
 27
1.0
 37
0.0
 76
     0
330
29E
331
30D
  0
LAYOUT
  5
2A9
102
{ACAD_REACTORS
330
29D
102
}
330
29D
100
AcDbPlotSettings
  1
VectorDraw Printer Drawing
  2

  4

  6

 40
0.0
 41
0.0
 42
0.0
 43
0.0
 44
0.0
 45
0.0
 46
0.0
 47
0.0
 48
0.0
 49
0.0
140
0.0
141
0.0
142
1.0
143
1.0
 70
   688
 72
     0
 73
     0
 74
     5
  7

 75
    16
147
1.0
148
0.0
149
0.0
100
AcDbLayout
  1
Rozvržení2
 70
     1
 71
     2
 10
0.0
 20
0.0
 11
12.0
 21
9.0
 12
0.0
 22
0.0
 32
0.0
 14
0.0
 24
0.0
 34
0.0
 15
0.0
 25
0.0
 35
0.0
146
0.0
 13
0.0
 23
0.0
 33
0.0
 16
1.0
 26
0.0
 36
0.0
 17
0.0
 27
1.0
 37
0.0
 76
     0
330
2A6
331
30F
  0
MLINESTYLE
  5
29B
102
{ACAD_REACTORS
330
29A
102
}
330
29A
100
AcDbMlineStyle
  2
Standard
 70
     0
  3

 62
   256
 51
90.0
 52
90.0
 71
     2
 49
0.5
 62
   256
  6
BYLAYER
 49
-0.5
 62
   256
  6
BYLAYER
  0
ACDBPLACEHOLDER
  5
292
102
{ACAD_REACTORS
330
291
102
}
330
291
  0
XRECORD
  5
2B3
102
{ACAD_REACTORS
330
2B2
102
}
330
2B2
100
AcDbXrecord
280
     1
1000
rInJVR9YY4Q8hfPWdUq5j5319
1070
     4
1070
     6
  0
ENDSEC
  0
EOF
